<?xml version="1.0" standalone="no"?>
<!DOCTYPE svg PUBLIC "-//W3C//DTD SVG 1.1//EN" "http://www.w3.org/Graphics/SVG/1.1/DTD/svg11.dtd" >
<svg xmlns="http://www.w3.org/2000/svg" xmlns:xlink="http://www.w3.org/1999/xlink" version="1.1">
<metadata>
Created by FontForge 20150318 at Wed Jul  8 05:48:06 2015
 By uniteet7
(c) 1989, 1990, 2002 Adobe Systems Incorporated. All rights reserved. (c) 1981, 2002 Heidelberger Druckmaschinen AG. All rights reserved.
</metadata>
<defs>
<font id="TradeGothicLTStdBold" horiz-adv-x="500" >
  <font-face 
    font-family="TradeGothicLTStdBold"
    font-weight="700"
    font-stretch="semi-condensed"
    units-per-em="1000"
    panose-1="2 11 8 4 5 5 2 2 2 4"
    ascent="722"
    descent="-278"
    x-height="544"
    cap-height="722"
    bbox="-167 -228 1000 971"
    underline-thickness="50"
    underline-position="-50"
    unicode-range="U+0020-FB02"
  />
<missing-glyph 
d="M0 0v700h500v-700h-500zM250 395l170 255h-340zM280 350l170 -255v510zM80 50h340l-170 255zM50 605v-510l170 255z" />
    <glyph glyph-name="f_i" unicode="fi" 
d="M322 520h126v-520h-126v520zM448 614h-126v114h126v-114zM270 726v-104h-36q-43 0 -43 -46v-56h75v-102h-75v-418h-126v418h-57v102h57v52q0 90 35.5 125t109.5 35q18 0 60 -6z" />
    <glyph glyph-name="f_l" unicode="fl" 
d="M322 0v722h126v-722h-126zM270 726v-104h-36q-43 0 -43 -46v-56h75v-102h-75v-418h-126v418h-57v102h57v52q0 90 35.5 125t109.5 35q18 0 60 -6z" />
    <glyph glyph-name=".notdef" 
d="M0 0v700h500v-700h-500zM250 395l170 255h-340zM280 350l170 -255v510zM80 50h340l-170 255zM50 605v-510l170 255z" />
    <glyph glyph-name=".null" horiz-adv-x="0" 
 />
    <glyph glyph-name="nonmarkingreturn" horiz-adv-x="333" 
 />
    <glyph glyph-name="space" unicode=" " horiz-adv-x="278" 
 />
    <glyph glyph-name="exclam" unicode="!" horiz-adv-x="278" 
d="M212 722l-28 -478h-90l-28 478h146zM210 0h-142v142h142v-142z" />
    <glyph glyph-name="quotedbl" unicode="&#x22;" horiz-adv-x="333" 
d="M199 452v270h110v-270h-110zM24 452v270h110v-270h-110z" />
    <glyph glyph-name="numbersign" unicode="#" horiz-adv-x="556" 
d="M506 300v-94h-99l-29 -206h-96l28 206h-99l-29 -206h-96l28 206h-94v94h107l18 122h-94v94h106l29 206h96l-28 -206h99l29 206h96l-28 -206h86v-94h-98l-18 -122h86zM341 422h-99l-18 -122h99z" />
    <glyph glyph-name="dollar" unicode="$" horiz-adv-x="556" 
d="M19 127l86 78q57 -79 127 -93v206q-87 25 -143.5 78.5t-56.5 132.5q0 86 57 137.5t143 55.5v64h78v-64q111 -19 190 -106l-78 -75q-54 65 -112 71v-184q48 -17 81.5 -34t65.5 -43.5t48.5 -64t16.5 -86.5q0 -88 -61 -143t-151 -57v-114h-78v115q-51 0 -113 37.5t-100 88.5
zM232 450v168q-36 -1 -61 -22t-25 -57q0 -31 25 -54.5t61 -34.5zM310 295v-185q39 0 64.5 24t25.5 62q0 21 -6.5 36.5t-22 27.5t-27 18.5t-34.5 16.5z" />
    <glyph glyph-name="percent" unicode="%" horiz-adv-x="889" 
d="M214 722q75 0 127.5 -53t52.5 -127t-52.5 -127t-127.5 -53t-127.5 53t-52.5 127t52.5 127t127.5 53zM214 624q-33 0 -57.5 -24.5t-24.5 -57.5t24.5 -57.5t57.5 -24.5t57.5 24.5t24.5 57.5t-24.5 57.5t-57.5 24.5zM675 360q75 0 127.5 -53t52.5 -127t-52.5 -127
t-127.5 -53t-127.5 53t-52.5 127t52.5 127t127.5 53zM675 262q-33 0 -57.5 -24.5t-24.5 -57.5t24.5 -57.5t57.5 -24.5t57.5 24.5t24.5 57.5t-24.5 57.5t-57.5 24.5zM197 -10l415 742h85l-415 -742h-85z" />
    <glyph glyph-name="ampersand" unicode="&#x26;" horiz-adv-x="667" 
d="M274 648q-29 0 -46 -22t-17 -56q0 -46 41 -114q3 3 18.5 16.5t21 18.5t17 18t16 22t9 22.5t4.5 27.5q0 26 -17.5 46.5t-46.5 20.5zM507 363l111 -31q-42 -110 -86 -180q50 -35 100 -40v-122q-53 0 -92.5 15.5t-89.5 58.5q-76 -74 -181 -74q-107 0 -171 51.5t-64 148.5
q0 70 31 115.5t91 84.5q-59 88 -59 162q0 88 53 134t132 46q73 0 121.5 -47t48.5 -116q0 -27 -9 -52.5t-19.5 -42t-34 -39.5t-35 -32.5t-41.5 -33.5q59 -79 129 -147q52 93 65 141zM172 208q0 -50 30 -77t73 -27q58 0 93 40q-75 66 -144 154q-52 -40 -52 -90z" />
    <glyph glyph-name="quotesingle" unicode="'" horiz-adv-x="222" 
d="M56 452v270h110v-270h-110z" />
    <glyph glyph-name="parenleft" unicode="(" horiz-adv-x="333" 
d="M304 -84h-118q-136 191 -136 408t136 408h118q-68 -95 -106 -191.5t-38 -216.5t38 -216.5t106 -191.5z" />
    <glyph glyph-name="parenright" unicode=")" horiz-adv-x="333" 
d="M147 -84h-118q68 95 106 191.5t38 216.5t-38 216.5t-106 191.5h118q136 -191 136 -408t-136 -408z" />
    <glyph glyph-name="asterisk" unicode="*" 
d="M200 722h100l-29 -145l4 -5l133 68l26 -89l-146 -18l-2 -6l106 -104l-75 -57l-64 134h-6l-64 -134l-75 57l106 104l-2 6l-146 18l26 89l133 -68l4 5z" />
    <glyph glyph-name="plus" unicode="+" horiz-adv-x="600" 
d="M239 333v211h122v-211h211v-122h-211v-211h-122v211h-211v122h211z" />
    <glyph glyph-name="comma" unicode="," horiz-adv-x="278" 
d="M77 -148l51 148h-60v142h142v-142l-63 -148h-70z" />
    <glyph glyph-name="hyphen" unicode="-" horiz-adv-x="333" 
d="M289 217h-246v110h246v-110z" />
    <glyph glyph-name="period" unicode="." horiz-adv-x="278" 
d="M210 0h-142v142h142v-142z" />
    <glyph glyph-name="slash" unicode="/" horiz-adv-x="278" 
d="M336 732l-272 -742h-122l272 742h122z" />
    <glyph glyph-name="zero" unicode="0" horiz-adv-x="556" 
d="M36 240v242q0 117 63 183.5t179 66.5t179 -66.5t63 -183.5v-242q0 -117 -63 -183.5t-179 -66.5t-179 66.5t-63 183.5zM168 467v-212q0 -85 26 -118t84 -33t84 33t26 118v212q0 85 -26 118t-84 33t-84 -33t-26 -118z" />
    <glyph glyph-name="one" unicode="1" horiz-adv-x="556" 
d="M235 0v552h-111v79q19 4 36 9t28.5 9t23.5 12t17.5 11.5t15.5 14.5t12.5 13.5t12.5 16t12 15.5h79v-732h-126z" />
    <glyph glyph-name="two" unicode="2" horiz-adv-x="556" 
d="M495 0h-455v117q219 208 276.5 277t57.5 125q0 45 -24.5 72t-71.5 27q-49 0 -76 -26.5t-27 -68.5v-26h-132v34q0 83 62 142t163 59q109 0 173.5 -54.5t64.5 -155.5q0 -47 -20 -94.5t-56.5 -90.5t-71.5 -77.5t-81 -77.5t-70 -68h288v-114z" />
    <glyph glyph-name="three" unicode="3" horiz-adv-x="556" 
d="M34 212h132q0 -56 26 -82t81 -26q50 0 77.5 29.5t27.5 77.5q0 60 -35 86t-111 27v114q70 0 99.5 21.5t29.5 71.5q0 39 -24.5 63t-68.5 24q-37 0 -61 -23.5t-26 -60.5h-132q1 96 62.5 147t157.5 51q101 0 162.5 -51.5t61.5 -144.5q0 -49 -23 -92.5t-64 -64.5
q104 -41 104 -174q0 -103 -66.5 -159t-168.5 -56q-119 0 -180 59t-61 163z" />
    <glyph glyph-name="four" unicode="4" horiz-adv-x="556" 
d="M110 292h207v282h-2zM0 306l306 416h137v-430h101v-102h-101v-190h-126v190h-317v116z" />
    <glyph glyph-name="five" unicode="5" horiz-adv-x="556" 
d="M35 207h132q-2 -49 25.5 -76t77.5 -27q62 0 87 38.5t25 118.5q0 139 -105 139q-65 0 -106 -56h-109v378h417v-114h-303v-150q62 44 131 44q110 0 158.5 -63t48.5 -181q0 -268 -242 -268q-65 0 -112.5 18t-74 50t-38.5 69t-12 80z" />
    <glyph glyph-name="six" unicode="6" horiz-adv-x="556" 
d="M168 295v-40q0 -85 26 -118t84 -33q51 0 77.5 35t26.5 98q0 58 -28 87.5t-76 29.5q-45 0 -110 -59zM501 533h-132q-1 37 -27.5 61t-63.5 24q-58 0 -84 -33t-26 -118v-67q74 56 155 56q91 0 141 -61t50 -153q0 -116 -58.5 -184t-177.5 -68q-116 0 -179 66.5t-63 183.5v242
q0 117 63 183.5t179 66.5q96 0 156 -51.5t67 -147.5z" />
    <glyph glyph-name="seven" unicode="7" horiz-adv-x="556" 
d="M30 608v114h456v-66l-195 -656h-144l200 608h-317z" />
    <glyph glyph-name="eight" unicode="8" horiz-adv-x="556" 
d="M388 209q0 50 -30 80.5t-80 30.5t-80 -30.5t-30 -80.5q0 -105 110 -105t110 105zM370 525q0 39 -26 66t-66 27t-66 -27t-26 -66q0 -38 27 -64.5t65 -26.5t65 26.5t27 64.5zM520 205q0 -104 -67.5 -159.5t-174.5 -55.5t-174.5 55.5t-67.5 159.5q0 133 105 174
q-41 21 -64 64.5t-23 92.5q0 96 62.5 146t161.5 50t161.5 -50t62.5 -146q0 -49 -23 -92.5t-64 -64.5q105 -41 105 -174z" />
    <glyph glyph-name="nine" unicode="9" horiz-adv-x="556" 
d="M388 427v40q0 85 -26 118t-84 33q-51 0 -77.5 -35t-26.5 -98q0 -58 28 -87.5t76 -29.5q45 0 110 59zM55 189h132q1 -37 27.5 -61t63.5 -24q58 0 84 33t26 118v67q-74 -56 -155 -56q-91 0 -141 61t-50 153q0 116 58.5 184t177.5 68q116 0 179 -66.5t63 -183.5v-242
q0 -117 -63 -183.5t-179 -66.5q-96 0 -156 51.5t-67 147.5z" />
    <glyph glyph-name="colon" unicode=":" horiz-adv-x="278" 
d="M210 0h-142v142h142v-142zM210 300h-142v142h142v-142z" />
    <glyph glyph-name="semicolon" unicode=";" horiz-adv-x="278" 
d="M77 -148l51 148h-60v142h142v-142l-63 -148h-70zM210 300h-142v142h142v-142z" />
    <glyph glyph-name="less" unicode="&#x3c;" horiz-adv-x="600" 
d="M572 108v-117l-544 233v96l544 233v-117l-389 -164z" />
    <glyph glyph-name="equal" unicode="=" horiz-adv-x="600" 
d="M572 455v-122h-544v122h544zM572 211v-122h-544v122h544z" />
    <glyph glyph-name="greater" unicode="&#x3e;" horiz-adv-x="600" 
d="M28 -9v117l389 164l-389 164v117l544 -233v-96z" />
    <glyph glyph-name="question" unicode="?" horiz-adv-x="444" 
d="M125 542l-115 32q19 74 72 116t129 42t131.5 -45.5t55.5 -124.5q0 -48 -72 -140q-26 -34 -36.5 -48.5t-23 -39.5t-12.5 -44v-50h-110v98q0 23 64 113.5t64 120.5q0 25 -19 41.5t-44 16.5q-30 0 -56 -27.5t-28 -60.5zM270 0h-142v142h142v-142z" />
    <glyph glyph-name="at" unicode="@" horiz-adv-x="800" 
d="M411 452q-45 0 -76 -36t-31 -81q0 -37 21 -60t56 -23q47 0 78 36t31 83q0 36 -22 58.5t-57 22.5zM518 492l12 50h90l-50 -244l-7 -39q0 -19 15 -19q38 0 69.5 43.5t31.5 118.5q0 117 -73.5 181.5t-191.5 64.5q-124 0 -199.5 -81t-75.5 -207q0 -130 81 -208t210 -78
q114 0 197 70h92q-52 -74 -128.5 -114t-168.5 -40q-160 0 -272.5 105.5t-112.5 264.5q0 157 111 264.5t269 107.5q138 0 242 -84.5t104 -217.5q0 -62 -20.5 -114t-50.5 -83t-66 -52.5t-65.5 -30t-50.5 -8.5q-22 0 -37.5 14t-16.5 38l-2 1q-47 -53 -100 -53q-64 0 -112 52.5
t-48 123.5q0 94 57.5 165t147.5 71q79 0 119 -62z" />
    <glyph glyph-name="A" unicode="A" horiz-adv-x="556" 
d="M278 566l-68 -292h137l-67 292h-2zM146 0h-133l179 722h177l174 -722h-132l-35 152h-191z" />
    <glyph glyph-name="B" unicode="B" horiz-adv-x="556" 
d="M62 0v722h194q112 0 172.5 -47t60.5 -139q0 -96 -89 -150q59 -37 82.5 -75t23.5 -103q0 -104 -64.5 -156t-177.5 -52h-202zM200 322v-208h58q53 0 81.5 28.5t28.5 76.5q0 50 -32 76.5t-88 26.5h-48zM200 608v-172h48q46 0 74.5 24t28.5 61q0 41 -24 64t-72 23h-55z" />
    <glyph glyph-name="C" unicode="C" horiz-adv-x="556" 
d="M188 508v-294q0 -57 23 -79.5t67 -22.5t67 22.5t23 79.5v48h138v-30q0 -242 -228 -242t-228 242v258q0 242 228 242t228 -242v-2h-138v20q0 57 -23 79.5t-67 22.5t-67 -22.5t-23 -79.5z" />
    <glyph glyph-name="D" unicode="D" horiz-adv-x="556" 
d="M62 0v722h192q122 0 185 -58.5t67 -191.5v-222q-4 -133 -67 -191.5t-185 -58.5h-192zM200 600v-478h48q60 0 90 33t30 111v190q0 77 -28 110.5t-92 33.5h-48z" />
    <glyph glyph-name="E" unicode="E" 
d="M450 0h-388v722h378v-122h-240v-166h183v-122h-183v-190h250v-122z" />
    <glyph glyph-name="F" unicode="F" horiz-adv-x="444" 
d="M200 0h-138v722h360v-122h-222v-166h174v-122h-174v-312z" />
    <glyph glyph-name="G" unicode="G" horiz-adv-x="556" 
d="M428 0l-21 60q-62 -70 -129 -70q-228 0 -228 242v258q0 242 228 242q215 0 222 -245h-138q0 123 -84 123q-44 0 -67 -22.5t-23 -79.5v-294q0 -57 23 -79.5t67 -22.5q39 0 61.5 27t22.5 73v44h-97v114h235v-370h-72z" />
    <glyph glyph-name="H" unicode="H" horiz-adv-x="611" 
d="M208 0h-138v722h138v-288h195v288h138v-722h-138v312h-195v-312z" />
    <glyph glyph-name="I" unicode="I" horiz-adv-x="278" 
d="M208 0h-138v722h138v-722z" />
    <glyph glyph-name="J" unicode="J" horiz-adv-x="333" 
d="M125 722h138v-569q0 -74 -48.5 -118.5t-136.5 -44.5q-38 0 -68 3v122q4 0 17 -1.5t20 -1.5q46 0 62 14.5t16 54.5v541z" />
    <glyph glyph-name="K" unicode="K" horiz-adv-x="556" 
d="M200 0h-138v722h138v-298h2l179 298h151l-186 -291l207 -431h-155l-144 303l-54 -82v-221z" />
    <glyph glyph-name="L" unicode="L" horiz-adv-x="444" 
d="M422 0h-360v722h138v-600h222v-122z" />
    <glyph glyph-name="M" unicode="M" horiz-adv-x="778" 
d="M188 0h-118v722h193l125 -474h2l125 474h193v-722h-118v568h-2l-147 -568h-104l-147 568h-2v-568z" />
    <glyph glyph-name="N" unicode="N" horiz-adv-x="611" 
d="M196 0h-126v722h151l192 -428h2v428h126v-722h-132l-211 466h-2v-466z" />
    <glyph glyph-name="O" unicode="O" horiz-adv-x="556" 
d="M50 232v258q0 242 228 242t228 -242v-258q0 -242 -228 -242t-228 242zM188 508v-294q0 -57 23 -79.5t67 -22.5t67 22.5t23 79.5v294q0 57 -23 79.5t-67 22.5t-67 -22.5t-23 -79.5z" />
    <glyph glyph-name="P" unicode="P" horiz-adv-x="556" 
d="M208 0h-138v722h199q126 0 189.5 -56t63.5 -160t-63.5 -160t-189.5 -56h-61v-290zM208 608v-204h74q102 0 102 102t-102 102h-74z" />
    <glyph glyph-name="Q" unicode="Q" horiz-adv-x="556" 
d="M549 67v-120q-85 0 -145 71q-50 -28 -126 -28q-228 0 -228 242v258q0 242 228 242t228 -242v-258q0 -86 -29 -141q31 -23 72 -24zM269 180v120q58 -8 97 -66h2v274q0 57 -23 79.5t-67 22.5t-67 -22.5t-23 -79.5v-294q0 -57 23 -79.5t67 -22.5q33 0 52 11q-33 47 -61 57z
" />
    <glyph glyph-name="R" unicode="R" horiz-adv-x="556" 
d="M534 0h-148l-120 294h-66v-294h-138v722h200q122 0 183.5 -56t61.5 -160q0 -143 -109 -184zM200 608v-200h71q98 0 98 100t-98 100h-71z" />
    <glyph glyph-name="S" unicode="S" horiz-adv-x="556" 
d="M491 557l-124 -36q-17 51 -41 74t-60 23t-56 -21t-20 -58q0 -29 31.5 -54.5t77 -49t91 -52t77 -76.5t31.5 -111q0 -94 -61 -150t-169 -56q-183 0 -236 203l136 29q11 -60 41.5 -89t65.5 -29q37 0 61 23t24 63q0 32 -23 58.5t-57 45t-74 42t-74 47t-57 62t-23 85.5
q0 95 56 148.5t161 53.5q89 0 146 -47.5t76 -127.5z" />
    <glyph glyph-name="T" unicode="T" 
d="M20 722h460v-122h-161v-600h-138v600h-161v122z" />
    <glyph glyph-name="U" unicode="U" horiz-adv-x="611" 
d="M70 722h138v-505q0 -105 97 -105q98 0 98 105v505h138v-506q0 -115 -62.5 -170.5t-173.5 -55.5t-173 55.5t-62 170.5v506z" />
    <glyph glyph-name="V" unicode="V" horiz-adv-x="556" 
d="M200 0l-185 722h136l127 -516h2l126 516h135l-184 -722h-157z" />
    <glyph glyph-name="W" unicode="W" horiz-adv-x="833" 
d="M174 0l-151 722h128l97 -472h2l99 472h133l100 -472h2l96 472h129l-158 -722h-133l-101 494h-2l-109 -494h-132z" />
    <glyph glyph-name="X" unicode="X" horiz-adv-x="556" 
d="M174 722l104 -216l104 216h148l-175 -342l192 -380h-149l-120 255l-120 -255h-149l194 380l-177 342h148z" />
    <glyph glyph-name="Y" unicode="Y" horiz-adv-x="556" 
d="M159 722l121 -291l117 291h147l-197 -430v-292h-138v292l-197 430h147z" />
    <glyph glyph-name="Z" unicode="Z" 
d="M61 600v122h400v-116l-273 -484h279v-122h-434v117l273 483h-245z" />
    <glyph glyph-name="bracketleft" unicode="[" horiz-adv-x="333" 
d="M284 -74h-234v796h234v-60h-124v-676h124v-60z" />
    <glyph glyph-name="backslash" unicode="\" horiz-adv-x="278" 
d="M214 -10l-272 742h122l272 -742h-122z" />
    <glyph glyph-name="bracketright" unicode="]" horiz-adv-x="333" 
d="M49 722h234v-796h-234v60h124v676h-124v60z" />
    <glyph glyph-name="asciicircum" unicode="^" horiz-adv-x="600" 
d="M169 320h-117l194 402h108l194 -402h-119l-129 282z" />
    <glyph glyph-name="underscore" unicode="_" 
d="M500 -125h-500v50h500v-50z" />
    <glyph glyph-name="grave" unicode="`" horiz-adv-x="278" 
d="M-24 756h155l93 -146h-101z" />
    <glyph glyph-name="a" unicode="a" 
d="M174 385h-126q7 86 67 130q52 39 135 39q185 0 185 -165v-345q0 -20 7 -44h-126q-2 8 -4.5 25.5t-4.5 27.5q-63 -63 -150 -63q-59 0 -92 33t-33 97q0 46 20 81.5t61 62t85.5 45t110.5 38.5v40q0 33 -18 49t-47 16t-49.5 -19t-20.5 -48zM309 134v132q-151 -52 -151 -125
q0 -27 15 -42t41 -15q45 0 95 50z" />
    <glyph glyph-name="b" unicode="b" 
d="M186 421v-298q36 -39 76 -39q29 0 45.5 27.5t16.5 102.5v116q0 75 -16.5 102.5t-45.5 27.5q-40 0 -76 -39zM176 0h-116v722h126v-228q82 60 126 60q72 0 105 -54t33 -162v-132q0 -108 -33 -162t-105 -54q-39 0 -77.5 23.5t-56.5 52.5h-2v-66z" />
    <glyph glyph-name="c" unicode="c" 
d="M449 356h-125v24q0 31 -20 47.5t-54 16.5t-54 -16.5t-20 -47.5v-216q0 -31 20 -47.5t54 -16.5t54 16.5t20 47.5v34h126v-2q0 -206 -200 -206t-200 206v152q0 206 200 206q196 0 199 -198z" />
    <glyph glyph-name="d" unicode="d" 
d="M314 123v298q-36 39 -76 39q-29 0 -45.5 -27.5t-16.5 -102.5v-116q0 -75 16.5 -102.5t45.5 -27.5q40 0 76 39zM440 0h-116v66h-2q-18 -29 -56.5 -52.5t-77.5 -23.5q-72 0 -105 54t-33 162v132q0 108 33 162t105 54q44 0 126 -60v228h126v-722z" />
    <glyph glyph-name="e" unicode="e" 
d="M450 242h-274v-72q0 -39 20.5 -58.5t53.5 -19.5q38 0 56 21t18 55h126q-5 -85 -55.5 -131.5t-144.5 -46.5q-91 0 -145.5 52t-54.5 141v178q0 89 54.5 141t145.5 52q88 0 144 -51t56 -134v-127zM176 344h148v30q0 78 -74 78t-74 -78v-30z" />
    <glyph glyph-name="f" unicode="f" horiz-adv-x="278" 
d="M270 726v-104h-36q-43 0 -43 -46v-56h75v-102h-75v-418h-126v418h-57v102h57v52q0 90 35.5 125t109.5 35q18 0 60 -6z" />
    <glyph glyph-name="g" unicode="g" 
d="M292 347q0 105 -66 105q-36 0 -51 -27t-15 -91q0 -102 60 -102q42 0 57 23t15 92zM478 554v-110q-3 1 -11.5 3t-16 3.5t-11.5 1.5q-2 0 -43 -12q16 -72 16 -96q0 -214 -182 -214q-30 0 -52 7q-2 -3 -8.5 -9t-10 -11.5t-3.5 -11.5q0 -16 23.5 -22t58.5 -5.5t76 -4
t76 -14.5t58.5 -39t23.5 -75q0 -68 -64.5 -102.5t-177.5 -34.5q-99 0 -153.5 26.5t-54.5 72.5q0 7 1.5 13t5 12t6.5 11t9 10.5t9.5 8.5t11.5 8.5t11 7.5t12 7.5t10 6.5q-52 31 -52 77q0 20 14 39t27.5 29t34.5 23q-45 29 -63.5 74t-18.5 115q0 205 186 205q40 0 79 -17
t63 -46q50 63 110 63zM306 -36l-138 12q-26 -26 -26 -44q0 -40 115 -40q95 0 95 43q0 14 -9.5 20.5t-36.5 8.5z" />
    <glyph glyph-name="h" unicode="h" 
d="M186 0h-126v722h126v-240q76 72 137 72q59 0 88 -33t29 -107v-414h-126v400q0 60 -46 60q-27 0 -82 -49v-411z" />
    <glyph glyph-name="i" unicode="i" horiz-adv-x="278" 
d="M76 544h126v-544h-126v544zM202 638h-126v114h126v-114z" />
    <glyph glyph-name="j" unicode="j" horiz-adv-x="278" 
d="M76 544h126v-588q0 -74 -43 -111t-111 -37q-25 0 -46 3v111q40 0 57 12t17 38v572zM202 638h-126v114h126v-114z" />
    <glyph glyph-name="k" unicode="k" 
d="M192 0h-126v722h126v-389h2l134 211h141l-125 -184l136 -360h-133l-92 255l-63 -89v-166z" />
    <glyph glyph-name="l" unicode="l" horiz-adv-x="278" 
d="M76 0v722h126v-722h-126z" />
    <glyph glyph-name="m" unicode="m" horiz-adv-x="722" 
d="M60 0v544h122v-62q26 23 42.5 36t42 24.5t50.5 11.5q71 0 96 -82q36 40 66.5 61t67.5 21q115 0 115 -144v-410h-126v414q0 46 -33 46q-17 0 -41.5 -16t-37.5 -33v-411h-126v414q0 46 -34 46q-19 0 -42 -15.5t-36 -33.5v-411h-126z" />
    <glyph glyph-name="n" unicode="n" 
d="M186 0h-126v544h122v-62q41 35 73 53.5t68 18.5q59 0 88 -33t29 -107v-414h-126v400q0 60 -46 60q-27 0 -82 -49v-411z" />
    <glyph glyph-name="o" unicode="o" 
d="M50 196v152q0 206 200 206t200 -206v-152q0 -206 -200 -206t-200 206zM176 380v-216q0 -31 20 -47.5t54 -16.5t54 16.5t20 47.5v216q0 31 -20 47.5t-54 16.5t-54 -16.5t-20 -47.5z" />
    <glyph glyph-name="p" unicode="p" 
d="M186 421v-298q36 -39 76 -39q29 0 45.5 27.5t16.5 102.5v116q0 75 -16.5 102.5t-45.5 27.5q-40 0 -76 -39zM60 544h116v-66h2q18 29 56.5 52.5t77.5 23.5q72 0 105 -54t33 -162v-132q0 -108 -33 -162t-105 -54q-44 0 -126 60v-242h-126v736z" />
    <glyph glyph-name="q" unicode="q" 
d="M314 123v298q-36 39 -76 39q-29 0 -45.5 -27.5t-16.5 -102.5v-116q0 -75 16.5 -102.5t45.5 -27.5q40 0 76 39zM324 544h116v-736h-126v242q-82 -60 -126 -60q-72 0 -105 54t-33 162v132q0 108 33 162t105 54q39 0 77.5 -23.5t56.5 -52.5h2v66z" />
    <glyph glyph-name="r" unicode="r" horiz-adv-x="333" 
d="M186 0h-126v544h123v-72h2q44 82 130 82v-136q-49 14 -67 14q-29 0 -45.5 -18t-16.5 -42v-372z" />
    <glyph glyph-name="s" unicode="s" horiz-adv-x="444" 
d="M404 418l-104 -40q-25 74 -87 74q-22 0 -36.5 -14t-14.5 -35q0 -23 25.5 -42t61.5 -35.5t72 -36.5t61.5 -54.5t25.5 -79.5q0 -79 -50 -122t-131 -43q-67 0 -115 31t-90 124l113 31q18 -84 92 -84q29 0 45 13t16 35q0 28 -25.5 49t-61.5 36.5t-72 34.5t-61.5 55t-25.5 87
q0 73 50 112.5t122 39.5q69 0 117.5 -36.5t72.5 -99.5z" />
    <glyph glyph-name="t" unicode="t" horiz-adv-x="278" 
d="M56 418h-50v102h50v148h126v-148h81v-102h-81v-278q0 -40 57 -40q17 0 25 1v-106q-30 -5 -72 -5q-136 0 -136 108v320z" />
    <glyph glyph-name="u" unicode="u" 
d="M314 544h126v-544h-122v62q-41 -35 -73 -53.5t-68 -18.5q-59 0 -88 33t-29 107v414h126v-400q0 -60 46 -60q27 0 82 49v411z" />
    <glyph glyph-name="v" unicode="v" horiz-adv-x="444" 
d="M138 544l83 -350h2l83 350h126l-148 -544h-124l-148 544h126z" />
    <glyph glyph-name="w" unicode="w" horiz-adv-x="667" 
d="M143 0l-130 544h118l73 -340h2l73 340h108l77 -340h2l69 340h118l-128 -544h-118l-77 340h-2l-67 -340h-118z" />
    <glyph glyph-name="x" unicode="x" horiz-adv-x="444" 
d="M155 280l-138 264h134l71 -156l73 156h134l-138 -265l147 -279h-134l-82 176l-82 -176h-134z" />
    <glyph glyph-name="y" unicode="y" horiz-adv-x="444" 
d="M32 -190v110q12 -2 37 -2q38 0 64.5 25.5t26.5 46.5q0 34 -23 115l-126 439h128l85 -360h2l79 360h128l-145 -542q-29 -111 -75.5 -152.5t-140.5 -41.5q-12 0 -40 2z" />
    <glyph glyph-name="z" unicode="z" horiz-adv-x="444" 
d="M51 434v110h362v-108l-231 -326h231v-110h-382v108l227 326h-207z" />
    <glyph glyph-name="braceleft" unicode="{" horiz-adv-x="333" 
d="M261 732v-60h-31q-27 0 -40 -14t-13 -47v-194q0 -78 -79 -91v-2q79 -13 79 -91v-196q0 -33 13 -47t40 -14h31v-60h-79q-46 0 -80.5 31t-34.5 88v197q0 63 -71 63v60q71 0 71 63v195q0 57 34.5 88t80.5 31h79z" />
    <glyph glyph-name="bar" unicode="|" horiz-adv-x="222" 
d="M50 -10v742h122v-742h-122z" />
    <glyph glyph-name="braceright" unicode="}" horiz-adv-x="333" 
d="M72 -84v60h31q27 0 40 14t13 47v194q0 78 79 91v2q-79 13 -79 91v196q0 33 -13 47t-40 14h-31v60h79q46 0 80.5 -31t34.5 -88v-197q0 -63 71 -63v-60q-71 0 -71 -63v-195q0 -57 -34.5 -88t-80.5 -31h-79z" />
    <glyph glyph-name="asciitilde" unicode="~" horiz-adv-x="600" 
d="M510 369l38 -98q-20 -28 -34.5 -45t-41.5 -32t-58 -15q-43 0 -111 37q-72 36 -127 36q-50 0 -85 -77l-39 96q49 93 135 93q39 0 122.5 -36.5t111.5 -36.5q18 0 35.5 13.5t27 26t26.5 38.5z" />
    <glyph glyph-name="uni00A0" unicode="&#xa0;" horiz-adv-x="278" 
 />
    <glyph glyph-name="exclamdown" unicode="&#xa1;" horiz-adv-x="278" 
d="M212 -178h-146l28 478h90zM68 544h142v-142h-142v142z" />
    <glyph glyph-name="cent" unicode="&#xa2;" horiz-adv-x="556" 
d="M193 135l77 309h-2q-82 0 -82 -64v-216q0 -16 7 -29zM479 356h-125v24q0 24 -16 40l-82 -319q4 -1 12 -1q86 0 86 64v34h126v-2q0 -106 -53.5 -156t-158.5 -50q-10 0 -34 2l-36 -132h-89l42 154q-91 49 -91 182v152q0 206 208 206q21 0 31 -2l34 124h89l-39 -144
q95 -40 96 -176z" />
    <glyph glyph-name="sterling" unicode="&#xa3;" horiz-adv-x="556" 
d="M112 318h-96v88h83q-15 81 -15 131q0 93 58.5 144t145.5 51q118 0 175.5 -55.5t57.5 -158.5h-126q-4 51 -25.5 77.5t-69.5 26.5q-39 0 -61.5 -24.5t-22.5 -65.5q0 -40 15 -126h132v-88h-120q0 -31 -6.5 -86t-18.5 -84q68 -44 124 -44q36 0 52 28t19 86h120
q0 -49 -7.5 -86.5t-26 -71t-56 -52t-91.5 -18.5q-52 0 -87.5 12t-100.5 53q-41 -36 -70.5 -50.5t-70.5 -14.5v122q45 1 68.5 45.5t23.5 116.5q0 20 -3 44z" />
    <glyph glyph-name="currency" unicode="&#xa4;" horiz-adv-x="556" 
d="M537 160l-58 -58l-57 58q-51 -49 -144 -49t-144 49l-57 -58l-58 58l56 56q-45 54 -45 145t45 145l-56 56l58 58l57 -58q51 49 144 49t144 -49l57 58l58 -58l-56 -56q45 -54 45 -145t-45 -145zM414 361q0 63 -37 105.5t-99 42.5t-99 -42.5t-37 -105.5t37 -105.5t99 -42.5
t99 42.5t37 105.5z" />
    <glyph glyph-name="yen" unicode="&#xa5;" horiz-adv-x="556" 
d="M499 452v-88h-126l-32 -72h158v-88h-162v-204h-118v204h-162v88h158l-32 72h-126v88h86l-125 270h122l140 -322l136 322h122l-125 -270h86z" />
    <glyph glyph-name="brokenbar" unicode="&#xa6;" horiz-adv-x="222" 
d="M50 -10v284h122v-284h-122zM50 448v284h122v-284h-122z" />
    <glyph glyph-name="section" unicode="&#xa7;" 
d="M402 652l-68 -54q-42 50 -82 50q-20 0 -33.5 -12t-13.5 -30q0 -25 38 -65.5t83.5 -78.5t83.5 -89.5t38 -97.5q0 -47 -30 -76t-79 -38q52 -55 52 -117q0 -60 -42 -94t-102 -34q-40 0 -71 12.5t-48 28t-42 44.5l68 53q11 -23 35 -38.5t55 -15.5q21 0 36 13t15 35
q0 28 -38 71.5t-83.5 83t-83.5 87.5t-38 84q0 63 26.5 92.5t77.5 37.5q-47 56 -47 112q0 48 38.5 82t95.5 34q95 0 159 -80zM352 271q0 13 -13 30.5t-54 61.5q-69 75 -98 75q-15 0 -26.5 -10.5t-12.5 -26.5q0 -30 62 -94q76 -80 103 -80q18 0 28.5 12.5t10.5 31.5z" />
    <glyph glyph-name="dieresis" unicode="&#xa8;" horiz-adv-x="278" 
d="M-16 732h120v-114h-120v114zM174 732h120v-114h-120v114z" />
    <glyph glyph-name="copyright" unicode="&#xa9;" horiz-adv-x="800" 
d="M400 -10q-157 0 -270 101.5t-113 269.5t113 269.5t270 101.5t270 -101.5t113 -269.5t-113 -269.5t-270 -101.5zM669 361q0 124 -78 203.5t-191 79.5q-114 0 -191.5 -79.5t-77.5 -203.5t77.5 -203.5t191.5 -79.5q113 0 191 79.5t78 203.5zM504 305h90q-12 -74 -62 -115.5
t-117 -41.5q-93 0 -150 61.5t-57 154.5q0 95 55.5 155.5t149.5 60.5q69 0 117 -39.5t60 -112.5h-86q-13 64 -91 64q-48 0 -74.5 -33.5t-26.5 -92.5q0 -56 28.5 -93t74.5 -37q82 0 89 69z" />
    <glyph glyph-name="ordfeminine" unicode="&#xaa;" horiz-adv-x="300" 
d="M106 627h-90q4 55 44 82q34 23 91 23q121 0 121 -99v-207q0 -10 4 -26h-86q0 1 -5 32q-35 -38 -94 -38q-38 0 -59.5 19.5t-21.5 58.5q0 52 44.5 82.5t127.5 55.5v22q0 30 -34 30q-18 0 -30 -10t-12 -25zM182 490v58q-26 -10 -40.5 -17t-28 -19.5t-13.5 -26.5
q0 -25 28 -25q34 0 54 30z" />
    <glyph glyph-name="guillemotleft" unicode="&#xab;" horiz-adv-x="556" 
d="M386 112l-122 160l122 160h110l-122 -160l122 -160h-110zM182 112l-122 160l122 160h110l-122 -160l122 -160h-110z" />
    <glyph glyph-name="logicalnot" unicode="&#xac;" horiz-adv-x="600" 
d="M450 89v244h-422v122h544v-366h-122z" />
    <glyph glyph-name="uni00AD" unicode="&#xad;" horiz-adv-x="333" 
d="M289 217h-246v110h246v-110z" />
    <glyph glyph-name="registered" unicode="&#xae;" horiz-adv-x="800" 
d="M337 325v-167h-88v407h153q84 0 125.5 -28t41.5 -95q0 -101 -101 -108l94 -176h-97l-87 167h-41zM337 493v-96h77q37 0 50 11.5t13 42.5q0 24 -16.5 33t-61.5 9h-62zM400 -10q-157 0 -270 101.5t-113 269.5t113 269.5t270 101.5t270 -101.5t113 -269.5t-113 -269.5
t-270 -101.5zM669 361q0 124 -78 203.5t-191 79.5q-114 0 -191.5 -79.5t-77.5 -203.5t77.5 -203.5t191.5 -79.5q113 0 191 79.5t78 203.5z" />
    <glyph glyph-name="macron" unicode="&#xaf;" horiz-adv-x="278" 
d="M313 640h-348v74h348v-74z" />
    <glyph glyph-name="degree" unicode="&#xb0;" horiz-adv-x="400" 
d="M200 502q36 0 59 25t23 62t-23 62t-59 25t-59 -25t-23 -62t23 -62t59 -25zM200 446q-61 0 -102.5 41.5t-41.5 101.5t41.5 101.5t102.5 41.5t102.5 -41.5t41.5 -101.5t-41.5 -101.5t-102.5 -41.5z" />
    <glyph glyph-name="plusminus" unicode="&#xb1;" horiz-adv-x="600" 
d="M239 410v134h122v-134h211v-122h-211v-134h-122v134h-211v122h211zM28 0v122h544v-122h-544z" />
    <glyph glyph-name="twosuperior" unicode="&#xb2;" horiz-adv-x="333" 
d="M311 292h-296v75q140 123 176.5 163.5t36.5 73.5q0 24 -14.5 39t-43.5 15q-31 0 -47 -15t-16 -36v-16h-90v21q0 49 40 84.5t106 35.5q71 0 113 -32.5t42 -93.5q0 -28 -12 -56t-35 -54.5t-43.5 -45.5t-51.5 -45.5t-44 -38.5h179v-74z" />
    <glyph glyph-name="threesuperior" unicode="&#xb3;" horiz-adv-x="333" 
d="M10 420h90q0 -32 15.5 -46t49.5 -14q30 0 47.5 16.5t17.5 43.5q0 35 -22 49.5t-69 14.5v74q42 0 60.5 12t18.5 42q0 19 -15.5 32.5t-40.5 13.5q-22 0 -36.5 -14t-15.5 -35h-90q1 61 42 93q39 30 101 30q65 0 105 -30.5t40 -86.5q0 -30 -14.5 -56t-41.5 -39
q68 -24 68 -104q0 -62 -43.5 -96t-109.5 -34q-78 0 -117.5 35.5t-39.5 98.5z" />
    <glyph glyph-name="acute" unicode="&#xb4;" horiz-adv-x="278" 
d="M147 756h155l-147 -146h-101z" />
    <glyph glyph-name="mu" unicode="&#xb5;" 
d="M314 544h126v-544h-122v62q-79 -68 -132 -72v-182h-126v736h126v-400q0 -60 46 -60q27 0 82 49v411z" />
    <glyph glyph-name="paragraph" unicode="&#xb6;" horiz-adv-x="556" 
d="M190 -84v454q-84 0 -132 46.5t-48 126.5q0 91 51 135t163 44h322v-84h-68v-722h-110v722h-68v-722h-110z" />
    <glyph glyph-name="periodcentered" unicode="&#xb7;" horiz-adv-x="278" 
d="M139 348q33 0 54.5 -23t21.5 -53t-21.5 -53t-54.5 -23t-54.5 23t-21.5 53t21.5 53t54.5 23z" />
    <glyph glyph-name="cedilla" unicode="&#xb8;" horiz-adv-x="278" 
d="M2 -203l19 42q51 -17 75 -17q22 0 39 9.5t17 29.5q0 16 -12 26.5t-29 10.5q-15 0 -45 -8l-21 20l59 90h53l-42 -61l2 -2q11 7 31 7q36 0 63 -22t27 -56q0 -47 -38.5 -70.5t-88.5 -23.5q-47 0 -109 25z" />
    <glyph glyph-name="onesuperior" unicode="&#xb9;" horiz-adv-x="333" 
d="M143 292v330h-67v54q30 6 48.5 15t27 17t19.5 24h62v-440h-90z" />
    <glyph glyph-name="ordmasculine" unicode="&#xba;" horiz-adv-x="300" 
d="M20 518v91q0 123 130 123t130 -123v-91q0 -124 -130 -124t-130 124zM110 620v-114q0 -38 40 -38t40 38v114q0 38 -40 38q-21 0 -31 -9.5t-9 -28.5z" />
    <glyph glyph-name="guillemotright" unicode="&#xbb;" horiz-adv-x="556" 
d="M292 272l-122 -160h-110l122 160l-122 160h110zM496 272l-122 -160h-110l122 160l-122 160h110z" />
    <glyph glyph-name="onequarter" unicode="&#xbc;" horiz-adv-x="834" 
d="M540 184h102v131h-2zM444 184l199 249h89v-249h66v-70h-66v-114h-90v114h-198v70zM147 292v330h-67v54q30 6 48.5 15t27 17t19.5 24h62v-440h-90zM153 -10l405 742h96l-405 -742h-96z" />
    <glyph glyph-name="onehalf" unicode="&#xbd;" horiz-adv-x="834" 
d="M147 292v330h-67v54q30 6 48.5 15t27 17t19.5 24h62v-440h-90zM791 0h-296v75q140 123 176.5 163.5t36.5 73.5q0 24 -14.5 39t-43.5 15q-31 0 -47 -15t-16 -36v-16h-90v21q0 49 40 84.5t106 35.5q71 0 113 -32.5t42 -93.5q0 -28 -12 -56t-35 -54.5t-43.5 -45.5
t-51.5 -45.5t-44 -38.5h179v-74zM135 -10l405 742h96l-405 -742h-96z" />
    <glyph glyph-name="threequarters" unicode="&#xbe;" horiz-adv-x="834" 
d="M540 184h102v131h-2zM444 184l199 249h89v-249h66v-70h-66v-114h-90v114h-198v70zM36 420h90q0 -32 15.5 -46t49.5 -14q30 0 47.5 16.5t17.5 43.5q0 35 -22 49.5t-69 14.5v74q42 0 60.5 12t18.5 42q0 19 -15.5 32.5t-40.5 13.5q-22 0 -36.5 -14t-15.5 -35h-90q1 61 42 93
q39 30 101 30q65 0 105 -30.5t40 -86.5q0 -30 -14.5 -56t-41.5 -39q68 -24 68 -104q0 -62 -43.5 -96t-109.5 -34q-78 0 -117.5 35.5t-39.5 98.5zM173 -10l405 742h96l-405 -742h-96z" />
    <glyph glyph-name="questiondown" unicode="&#xbf;" horiz-adv-x="444" 
d="M319 2l115 -32q-19 -74 -72 -116t-129 -42t-131.5 45.5t-55.5 124.5q0 21 12 47.5t24.5 45t35.5 48.5q25 32 36.5 47.5t23.5 40t12 43.5v50h110v-98q0 -23 -64 -113.5t-64 -120.5q0 -25 19 -41.5t44 -16.5q30 0 56 27.5t28 60.5zM174 544h142v-142h-142v142z" />
    <glyph glyph-name="Agrave" unicode="&#xc0;" horiz-adv-x="556" 
d="M278 566l-68 -292h137l-67 292h-2zM146 0h-133l179 722h177l174 -722h-132l-35 152h-191zM115 909h155l93 -146h-101z" />
    <glyph glyph-name="Aacute" unicode="&#xc1;" horiz-adv-x="556" 
d="M278 566l-68 -292h137l-67 292h-2zM146 0h-133l179 722h177l174 -722h-132l-35 152h-191zM286 909h155l-147 -146h-101z" />
    <glyph glyph-name="Acircumflex" unicode="&#xc2;" horiz-adv-x="556" 
d="M278 566l-68 -292h137l-67 292h-2zM146 0h-133l179 722h177l174 -722h-132l-35 152h-191zM215 909h126l114 -146h-113l-64 82l-64 -82h-113z" />
    <glyph glyph-name="Atilde" unicode="&#xc3;" horiz-adv-x="556" 
d="M278 566l-68 -292h137l-67 292h-2zM146 0h-133l179 722h177l174 -722h-132l-35 152h-191zM396 897h65q-25 -121 -111 -121q-28 0 -77 17.5t-70 17.5q-36 0 -45 -42h-63q8 53 36.5 87.5t78.5 34.5q29 0 77.5 -18.5t61.5 -18.5q18 0 30.5 12t16.5 31z" />
    <glyph glyph-name="Adieresis" unicode="&#xc4;" horiz-adv-x="556" 
d="M278 566l-68 -292h137l-67 292h-2zM146 0h-133l179 722h177l174 -722h-132l-35 152h-191zM123 885h120v-114h-120v114zM313 885h120v-114h-120v114z" />
    <glyph glyph-name="Aring" unicode="&#xc5;" horiz-adv-x="556" 
d="M278 566l-68 -292h137l-67 292h-2zM146 0h-133l179 722h177l174 -722h-132l-35 152h-191zM277 757q-44 0 -75 31.5t-31 75.5t31 75.5t75 31.5t76 -32t32 -75q0 -44 -32 -75.5t-76 -31.5zM277 917q-22 0 -37 -15.5t-15 -37.5q0 -23 15 -38t37 -15t38 15.5t16 37.5
t-16 37.5t-38 15.5z" />
    <glyph glyph-name="AE" unicode="&#xc6;" horiz-adv-x="1000" 
d="M466 612l-156 -314h174v314h-18zM162 0h-148l370 722h532v-122h-294v-166h221v-122h-221v-190h306v-122h-444v176h-236z" />
    <glyph glyph-name="Ccedilla" unicode="&#xc7;" horiz-adv-x="556" 
d="M188 508v-294q0 -57 23 -79.5t67 -22.5t67 22.5t23 79.5v48h138v-30q0 -235 -217 -242l-35 -51l2 -2q10 7 31 7q36 0 63 -22t27 -56q0 -47 -38.5 -70.5t-88.5 -23.5q-46 0 -109 25l19 42q51 -17 75 -17q22 0 39 9.5t17 29.5q0 16 -12 26.5t-29 10.5q-15 0 -45 -8l-21 20
l54 82q-188 20 -188 240v258q0 242 228 242t228 -242v-2h-138v20q0 57 -23 79.5t-67 22.5t-67 -22.5t-23 -79.5z" />
    <glyph glyph-name="Egrave" unicode="&#xc8;" 
d="M450 0h-388v722h378v-122h-240v-166h183v-122h-183v-190h250v-122zM87 909h155l93 -146h-101z" />
    <glyph glyph-name="Eacute" unicode="&#xc9;" 
d="M450 0h-388v722h378v-122h-240v-166h183v-122h-183v-190h250v-122zM258 909h155l-147 -146h-101z" />
    <glyph glyph-name="Ecircumflex" unicode="&#xca;" 
d="M450 0h-388v722h378v-122h-240v-166h183v-122h-183v-190h250v-122zM187 909h126l114 -146h-113l-64 82l-64 -82h-113z" />
    <glyph glyph-name="Edieresis" unicode="&#xcb;" 
d="M450 0h-388v722h378v-122h-240v-166h183v-122h-183v-190h250v-122zM95 885h120v-114h-120v114zM285 885h120v-114h-120v114z" />
    <glyph glyph-name="Igrave" unicode="&#xcc;" horiz-adv-x="278" 
d="M208 0h-138v722h138v-722zM-24 909h155l93 -146h-101z" />
    <glyph glyph-name="Iacute" unicode="&#xcd;" horiz-adv-x="278" 
d="M208 0h-138v722h138v-722zM147 909h155l-147 -146h-101z" />
    <glyph glyph-name="Icircumflex" unicode="&#xce;" horiz-adv-x="278" 
d="M208 0h-138v722h138v-722zM76 909h126l114 -146h-113l-64 82l-64 -82h-113z" />
    <glyph glyph-name="Idieresis" unicode="&#xcf;" horiz-adv-x="278" 
d="M208 0h-138v722h138v-722zM-16 885h120v-114h-120v114zM174 885h120v-114h-120v114z" />
    <glyph glyph-name="Eth" unicode="&#xd0;" horiz-adv-x="556" 
d="M8 312v122h54v288h192q122 0 185 -58.5t67 -191.5v-222q-4 -133 -67 -191.5t-185 -58.5h-192v312h-54zM288 434v-122h-88v-190h48q60 0 90 33t30 111v190q0 77 -28 110.5t-92 33.5h-48v-166h88z" />
    <glyph glyph-name="Ntilde" unicode="&#xd1;" horiz-adv-x="611" 
d="M196 0h-126v722h151l192 -428h2v428h126v-722h-132l-211 466h-2v-466zM424 897h65q-25 -121 -111 -121q-28 0 -77 17.5t-70 17.5q-36 0 -45 -42h-63q8 53 36.5 87.5t78.5 34.5q29 0 77.5 -18.5t61.5 -18.5q18 0 30.5 12t16.5 31z" />
    <glyph glyph-name="Ograve" unicode="&#xd2;" horiz-adv-x="556" 
d="M50 232v258q0 242 228 242t228 -242v-258q0 -242 -228 -242t-228 242zM188 508v-294q0 -57 23 -79.5t67 -22.5t67 22.5t23 79.5v294q0 57 -23 79.5t-67 22.5t-67 -22.5t-23 -79.5zM115 909h155l93 -146h-101z" />
    <glyph glyph-name="Oacute" unicode="&#xd3;" horiz-adv-x="556" 
d="M50 232v258q0 242 228 242t228 -242v-258q0 -242 -228 -242t-228 242zM188 508v-294q0 -57 23 -79.5t67 -22.5t67 22.5t23 79.5v294q0 57 -23 79.5t-67 22.5t-67 -22.5t-23 -79.5zM286 909h155l-147 -146h-101z" />
    <glyph glyph-name="Ocircumflex" unicode="&#xd4;" horiz-adv-x="556" 
d="M50 232v258q0 242 228 242t228 -242v-258q0 -242 -228 -242t-228 242zM188 508v-294q0 -57 23 -79.5t67 -22.5t67 22.5t23 79.5v294q0 57 -23 79.5t-67 22.5t-67 -22.5t-23 -79.5zM215 909h126l114 -146h-113l-64 82l-64 -82h-113z" />
    <glyph glyph-name="Otilde" unicode="&#xd5;" horiz-adv-x="556" 
d="M50 232v258q0 242 228 242t228 -242v-258q0 -242 -228 -242t-228 242zM188 508v-294q0 -57 23 -79.5t67 -22.5t67 22.5t23 79.5v294q0 57 -23 79.5t-67 22.5t-67 -22.5t-23 -79.5zM396 897h65q-25 -121 -111 -121q-28 0 -77 17.5t-70 17.5q-36 0 -45 -42h-63
q8 53 36.5 87.5t78.5 34.5q29 0 77.5 -18.5t61.5 -18.5q18 0 30.5 12t16.5 31z" />
    <glyph glyph-name="Odieresis" unicode="&#xd6;" horiz-adv-x="556" 
d="M50 232v258q0 242 228 242t228 -242v-258q0 -242 -228 -242t-228 242zM188 508v-294q0 -57 23 -79.5t67 -22.5t67 22.5t23 79.5v294q0 57 -23 79.5t-67 22.5t-67 -22.5t-23 -79.5zM123 885h120v-114h-120v114zM313 885h120v-114h-120v114z" />
    <glyph glyph-name="multiply" unicode="&#xd7;" horiz-adv-x="600" 
d="M214 273l-186 186l87 85l185 -185l186 185l86 -85l-186 -187l186 -186l-86 -86l-186 186l-185 -186l-87 86l186 186v1z" />
    <glyph glyph-name="Oslash" unicode="&#xd8;" horiz-adv-x="556" 
d="M190 262l162 316q-20 32 -74 32q-44 0 -67 -22.5t-23 -79.5v-246h2zM366 433l-154 -299q19 -22 66 -22q44 0 67 22.5t23 79.5v219h-2zM446 770h104l-73 -140q29 -55 29 -140v-258q0 -242 -228 -242q-73 0 -120 25l-48 -93h-104l81 156q-37 57 -37 154v258q0 242 228 242
q79 0 132 -30z" />
    <glyph glyph-name="Ugrave" unicode="&#xd9;" horiz-adv-x="611" 
d="M70 722h138v-505q0 -105 97 -105q98 0 98 105v505h138v-506q0 -115 -62.5 -170.5t-173.5 -55.5t-173 55.5t-62 170.5v506zM143 909h155l93 -146h-101z" />
    <glyph glyph-name="Uacute" unicode="&#xda;" horiz-adv-x="611" 
d="M70 722h138v-505q0 -105 97 -105q98 0 98 105v505h138v-506q0 -115 -62.5 -170.5t-173.5 -55.5t-173 55.5t-62 170.5v506zM314 909h155l-147 -146h-101z" />
    <glyph glyph-name="Ucircumflex" unicode="&#xdb;" horiz-adv-x="611" 
d="M70 722h138v-505q0 -105 97 -105q98 0 98 105v505h138v-506q0 -115 -62.5 -170.5t-173.5 -55.5t-173 55.5t-62 170.5v506zM243 909h126l114 -146h-113l-64 82l-64 -82h-113z" />
    <glyph glyph-name="Udieresis" unicode="&#xdc;" horiz-adv-x="611" 
d="M70 722h138v-505q0 -105 97 -105q98 0 98 105v505h138v-506q0 -115 -62.5 -170.5t-173.5 -55.5t-173 55.5t-62 170.5v506zM151 885h120v-114h-120v114zM341 885h120v-114h-120v114z" />
    <glyph glyph-name="Yacute" unicode="&#xdd;" horiz-adv-x="556" 
d="M159 722l121 -291l117 291h147l-197 -430v-292h-138v292l-197 430h147zM286 909h155l-147 -146h-101z" />
    <glyph glyph-name="Thorn" unicode="&#xde;" horiz-adv-x="556" 
d="M208 0h-138v722h138v-132h61q126 0 189.5 -56t63.5 -160t-63.5 -160t-189.5 -56h-61v-158zM208 476v-204h74q102 0 102 102t-102 102h-74z" />
    <glyph glyph-name="germandbls" unicode="&#xdf;" 
d="M186 0h-126v523q0 96 42.5 147.5t146.5 51.5q86 0 132.5 -52t46.5 -149q0 -39 -17 -75t-48 -53q53 -28 73.5 -75.5t20.5 -125.5q0 -97 -41 -149.5t-107 -52.5q-39 0 -73 15v114q18 -9 40 -9q29 0 42 23.5t13 75.5q0 63 -19.5 94t-74.5 31v102q34 2 52.5 25t18.5 63
q0 88 -66 88q-28 0 -42 -17t-14 -42v-553z" />
    <glyph glyph-name="agrave" unicode="&#xe0;" 
d="M174 385h-126q7 86 67 130q52 39 135 39q185 0 185 -165v-345q0 -20 7 -44h-126q-2 8 -4.5 25.5t-4.5 27.5q-63 -63 -150 -63q-59 0 -92 33t-33 97q0 46 20 81.5t61 62t85.5 45t110.5 38.5v40q0 33 -18 49t-47 16t-49.5 -19t-20.5 -48zM309 134v132q-151 -52 -151 -125
q0 -27 15 -42t41 -15q45 0 95 50zM87 756h155l93 -146h-101z" />
    <glyph glyph-name="aacute" unicode="&#xe1;" 
d="M174 385h-126q7 86 67 130q52 39 135 39q185 0 185 -165v-345q0 -20 7 -44h-126q-2 8 -4.5 25.5t-4.5 27.5q-63 -63 -150 -63q-59 0 -92 33t-33 97q0 46 20 81.5t61 62t85.5 45t110.5 38.5v40q0 33 -18 49t-47 16t-49.5 -19t-20.5 -48zM309 134v132q-151 -52 -151 -125
q0 -27 15 -42t41 -15q45 0 95 50zM258 756h155l-147 -146h-101z" />
    <glyph glyph-name="acircumflex" unicode="&#xe2;" 
d="M174 385h-126q7 86 67 130q52 39 135 39q185 0 185 -165v-345q0 -20 7 -44h-126q-2 8 -4.5 25.5t-4.5 27.5q-63 -63 -150 -63q-59 0 -92 33t-33 97q0 46 20 81.5t61 62t85.5 45t110.5 38.5v40q0 33 -18 49t-47 16t-49.5 -19t-20.5 -48zM309 134v132q-151 -52 -151 -125
q0 -27 15 -42t41 -15q45 0 95 50zM187 756h126l114 -146h-113l-64 82l-64 -82h-113z" />
    <glyph glyph-name="atilde" unicode="&#xe3;" 
d="M174 385h-126q7 86 67 130q52 39 135 39q185 0 185 -165v-345q0 -20 7 -44h-126q-2 8 -4.5 25.5t-4.5 27.5q-63 -63 -150 -63q-59 0 -92 33t-33 97q0 46 20 81.5t61 62t85.5 45t110.5 38.5v40q0 33 -18 49t-47 16t-49.5 -19t-20.5 -48zM309 134v132q-151 -52 -151 -125
q0 -27 15 -42t41 -15q45 0 95 50zM368 744h65q-25 -121 -111 -121q-28 0 -77 17.5t-70 17.5q-36 0 -45 -42h-63q8 53 36.5 87.5t78.5 34.5q29 0 77.5 -18.5t61.5 -18.5q18 0 30.5 12t16.5 31z" />
    <glyph glyph-name="adieresis" unicode="&#xe4;" 
d="M174 385h-126q7 86 67 130q52 39 135 39q185 0 185 -165v-345q0 -20 7 -44h-126q-2 8 -4.5 25.5t-4.5 27.5q-63 -63 -150 -63q-59 0 -92 33t-33 97q0 46 20 81.5t61 62t85.5 45t110.5 38.5v40q0 33 -18 49t-47 16t-49.5 -19t-20.5 -48zM309 134v132q-151 -52 -151 -125
q0 -27 15 -42t41 -15q45 0 95 50zM95 732h120v-114h-120v114zM285 732h120v-114h-120v114z" />
    <glyph glyph-name="aring" unicode="&#xe5;" 
d="M174 385h-126q7 86 67 130q52 39 135 39q185 0 185 -165v-345q0 -20 7 -44h-126q-2 8 -4.5 25.5t-4.5 27.5q-63 -63 -150 -63q-59 0 -92 33t-33 97q0 46 20 81.5t61 62t85.5 45t110.5 38.5v40q0 33 -18 49t-47 16t-49.5 -19t-20.5 -48zM309 134v132q-151 -52 -151 -125
q0 -27 15 -42t41 -15q45 0 95 50zM249 604q-44 0 -75 31.5t-31 75.5t31 75.5t75 31.5t76 -32t32 -75q0 -44 -32 -75.5t-76 -31.5zM249 764q-22 0 -37 -15.5t-15 -37.5q0 -23 15 -38t37 -15t38 15.5t16 37.5t-16 37.5t-38 15.5z" />
    <glyph glyph-name="ae" unicode="&#xe6;" horiz-adv-x="778" 
d="M316 134v132q-144 -55 -144 -125q0 -27 15 -42t41 -15q50 0 88 50zM716 242h-274v-72q0 -39 20.5 -58.5t53.5 -19.5q38 0 56 21t18 55h126q-5 -85 -55.5 -131.5t-144.5 -46.5q-106 0 -165 70q-57 -44 -96.5 -57t-83.5 -13q-59 0 -92 33t-33 97q0 46 20 81.5t60 62t83 45
t107 38.5v40q0 65 -58 65q-29 0 -49.5 -19t-20.5 -48h-126q6 84 60.5 126.5t125.5 42.5q95 0 144 -62q55 62 134 62q82 0 136 -51.5t54 -133.5v-127zM442 344h148v30q0 78 -74 78t-74 -78v-30z" />
    <glyph glyph-name="ccedilla" unicode="&#xe7;" 
d="M449 356h-125v24q0 31 -20 47.5t-54 16.5t-54 -16.5t-20 -47.5v-216q0 -31 20 -47.5t54 -16.5t54 16.5t20 47.5v34h126v-2q0 -200 -189 -206l-35 -51l2 -2q10 7 31 7q36 0 63 -22t27 -56q0 -47 -38.5 -70.5t-88.5 -23.5q-46 0 -109 25l19 42q51 -17 75 -17q22 0 39 9.5
t17 29.5q0 16 -12 26.5t-29 10.5q-15 0 -45 -8l-21 20l54 82q-160 19 -160 204v152q0 206 200 206q196 0 199 -198z" />
    <glyph glyph-name="egrave" unicode="&#xe8;" 
d="M450 242h-274v-72q0 -39 20.5 -58.5t53.5 -19.5q38 0 56 21t18 55h126q-5 -85 -55.5 -131.5t-144.5 -46.5q-91 0 -145.5 52t-54.5 141v178q0 89 54.5 141t145.5 52q88 0 144 -51t56 -134v-127zM176 344h148v30q0 78 -74 78t-74 -78v-30zM87 756h155l93 -146h-101z" />
    <glyph glyph-name="eacute" unicode="&#xe9;" 
d="M450 242h-274v-72q0 -39 20.5 -58.5t53.5 -19.5q38 0 56 21t18 55h126q-5 -85 -55.5 -131.5t-144.5 -46.5q-91 0 -145.5 52t-54.5 141v178q0 89 54.5 141t145.5 52q88 0 144 -51t56 -134v-127zM176 344h148v30q0 78 -74 78t-74 -78v-30zM258 756h155l-147 -146h-101z" />
    <glyph glyph-name="ecircumflex" unicode="&#xea;" 
d="M450 242h-274v-72q0 -39 20.5 -58.5t53.5 -19.5q38 0 56 21t18 55h126q-5 -85 -55.5 -131.5t-144.5 -46.5q-91 0 -145.5 52t-54.5 141v178q0 89 54.5 141t145.5 52q88 0 144 -51t56 -134v-127zM176 344h148v30q0 78 -74 78t-74 -78v-30zM187 756h126l114 -146h-113
l-64 82l-64 -82h-113z" />
    <glyph glyph-name="edieresis" unicode="&#xeb;" 
d="M450 242h-274v-72q0 -39 20.5 -58.5t53.5 -19.5q38 0 56 21t18 55h126q-5 -85 -55.5 -131.5t-144.5 -46.5q-91 0 -145.5 52t-54.5 141v178q0 89 54.5 141t145.5 52q88 0 144 -51t56 -134v-127zM176 344h148v30q0 78 -74 78t-74 -78v-30zM95 732h120v-114h-120v114z
M285 732h120v-114h-120v114z" />
    <glyph glyph-name="igrave" unicode="&#xec;" horiz-adv-x="278" 
d="M202 0h-126v544h126v-544zM-24 756h155l93 -146h-101z" />
    <glyph glyph-name="iacute" unicode="&#xed;" horiz-adv-x="278" 
d="M202 0h-126v544h126v-544zM147 756h155l-147 -146h-101z" />
    <glyph glyph-name="icircumflex" unicode="&#xee;" horiz-adv-x="278" 
d="M202 0h-126v544h126v-544zM76 756h126l114 -146h-113l-64 82l-64 -82h-113z" />
    <glyph glyph-name="idieresis" unicode="&#xef;" horiz-adv-x="278" 
d="M202 0h-126v544h126v-544zM-16 732h120v-114h-120v114zM174 732h120v-114h-120v114z" />
    <glyph glyph-name="eth" unicode="&#xf0;" 
d="M176 350v-190q0 -29 20 -44.5t54 -15.5t54 15.5t20 44.5v190q0 29 -20 44.5t-54 15.5t-54 -15.5t-20 -44.5zM176 708l118 14q9 -10 32 -37l108 37l30 -74l-91 -32q77 -131 77 -290v-143q0 -193 -200 -193t-200 193v143q0 194 200 194q25 0 43 -4q-7 29 -25 64l-110 -38
l-30 74l95 33q-3 4 -47 59z" />
    <glyph glyph-name="ntilde" unicode="&#xf1;" 
d="M186 0h-126v544h122v-62q41 35 73 53.5t68 18.5q59 0 88 -33t29 -107v-414h-126v400q0 60 -46 60q-27 0 -82 -49v-411zM368 744h65q-25 -121 -111 -121q-28 0 -77 17.5t-70 17.5q-36 0 -45 -42h-63q8 53 36.5 87.5t78.5 34.5q29 0 77.5 -18.5t61.5 -18.5q18 0 30.5 12
t16.5 31z" />
    <glyph glyph-name="ograve" unicode="&#xf2;" 
d="M50 196v152q0 206 200 206t200 -206v-152q0 -206 -200 -206t-200 206zM176 380v-216q0 -31 20 -47.5t54 -16.5t54 16.5t20 47.5v216q0 31 -20 47.5t-54 16.5t-54 -16.5t-20 -47.5zM87 756h155l93 -146h-101z" />
    <glyph glyph-name="oacute" unicode="&#xf3;" 
d="M50 196v152q0 206 200 206t200 -206v-152q0 -206 -200 -206t-200 206zM176 380v-216q0 -31 20 -47.5t54 -16.5t54 16.5t20 47.5v216q0 31 -20 47.5t-54 16.5t-54 -16.5t-20 -47.5zM258 756h155l-147 -146h-101z" />
    <glyph glyph-name="ocircumflex" unicode="&#xf4;" 
d="M50 196v152q0 206 200 206t200 -206v-152q0 -206 -200 -206t-200 206zM176 380v-216q0 -31 20 -47.5t54 -16.5t54 16.5t20 47.5v216q0 31 -20 47.5t-54 16.5t-54 -16.5t-20 -47.5zM187 756h126l114 -146h-113l-64 82l-64 -82h-113z" />
    <glyph glyph-name="otilde" unicode="&#xf5;" 
d="M50 196v152q0 206 200 206t200 -206v-152q0 -206 -200 -206t-200 206zM176 380v-216q0 -31 20 -47.5t54 -16.5t54 16.5t20 47.5v216q0 31 -20 47.5t-54 16.5t-54 -16.5t-20 -47.5zM368 744h65q-25 -121 -111 -121q-28 0 -77 17.5t-70 17.5q-36 0 -45 -42h-63
q8 53 36.5 87.5t78.5 34.5q29 0 77.5 -18.5t61.5 -18.5q18 0 30.5 12t16.5 31z" />
    <glyph glyph-name="odieresis" unicode="&#xf6;" 
d="M50 196v152q0 206 200 206t200 -206v-152q0 -206 -200 -206t-200 206zM176 380v-216q0 -31 20 -47.5t54 -16.5t54 16.5t20 47.5v216q0 31 -20 47.5t-54 16.5t-54 -16.5t-20 -47.5zM95 732h120v-114h-120v114zM285 732h120v-114h-120v114z" />
    <glyph glyph-name="divide" unicode="&#xf7;" horiz-adv-x="600" 
d="M572 211h-544v122h544v-122zM204 495q0 39 28.5 67t67.5 28q38 0 66 -28.5t28 -66.5q0 -36 -28.5 -65.5t-64.5 -29.5q-40 0 -68.5 28t-28.5 67zM204 49q0 39 28.5 67t67.5 28q38 0 66 -28t28 -67q0 -36 -28.5 -65.5t-64.5 -29.5q-40 0 -68.5 28.5t-28.5 66.5z" />
    <glyph glyph-name="oslash" unicode="&#xf8;" 
d="M178 209l118 223q-18 12 -46 12q-34 0 -54 -16.5t-20 -47.5v-171h2zM322 317l-111 -209q16 -8 39 -8q34 0 54 16.5t20 47.5v153h-2zM156 6l-63 -118h-89l88 164q-42 50 -42 144v152q0 206 200 206q60 0 102 -19l51 95h89l-78 -146q36 -48 36 -136v-152q0 -206 -200 -206
q-56 0 -94 16z" />
    <glyph glyph-name="ugrave" unicode="&#xf9;" 
d="M314 544h126v-544h-122v62q-41 -35 -73 -53.5t-68 -18.5q-59 0 -88 33t-29 107v414h126v-400q0 -60 46 -60q27 0 82 49v411zM78 756h155l93 -146h-101z" />
    <glyph glyph-name="uacute" unicode="&#xfa;" 
d="M314 544h126v-544h-122v62q-41 -35 -73 -53.5t-68 -18.5q-59 0 -88 33t-29 107v414h126v-400q0 -60 46 -60q27 0 82 49v411zM249 756h155l-147 -146h-101z" />
    <glyph glyph-name="ucircumflex" unicode="&#xfb;" 
d="M314 544h126v-544h-122v62q-41 -35 -73 -53.5t-68 -18.5q-59 0 -88 33t-29 107v414h126v-400q0 -60 46 -60q27 0 82 49v411zM178 756h126l114 -146h-113l-64 82l-64 -82h-113z" />
    <glyph glyph-name="udieresis" unicode="&#xfc;" 
d="M314 544h126v-544h-122v62q-41 -35 -73 -53.5t-68 -18.5q-59 0 -88 33t-29 107v414h126v-400q0 -60 46 -60q27 0 82 49v411zM86 732h120v-114h-120v114zM276 732h120v-114h-120v114z" />
    <glyph glyph-name="yacute" unicode="&#xfd;" horiz-adv-x="444" 
d="M32 -190v110q12 -2 37 -2q38 0 64.5 25.5t26.5 46.5q0 34 -23 115l-126 439h128l85 -360h2l79 360h128l-145 -542q-29 -111 -75.5 -152.5t-140.5 -41.5q-12 0 -40 2zM230 756h155l-147 -146h-101z" />
    <glyph glyph-name="thorn" unicode="&#xfe;" 
d="M186 421v-298q36 -39 76 -39q29 0 45.5 27.5t16.5 102.5v116q0 75 -16.5 102.5t-45.5 27.5q-40 0 -76 -39zM60 722h124v-234h2q12 21 50 43.5t76 22.5q72 0 105 -54t33 -162v-132q0 -108 -33 -162t-105 -54q-44 0 -126 60v-242h-126v914z" />
    <glyph glyph-name="ydieresis" unicode="&#xff;" horiz-adv-x="444" 
d="M32 -190v110q12 -2 37 -2q38 0 64.5 25.5t26.5 46.5q0 34 -23 115l-126 439h128l85 -360h2l79 360h128l-145 -542q-29 -111 -75.5 -152.5t-140.5 -41.5q-12 0 -40 2zM67 732h120v-114h-120v114zM257 732h120v-114h-120v114z" />
    <glyph glyph-name="dotlessi" unicode="&#x131;" horiz-adv-x="278" 
d="M202 0h-126v544h126v-544z" />
    <glyph glyph-name="Lslash" unicode="&#x141;" horiz-adv-x="444" 
d="M200 316v-194h222v-122h-360v260l-62 -25v116l62 25v346h138v-290l163 66l-1 -116z" />
    <glyph glyph-name="lslash" unicode="&#x142;" horiz-adv-x="278" 
d="M202 377v-377h-126v313l-74 -37v94l74 37v315h126v-251l74 37v-94z" />
    <glyph glyph-name="OE" unicode="&#x152;" horiz-adv-x="944" 
d="M196 436v-150q0 -98 31.5 -136t110.5 -38q64 0 88 31.5t24 98.5v238q0 67 -24 98.5t-88 31.5q-79 0 -110.5 -38t-31.5 -136zM588 600v-166h223v-122h-223v-190h306v-122h-413q-42 0 -84 -5q-62 -5 -92 -5q-113 0 -180 75.5t-67 207.5v191q0 132 76.5 200t207.5 68
q60 0 113 -5q78 -5 103 -5h327v-122h-297z" />
    <glyph glyph-name="oe" unicode="&#x153;" horiz-adv-x="778" 
d="M176 380v-216q0 -31 20 -47.5t54 -16.5t54 16.5t20 47.5v216q0 31 -20 47.5t-54 16.5t-54 -16.5t-20 -47.5zM728 242h-278v-72q0 -38 22 -58t56 -20q38 0 56 21t18 55h126q-5 -85 -55.5 -131.5t-144.5 -46.5q-90 0 -140 72q-48 -72 -144 -72q-194 0 -194 206v152
q0 206 194 206q96 0 144 -72q50 72 146 72q84 0 139 -51.5t55 -133.5v-127zM450 344h152v30q0 78 -74 78q-38 0 -58 -20.5t-20 -57.5v-30z" />
    <glyph glyph-name="Scaron" unicode="&#x160;" horiz-adv-x="556" 
d="M491 557l-124 -36q-17 51 -41 74t-60 23t-56 -21t-20 -58q0 -29 31.5 -54.5t77 -49t91 -52t77 -76.5t31.5 -111q0 -94 -61 -150t-169 -56q-183 0 -236 203l136 29q11 -60 41.5 -89t65.5 -29q37 0 61 23t24 63q0 32 -23 58.5t-57 45t-74 42t-74 47t-57 62t-23 85.5
q0 95 56 148.5t161 53.5q89 0 146 -47.5t76 -127.5zM341 763h-126l-114 146h113l64 -82l64 82h113z" />
    <glyph glyph-name="scaron" unicode="&#x161;" horiz-adv-x="444" 
d="M404 418l-104 -40q-25 74 -87 74q-22 0 -36.5 -14t-14.5 -35q0 -23 25.5 -42t61.5 -35.5t72 -36.5t61.5 -54.5t25.5 -79.5q0 -79 -50 -122t-131 -43q-67 0 -115 31t-90 124l113 31q18 -84 92 -84q29 0 45 13t16 35q0 28 -25.5 49t-61.5 36.5t-72 34.5t-61.5 55t-25.5 87
q0 73 50 112.5t122 39.5q69 0 117.5 -36.5t72.5 -99.5zM285 610h-126l-114 146h113l64 -82l64 82h113z" />
    <glyph glyph-name="Ydieresis" unicode="&#x178;" horiz-adv-x="556" 
d="M159 722l121 -291l117 291h147l-197 -430v-292h-138v292l-197 430h147zM123 885h120v-114h-120v114zM313 885h120v-114h-120v114z" />
    <glyph glyph-name="Zcaron" unicode="&#x17d;" 
d="M61 600v122h400v-116l-273 -484h279v-122h-434v117l273 483h-245zM313 763h-126l-114 146h113l64 -82l64 82h113z" />
    <glyph glyph-name="zcaron" unicode="&#x17e;" horiz-adv-x="444" 
d="M51 434v110h362v-108l-231 -326h231v-110h-382v108l227 326h-207zM285 610h-126l-114 146h113l64 -82l64 82h113z" />
    <glyph glyph-name="florin" unicode="&#x192;" horiz-adv-x="556" 
d="M26 -181l16 103q24 -12 52 -12q49 0 65 85l71 371h-98v88h119q27 155 69 216.5t126 61.5q35 0 74 -12l-18 -100q-22 10 -44 10q-33 -2 -52 -40t-33 -136h99v-88h-116l-64 -329q-8 -39 -15.5 -67.5t-22.5 -61t-34.5 -53t-50.5 -34t-70 -13.5q-45 0 -73 11z" />
    <glyph glyph-name="circumflex" unicode="&#x2c6;" horiz-adv-x="278" 
d="M76 756h126l114 -146h-113l-64 82l-64 -82h-113z" />
    <glyph glyph-name="caron" unicode="&#x2c7;" horiz-adv-x="278" 
d="M202 610h-126l-114 146h113l64 -82l64 82h113z" />
    <glyph glyph-name="uni02C9" unicode="&#x2c9;" horiz-adv-x="278" 
d="M313 640h-348v74h348v-74z" />
    <glyph glyph-name="breve" unicode="&#x2d8;" horiz-adv-x="278" 
d="M241 754h66q-19 -146 -175 -146q-72 0 -114 37t-47 109h64q8 -70 104 -70q89 0 102 70z" />
    <glyph glyph-name="dotaccent" unicode="&#x2d9;" horiz-adv-x="278" 
d="M79 732h120v-114h-120v114z" />
    <glyph glyph-name="ring" unicode="&#x2da;" horiz-adv-x="278" 
d="M138 604q-44 0 -75 31.5t-31 75.5t31 75.5t75 31.5t76 -32t32 -75q0 -44 -32 -75.5t-76 -31.5zM138 764q-22 0 -37 -15.5t-15 -37.5q0 -23 15 -38t37 -15t38 15.5t16 37.5t-16 37.5t-38 15.5z" />
    <glyph glyph-name="ogonek" unicode="&#x2db;" horiz-adv-x="278" 
d="M258 21v-12q-142 -54 -142 -125q0 -24 15 -38t38 -14q30 0 96 43l20 -34q-89 -59 -151 -59q-45 0 -74.5 24t-29.5 67q0 110 228 148z" />
    <glyph glyph-name="tilde" unicode="&#x2dc;" horiz-adv-x="278" 
d="M257 744h65q-25 -121 -111 -121q-28 0 -77 17.5t-70 17.5q-36 0 -45 -42h-63q8 53 36.5 87.5t78.5 34.5q29 0 77.5 -18.5t61.5 -18.5q18 0 30.5 12t16.5 31z" />
    <glyph glyph-name="hungarumlaut" unicode="&#x2dd;" horiz-adv-x="278" 
d="M59 756h151l-141 -146h-97zM239 756h155l-147 -146h-101z" />
    <glyph glyph-name="uni03A9" unicode="&#x3a9;" horiz-adv-x="706" 
d="M177 97v3q-53 51 -88.5 126.5t-35.5 167.5q0 140 85 236t217 96q91 0 160 -49.5t102 -122t33 -153.5q0 -94 -36 -173t-89 -128v-3h139v-97h-258v71q54 36 89.5 113t35.5 191q-1 103 -47.5 177t-129.5 74q-81 0 -131 -72t-50 -183q0 -106 36 -186.5t88 -113.5v-71h-258v97
h138z" />
    <glyph glyph-name="uni03BC" unicode="&#x3bc;" 
d="M314 544h126v-544h-122v62q-79 -68 -132 -72v-182h-126v736h126v-400q0 -60 46 -60q27 0 82 49v411z" />
    <glyph glyph-name="pi" unicode="&#x3c0;" horiz-adv-x="595" 
d="M571 435h-72v-285q0 -92 13 -150h-114q-17 32 -17 145v290h-145q-4 -98 -22.5 -229.5t-43.5 -205.5h-115q25 87 43.5 215.5t20.5 219.5q-66 0 -99 -11l-14 80q42 32 160 32h414z" />
    <glyph glyph-name="uni2010" unicode="&#x2010;" horiz-adv-x="333" 
d="M289 217h-246v110h246v-110z" />
    <glyph glyph-name="endash" unicode="&#x2013;" 
d="M500 230h-500v84h500v-84z" />
    <glyph glyph-name="emdash" unicode="&#x2014;" horiz-adv-x="1000" 
d="M1000 230h-1000v84h1000v-84z" />
    <glyph glyph-name="quoteleft" unicode="&#x2018;" horiz-adv-x="222" 
d="M173 732l-51 -148h60v-142h-142v142l63 148h70z" />
    <glyph glyph-name="quoteright" unicode="&#x2019;" horiz-adv-x="222" 
d="M49 432l51 148h-60v142h142v-142l-63 -148h-70z" />
    <glyph glyph-name="quotesinglbase" unicode="&#x201a;" horiz-adv-x="222" 
d="M49 -148l51 148h-60v142h142v-142l-63 -148h-70z" />
    <glyph glyph-name="quotedblleft" unicode="&#x201c;" horiz-adv-x="444" 
d="M173 732l-51 -148h60v-142h-142v142l63 148h70zM395 732l-51 -148h60v-142h-142v142l63 148h70z" />
    <glyph glyph-name="quotedblright" unicode="&#x201d;" horiz-adv-x="444" 
d="M49 432l51 148h-60v142h142v-142l-63 -148h-70zM271 432l51 148h-60v142h142v-142l-63 -148h-70z" />
    <glyph glyph-name="quotedblbase" unicode="&#x201e;" horiz-adv-x="444" 
d="M49 -148l51 148h-60v142h142v-142l-63 -148h-70zM271 -148l51 148h-60v142h142v-142l-63 -148h-70z" />
    <glyph glyph-name="dagger" unicode="&#x2020;" 
d="M66 467v96l162 -27l-26 196h96l-26 -196l162 27v-96l-159 27l25 -170q-8 -64 -31 -398h-38q-23 334 -31 398l25 170z" />
    <glyph glyph-name="daggerdbl" unicode="&#x2021;" 
d="M200 329l25 177l-159 -27v96l162 -27l-26 184h96l-26 -184l162 27v-96l-159 27l25 -177l-25 -177l159 27v-96l-162 27l26 -184h-96l26 184l-162 -27v96l159 -27z" />
    <glyph glyph-name="bullet" unicode="&#x2022;" 
d="M69 361q0 75 52.5 127.5t127.5 52.5t128 -52.5t53 -127.5t-53 -128t-128 -53t-127.5 53t-52.5 128z" />
    <glyph glyph-name="ellipsis" unicode="&#x2026;" horiz-adv-x="1000" 
d="M238 0h-142v142h142v-142zM904 0h-142v142h142v-142zM571 0h-142v142h142v-142z" />
    <glyph glyph-name="perthousand" unicode="&#x2030;" horiz-adv-x="1000" 
d="M162 722q61 0 104.5 -43.5t43.5 -104.5t-43.5 -104.5t-104.5 -43.5t-104.5 43.5t-43.5 104.5t43.5 104.5t104.5 43.5zM162 640q-28 0 -47 -19t-19 -47t19 -47t47 -19t47 19t19 47t-19 47t-47 19zM477 214q-28 0 -47 -19t-19 -47t19 -47t47 -19t47 19t19 47t-19 47t-47 19
zM477 296q61 0 104.5 -43.5t43.5 -104.5t-43.5 -104.5t-104.5 -43.5t-104.5 43.5t-43.5 104.5t43.5 104.5t104.5 43.5zM838 214q-28 0 -47 -19t-19 -47t19 -47t47 -19t47 19t19 47t-19 47t-47 19zM838 296q61 0 104.5 -43.5t43.5 -104.5t-43.5 -104.5t-104.5 -43.5
t-104.5 43.5t-43.5 104.5t43.5 104.5t104.5 43.5zM76 -10l408 742h77l-408 -742h-77z" />
    <glyph glyph-name="guilsinglleft" unicode="&#x2039;" horiz-adv-x="333" 
d="M38 272l122 160h110l-122 -160l122 -160h-110z" />
    <glyph glyph-name="guilsinglright" unicode="&#x203a;" horiz-adv-x="333" 
d="M295 272l-122 -160h-110l122 160l-122 160h110z" />
    <glyph glyph-name="fraction" unicode="&#x2044;" horiz-adv-x="167" 
d="M-167 -10l405 742h96l-405 -742h-96z" />
    <glyph glyph-name="Euro" unicode="&#x20ac;" horiz-adv-x="556" 
d="M446 391h-214v-72h190l-28 -88h-162v-5q0 -58 30 -90t86 -32q95 0 157 41v-118q-67 -35 -167 -35q-104 0 -166.5 58t-62.5 152v29h-79l28 88h51v72h-79l28 88h51v48q0 91 69.5 148t172.5 57q109 0 185 -60l-36 -113q-65 59 -155 59q-52 0 -82.5 -33t-30.5 -79v-27h242z
" />
    <glyph glyph-name="afii61289" unicode="&#x2113;" horiz-adv-x="507" 
d="M440 182l49 -50q-70 -138 -203 -138q-85 0 -128.5 48t-50.5 125v12q-51 -42 -53 -43l-30 64q66 55 82 71v263q0 128 49.5 192t125.5 64q67 0 101.5 -49.5t34.5 -129.5q0 -162 -197 -357v-44q1 -59 26.5 -90.5t65.5 -31.5q73 0 128 94zM220 534v-170q123 144 123 251
q0 89 -57 89q-28 0 -47 -39.5t-19 -130.5z" />
    <glyph glyph-name="trademark" unicode="&#x2122;" horiz-adv-x="1000" 
d="M592 722l94 -250l93 250h153v-412h-106v280h-2l-98 -280h-81l-98 280h-2v-280h-106v412h153zM373 722v-84h-115v-328h-112v328h-114v84h341z" />
    <glyph glyph-name="Omega" unicode="&#x2126;" horiz-adv-x="706" 
d="M177 97v3q-53 51 -88.5 126.5t-35.5 167.5q0 140 85 236t217 96q91 0 160 -49.5t102 -122t33 -153.5q0 -94 -36 -173t-89 -128v-3h139v-97h-258v71q54 36 89.5 113t35.5 191q-1 103 -47.5 177t-129.5 74q-81 0 -131 -72t-50 -183q0 -106 36 -186.5t88 -113.5v-71h-258v97
h138z" />
    <glyph glyph-name="estimated" unicode="&#x212e;" horiz-adv-x="895" 
d="M859 351h-667q-6 0 -6 -5v-202q0 -12 9 -23q107 -110 252 -110q158 0 266 123h59q-56 -66 -142 -104.5t-184 -38.5q-170 0 -290.5 108t-120.5 261q0 154 120.5 263t290.5 109q172 0 292.5 -108.5t120.5 -263.5v-9zM707 377v203q0 15 -9 24q-108 106 -251 106
q-144 0 -251 -109q-10 -10 -10 -25v-199q0 -7 6 -7h511q4 0 4 7z" />
    <glyph glyph-name="partialdiff" unicode="&#x2202;" horiz-adv-x="570" 
d="M104 662l-34 89q72 58 179 58q115 0 193 -101t78 -287q0 -194 -73 -310t-204 -116q-65 0 -113 37.5t-69.5 91t-21.5 112.5q0 120 62.5 193.5t153.5 73.5q54 0 93 -27t55 -56h2v36q0 106 -48 180.5t-123 74.5q-72 0 -130 -49zM255 94h1q55 0 92 67.5t46 156.5
q-10 31 -42 60t-75 29q-51 0 -86 -52t-35 -123q0 -60 27 -99t72 -39z" />
    <glyph glyph-name="uni2206" unicode="&#x2206;" horiz-adv-x="653" 
d="M28 0v71l232 660h139l226 -658v-73h-597zM148 96h351l-114 316q-7 24 -29.5 92.5t-28.5 93.5h-4q-4 -20 -25 -83t-28 -88z" />
    <glyph glyph-name="product" unicode="&#x220f;" horiz-adv-x="718" 
d="M691 607h-102v-706h-117v706h-228v-706h-116v706h-103v108h666v-108z" />
    <glyph glyph-name="summation" unicode="&#x2211;" horiz-adv-x="557" 
d="M537 -99h-514v77l247 331l-237 323v83h487v-101h-329v-3l211 -283l-234 -313v-3h369v-111z" />
    <glyph glyph-name="minus" unicode="&#x2212;" horiz-adv-x="600" 
d="M572 211h-544v122h544v-122z" />
    <glyph glyph-name="uni2215" unicode="&#x2215;" horiz-adv-x="167" 
d="M-167 -10l405 742h96l-405 -742h-96z" />
    <glyph glyph-name="uni2219" unicode="&#x2219;" horiz-adv-x="278" 
d="M139 348q33 0 54.5 -23t21.5 -53t-21.5 -53t-54.5 -23t-54.5 23t-21.5 53t21.5 53t54.5 23z" />
    <glyph glyph-name="radical" unicode="&#x221a;" horiz-adv-x="591" 
d="M596 857l-224 -1001h-95l-150 453l-75 -29l-19 67l164 66l108 -333q17 -76 19 -86l1 -1q1 7 6.5 39.5t9.5 52.5l173 772h82z" />
    <glyph glyph-name="infinity" unicode="&#x221e;" horiz-adv-x="785" 
d="M736 296v-1q0 -78 -48 -125t-113 -47q-46 0 -89 26t-92 89q-47 -56 -89.5 -85.5t-98.5 -29.5q-64 0 -110.5 47.5t-46.5 119.5q0 75 47 123t119 48q93 0 182 -113q1 1 13 14.5t14.5 16.5t14.5 15t16.5 15.5t16.5 13.5t19 13t19 9.5t22 9t23 4.5t26 2q67 0 111 -46t44 -119
zM215 189h1q27 0 55 17.5t43.5 33.5t42.5 48q-49 64 -72 82q-35 27 -74 27q-43 0 -68.5 -30.5t-25.5 -77.5q0 -42 28 -71t70 -29zM574 397h-1q-18 0 -34.5 -6.5t-33.5 -20.5t-26.5 -23t-27 -29t-20.5 -24q49 -60 79 -82.5t68 -22.5q41 0 65.5 31.5t24.5 69.5q0 47 -26 77
t-68 30z" />
    <glyph glyph-name="integral" unicode="&#x222b;" horiz-adv-x="393" 
d="M370 870l-13 -82q-16 9 -36 9q-32 0 -50 -26q-28 -36 -28 -174q0 -81 7 -242.5t7 -253.5q0 -140 -38 -206q-36 -69 -124 -69q-47 0 -75 16l16 85q25 -11 43 -11q30 0 44 21q29 40 29 163q0 93 -7.5 258t-7.5 250q0 88 13.5 141t45.5 88q41 45 114 45q36 0 60 -12z" />
    <glyph glyph-name="approxequal" unicode="&#x2248;" horiz-adv-x="553" 
d="M469 456l43 -38q-52 -103 -134 -103q-46 0 -114 40q-54 34 -87 34q-30 0 -50.5 -18.5t-43.5 -54.5l-44 38q23 46 61.5 74.5t82.5 28.5q10 0 19.5 -1t19 -4t16 -5t16 -7t13 -7t13 -7.5t11.5 -6.5q3 -2 10 -6t9.5 -5.5t9 -5.5t9 -5t8 -3.5t8.5 -3.5t8 -3t8.5 -2.5t8 -1
t9.5 -0.5q27 0 47 18t43 55zM469 271l43 -39q-53 -103 -135 -103q-45 0 -113 41q-55 35 -87 35q-21 0 -39.5 -12t-28.5 -25t-26 -37l-44 38q23 46 61.5 74.5t82.5 28.5q12 0 24 -2t20 -4t19 -7.5t15.5 -7.5t16 -8.5t12.5 -7.5q4 -2 15 -9t15.5 -9.5t13.5 -7t15 -6.5t14 -3.5
t16 -1.5q27 0 47.5 18t42.5 55z" />
    <glyph glyph-name="notequal" unicode="&#x2260;" horiz-adv-x="553" 
d="M404 520l-40 -91h140v-69h-166l-61 -139h227v-70h-253l-51 -115l-54 23l41 92h-138v70h164l61 139h-225v69h251l49 113z" />
    <glyph glyph-name="lessequal" unicode="&#x2264;" horiz-adv-x="553" 
d="M501 101l-447 227v75l447 226v-82l-378 -180v-2l378 -182v-82zM505 -8h-455v70h455v-70z" />
    <glyph glyph-name="greaterequal" unicode="&#x2265;" horiz-adv-x="553" 
d="M56 629l447 -227v-74l-447 -227v82l377 181v2l-377 181v82zM504 -8h-453v70h453v-70z" />
    <glyph glyph-name="lozenge" unicode="&#x25ca;" horiz-adv-x="589" 
d="M539 357l-199 -406h-95l-194 406l199 406h95zM434 354l-118 251q-14 37 -19 61h-3q-10 -40 -20 -61l-118 -245l119 -255q12 -34 17 -58h4q10 38 18 57z" />
    <glyph glyph-name="fi" unicode="&#xfb01;" 
d="M322 520h126v-520h-126v520zM448 614h-126v114h126v-114zM270 726v-104h-36q-43 0 -43 -46v-56h75v-102h-75v-418h-126v418h-57v102h57v52q0 90 35.5 125t109.5 35q18 0 60 -6z" />
    <glyph glyph-name="fl" unicode="&#xfb02;" 
d="M322 0v722h126v-722h-126zM270 726v-104h-36q-43 0 -43 -46v-56h75v-102h-75v-418h-126v418h-57v102h57v52q0 90 35.5 125t109.5 35q18 0 60 -6z" />
    <glyph glyph-name="a.superior" horiz-adv-x="300" 
d="M106 627h-90q4 55 44 82q34 23 91 23q121 0 121 -99v-207q0 -10 4 -26h-86q0 1 -5 32q-35 -38 -94 -38q-38 0 -59.5 19.5t-21.5 58.5q0 52 44.5 82.5t127.5 55.5v22q0 30 -34 30q-18 0 -30 -10t-12 -25zM182 490v58q-26 -10 -40.5 -17t-28 -19.5t-13.5 -26.5
q0 -25 28 -25q34 0 54 30z" />
    <glyph glyph-name="o.superior" horiz-adv-x="300" 
d="M20 518v91q0 123 130 123t130 -123v-91q0 -124 -130 -124t-130 124zM110 620v-114q0 -38 40 -38t40 38v114q0 38 -40 38q-21 0 -31 -9.5t-9 -28.5z" />
    <glyph glyph-name="one.superior" horiz-adv-x="333" 
d="M143 292v330h-67v54q30 6 48.5 15t27 17t19.5 24h62v-440h-90z" />
    <glyph glyph-name="two.superior" horiz-adv-x="333" 
d="M311 292h-296v75q140 123 176.5 163.5t36.5 73.5q0 24 -14.5 39t-43.5 15q-31 0 -47 -15t-16 -36v-16h-90v21q0 49 40 84.5t106 35.5q71 0 113 -32.5t42 -93.5q0 -28 -12 -56t-35 -54.5t-43.5 -45.5t-51.5 -45.5t-44 -38.5h179v-74z" />
    <glyph glyph-name="three.superior" horiz-adv-x="333" 
d="M10 420h90q0 -32 15.5 -46t49.5 -14q30 0 47.5 16.5t17.5 43.5q0 35 -22 49.5t-69 14.5v74q42 0 60.5 12t18.5 42q0 19 -15.5 32.5t-40.5 13.5q-22 0 -36.5 -14t-15.5 -35h-90q1 61 42 93q39 30 101 30q65 0 105 -30.5t40 -86.5q0 -30 -14.5 -56t-41.5 -39
q68 -24 68 -104q0 -62 -43.5 -96t-109.5 -34q-78 0 -117.5 35.5t-39.5 98.5z" />
    </font>
</defs>
</svg>
