<?xml version="1.0" standalone="no"?>
<!DOCTYPE svg PUBLIC "-//W3C//DTD SVG 1.1//EN" "http://www.w3.org/Graphics/SVG/1.1/DTD/svg11.dtd" >
<svg xmlns="http://www.w3.org/2000/svg">
<metadata></metadata>
<defs>
<font id="source_sans_pro_extralightIt" horiz-adv-x="933" >
<font-face units-per-em="2048" ascent="1536" descent="-512" />
<missing-glyph horiz-adv-x="385" />
<glyph horiz-adv-x="2048" />
<glyph horiz-adv-x="2048" />
<glyph unicode="&#xd;" horiz-adv-x="2048" />
<glyph unicode=" "  horiz-adv-x="385" />
<glyph unicode="&#x09;" horiz-adv-x="385" />
<glyph unicode="&#xa0;" horiz-adv-x="385" />
<glyph unicode="!" horiz-adv-x="495" d="M86 37q0 34 26.5 64t59.5 30q53 0 53 -65q0 -35 -24.5 -63t-57.5 -28q-27 0 -42 18t-15 44zM188 352l172 893l25 131h57l-24 -131l-180 -893h-50z" />
<glyph unicode="&#x22;" horiz-adv-x="663" d="M274 979l50 266l24 131h58l-25 -131l-62 -266h-45zM524 979l49 266l25 131h57l-24 -131l-62 -266h-45z" />
<glyph unicode="#" horiz-adv-x="937" d="M57 446l17 58h168l110 364h-172l17 58h176l127 405h57l-127 -405h299l127 405h57l-127 -405h168l-16 -58h-168l-111 -364h172l-16 -58h-176l-139 -446h-58l140 446h-299l-140 -446h-57l139 446h-168zM299 504h303l111 364h-303z" />
<glyph unicode="$" d="M51 160l43 41q52 -73 130.5 -122.5t172.5 -49.5q136 0 228 86.5t92 220.5q0 71 -25 131t-65 102t-88.5 79.5t-97.5 74t-89 75.5t-65 92.5t-25 117.5q0 141 97 233t245 94l41 201h57l-43 -207q71 -13 135 -59.5t103 -106.5l-45 -37q-46 70 -110.5 113t-139.5 43 q-122 0 -202.5 -73t-80.5 -189q0 -60 25 -110t65 -87.5t88.5 -73t97.5 -74t89 -82t65 -106.5t25 -139q0 -102 -46 -186.5t-132.5 -135t-196.5 -51.5l-39 -200h-57l41 205q-90 14 -166.5 65t-126.5 115z" />
<glyph unicode="%" horiz-adv-x="1556" d="M139 827q0 89 23 183t65.5 177t113 136t155.5 53q111 0 168 -84t57 -215q0 -70 -14 -145t-43.5 -147.5t-70 -129.5t-100 -92t-128.5 -35q-111 0 -168.5 84t-57.5 215zM197 840q0 -76 16.5 -133t56 -93t99.5 -36q70 0 128.5 48.5t93.5 123t54 157.5t19 158q0 76 -16.5 133 t-56 93t-99.5 36q-70 0 -128.5 -48.5t-93.5 -123t-54 -157.5t-19 -158zM266 -25l1008 1401h61l-1007 -1401h-62zM889 274q0 70 14 145t43.5 147.5t70 129.5t100 92t128.5 35q111 0 168 -84t57 -215q0 -70 -14 -145t-43.5 -147.5t-70 -129.5t-100 -92t-128.5 -35 q-111 0 -168 84t-57 215zM946 287q0 -76 16.5 -133t56 -93t99.5 -36q70 0 128.5 48.5t93.5 123t54 157.5t19 158q0 76 -16.5 133t-56 93t-99.5 36q-70 0 -128.5 -48.5t-93.5 -123t-54 -157.5t-19 -158z" />
<glyph unicode="&#x26;" horiz-adv-x="1110" d="M33 274q0 65 21 124.5t52 104t83 92t96.5 79.5t109.5 74q-35 125 -35 239q0 171 93.5 280t218.5 109q87 0 131.5 -51.5t44.5 -128.5q0 -60 -24 -117.5t-52 -97t-90 -90.5t-98 -76t-115 -77q-7 -5 -10 -7q41 -138 112.5 -270t159.5 -232q160 163 305 469h58 q-149 -315 -328 -505q121 -127 213 -168l-29 -50q-114 51 -227 175q-190 -175 -389 -175q-131 0 -216 81.5t-85 217.5zM94 287q0 -115 72 -186.5t182 -71.5q164 0 340 159q-88 104 -162 238t-116 272q-74 -50 -121.5 -88t-97 -90t-73.5 -110t-24 -123zM418 995 q0 -101 28 -213q48 31 75.5 49t69 48.5t66 52.5t53.5 53.5t44.5 60.5t26 64t10.5 72q0 60 -30.5 100.5t-92.5 40.5q-108 0 -179 -94t-71 -234z" />
<glyph unicode="'" horiz-adv-x="413" d="M274 979l50 266l24 131h58l-25 -131l-62 -266h-45z" />
<glyph unicode="(" horiz-adv-x="532" d="M147 274q0 233 59.5 447.5t160 394.5t256.5 379l36 -29q-454 -549 -454 -1204q0 -161 25 -324.5t73 -281.5l-41 -12q-54 135 -84.5 299.5t-30.5 330.5z" />
<glyph unicode=")" horiz-adv-x="536" d="M-111 -328q455 550 455 1205q0 161 -25 324.5t-73 281.5l41 12q53 -134 83.5 -299.5t30.5 -331.5q0 -176 -32 -338t-96 -312t-147.5 -286t-199.5 -284z" />
<glyph unicode="*" horiz-adv-x="765" d="M295 1282l16 41l189 -66l41 201l45 -4l-17 -201l193 29l8 -45l-197 -53l78 -185l-41 -24l-94 172l-151 -148l-33 29l131 164z" />
<glyph unicode="+" d="M98 651v54h369v413h57v-413h369v-54h-369v-426h-57v426h-369z" />
<glyph unicode="," horiz-adv-x="413" d="M-70 -250q80 38 133.5 99.5t63.5 134.5h-12q-28 0 -45 16.5t-17 44.5q0 33 23.5 59.5t58.5 26.5q31 0 48.5 -24t17.5 -62q0 -111 -72 -205.5t-182 -138.5z" />
<glyph unicode="-" horiz-adv-x="577" d="M74 483l12 58h422l-12 -58h-422z" />
<glyph unicode="." horiz-adv-x="413" d="M45 37q0 34 26.5 64t59.5 30q53 0 53 -65q0 -35 -24.5 -63t-57.5 -28q-27 0 -42 18t-15 44z" />
<glyph unicode="/" horiz-adv-x="716" d="M-152 -328l992 1782h57l-991 -1782h-58z" />
<glyph unicode="0" d="M94 401q0 157 38.5 322t104.5 301.5t163.5 223.5t205.5 87q72 0 129 -37.5t90.5 -100t50.5 -137t17 -155.5q0 -157 -38.5 -321.5t-104.5 -300t-163.5 -222t-205.5 -86.5q-74 0 -131 36t-90 97.5t-49.5 135.5t-16.5 157zM152 414q0 -104 22 -188t75.5 -140.5t131.5 -56.5 q76 0 147.5 55t126 146t96.5 203t63.5 232t21.5 228q0 105 -23.5 190.5t-78 142t-132.5 56.5q-94 0 -180 -85.5t-144 -215.5t-92 -281t-34 -286z" />
<glyph unicode="1" d="M66 0l12 53h295l229 1139h-229l8 41q157 19 254 78h49l-254 -1258h287l-8 -53h-643z" />
<glyph unicode="2" d="M-16 0l4 41q25 22 74 64q150 129 217.5 188t170 152t144.5 139.5t99 114t77.5 113.5t36.5 101t16 111q0 111 -66 184.5t-192 73.5q-159 0 -311 -152l-37 46q93 79 176 119t176 40q149 0 230.5 -84t81.5 -215q0 -75 -18.5 -142.5t-62 -138t-100.5 -137.5t-148 -153.5 t-190 -173t-240 -208.5l-36 -30h664l-9 -53h-757z" />
<glyph unicode="3" d="M-8 193l45 32q133 -196 328 -196q168 0 278.5 99t110.5 245q0 128 -106 207t-320 79l12 54q130 0 229.5 31t154 80.5t81 103.5t26.5 108q0 113 -60.5 179.5t-184.5 66.5q-72 0 -156.5 -34.5t-138.5 -88.5l-37 45q73 60 161 95.5t175 35.5q149 0 224 -76t75 -210 q0 -128 -87.5 -228.5t-236.5 -136.5v-8q111 -32 178.5 -108t67.5 -183q0 -181 -127.5 -295.5t-327.5 -114.5q-67 0 -127 20.5t-105 55.5t-76.5 69.5t-55.5 72.5z" />
<glyph unicode="4" d="M16 397l4 33l766 881h41l-172 -860h189l-13 -54h-186l-80 -397h-57l80 397h-572zM111 451h487l102 512q7 35 28.5 119.5t29.5 117.5h-8q-39 -50 -164 -196z" />
<glyph unicode="5" d="M-4 188l45 33q19 -31 35.5 -53.5t45.5 -50.5t60 -45.5t77.5 -30t100.5 -12.5q162 0 280 123t118 311q0 149 -76.5 226t-206.5 77q-68 0 -119.5 -17.5t-122.5 -56.5l-36 29l163 590h545l-12 -54h-492l-135 -491q97 53 209 53q153 0 246.5 -88.5t93.5 -255.5 q0 -111 -38 -205.5t-102 -158.5t-149 -100t-178 -36q-69 0 -128 19.5t-101.5 52.5t-71.5 67t-51 74z" />
<glyph unicode="6" d="M106 401q0 196 44.5 369.5t121 297.5t184 195.5t228.5 71.5q167 0 254 -155l-49 -33q-73 135 -209 135q-120 0 -226.5 -89t-179 -243t-98.5 -344q73 82 164 125t172 43q147 0 231 -94.5t84 -245.5q0 -193 -115 -326t-278 -133q-151 0 -239.5 119t-88.5 307zM164 414 q0 -170 74 -277.5t200 -107.5q130 0 231 116t101 269q0 141 -67.5 222t-194.5 81q-70 0 -164.5 -45.5t-175.5 -149.5q-4 -70 -4 -108z" />
<glyph unicode="7" d="M233 1257l13 54h762l-9 -41q-152 -146 -261.5 -292.5t-184 -306.5t-121.5 -314t-88 -357h-65q61 276 134.5 478t199 399.5t309.5 379.5h-689z" />
<glyph unicode="8" d="M70 315q0 264 323 418v8q-62 59 -90.5 116.5t-28.5 137.5q0 154 102.5 247t246.5 93q127 0 213 -79t86 -220q0 -128 -69.5 -218.5t-197.5 -166.5v-8q30 -21 58 -45.5t60 -62t51.5 -85.5t19.5 -98q0 -113 -56.5 -200t-149.5 -132t-204 -45q-151 0 -257.5 90t-106.5 250z M127 319q0 -137 90.5 -213.5t216.5 -76.5q90 0 169 35.5t131 108.5t52 167q0 64 -23.5 115t-80.5 96.5t-95.5 69t-124.5 69.5q-19 10 -28 15q-150 -78 -228.5 -167.5t-78.5 -218.5zM332 999q0 -117 66.5 -187.5t207.5 -135.5q113 64 185.5 153.5t72.5 202.5q0 117 -72 183.5 t-174 66.5q-116 0 -201 -78t-85 -205z" />
<glyph unicode="9" d="M49 131l49 33q74 -135 209 -135q120 0 226.5 89t179 243t98.5 344q-73 -82 -164 -125t-172 -43q-147 0 -231 94.5t-84 245.5q0 127 52.5 232.5t143 165.5t197.5 60q151 0 239.5 -119t88.5 -307q0 -196 -44.5 -369.5t-121 -297.5t-184 -195.5t-228.5 -71.5 q-166 0 -254 156zM217 897q0 -141 67.5 -222t194.5 -81q71 0 165 45t175 149q4 70 4 109q0 170 -74 277.5t-200 107.5q-130 0 -231 -116t-101 -269z" />
<glyph unicode=":" horiz-adv-x="413" d="M45 37q0 34 26.5 64t59.5 30q53 0 53 -65q0 -35 -24.5 -63t-57.5 -28q-27 0 -42 18t-15 44zM188 852q0 34 26.5 64t59.5 30q27 0 40.5 -18t13.5 -47q0 -35 -24.5 -62.5t-57.5 -27.5q-27 0 -42.5 17.5t-15.5 43.5z" />
<glyph unicode=";" horiz-adv-x="413" d="M-70 -250q80 38 133.5 99.5t63.5 134.5h-12q-28 0 -45 16.5t-17 44.5q0 33 23.5 59.5t58.5 26.5q31 0 48.5 -24t17.5 -62q0 -111 -72 -205.5t-182 -138.5zM188 852q0 34 26.5 64t59.5 30q27 0 40.5 -18t13.5 -47q0 -35 -24.5 -62.5t-57.5 -27.5q-27 0 -42.5 17.5 t-15.5 43.5z" />
<glyph unicode="&#x3c;" d="M94 647v58l799 327v-57l-471 -193l-250 -102v-8l250 -103l471 -192v-58z" />
<glyph unicode="=" d="M98 446v54h795v-54h-795zM98 852v53h795v-53h-795z" />
<glyph unicode="&#x3e;" d="M98 319v58l471 192l250 103v8l-250 102l-471 193v57l799 -327v-58z" />
<glyph unicode="?" horiz-adv-x="778" d="M201 37q0 34 26.5 64t59.5 30q53 0 53 -65q0 -35 -24.5 -63t-57.5 -28q-27 0 -42 18t-15 44zM225 1257q53 60 134.5 100t168.5 40q123 0 193 -69.5t70 -192.5q0 -69 -23.5 -132t-61.5 -113t-84 -98t-93 -96t-86 -97.5t-65.5 -112t-29.5 -130.5l-53 4q2 73 27.5 139.5 t64.5 117.5t85.5 99.5t92 94t83.5 92t61.5 103t23.5 116.5q0 104 -55.5 162.5t-153.5 58.5q-72 0 -141.5 -34.5t-120.5 -91.5z" />
<glyph unicode="@" horiz-adv-x="1581" d="M94 336q0 198 73 376.5t191.5 302t273 195.5t314.5 72q263 0 410 -160t147 -426q0 -135 -33 -248t-87 -185t-122 -112t-139 -40t-115 42.5t-57 112.5h-4q-60 -67 -116 -103t-121 -36q-90 0 -156 68.5t-66 193.5q0 114 51.5 222.5t142.5 178.5t196 70q96 0 155 -106h4 l25 90h49l-98 -434q-26 -110 2 -178t116 -68q58 0 114 36t101 100.5t73 165t28 218.5q0 251 -131 398t-373 147q-148 0 -291 -68.5t-253 -184t-178 -281t-68 -347.5q0 -270 146 -428t382 -158q171 0 303 78l25 -45q-149 -86 -332 -86q-258 0 -420 171t-162 456zM545 401 q0 -108 48 -164.5t120 -56.5q113 0 225 148l82 364q-63 115 -148 115q-92 0 -169 -64.5t-117.5 -157t-40.5 -184.5z" />
<glyph unicode="A" horiz-adv-x="983" d="M-94 0l749 1352h62l172 -1352h-62l-59 487h-526l-267 -487h-69zM270 541h492l-33 270q-7 62 -25.5 221t-27.5 250h-8q-37 -76 -76 -149.5t-95.5 -177.5t-78.5 -144z" />
<glyph unicode="B" horiz-adv-x="1159" d="M82 0l270 1352h320q186 0 287.5 -77.5t101.5 -213.5q0 -73 -29.5 -136t-76.5 -104t-99 -66.5t-102 -33.5v-8q110 -24 184 -97.5t74 -193.5q0 -209 -145 -315.5t-396 -106.5h-389zM152 53h282q516 0 516 363q0 122 -102 199t-279 77h-286zM291 745h241q226 0 346.5 86 t120.5 226q0 241 -360 241h-238z" />
<glyph unicode="C" horiz-adv-x="1097" d="M119 504q0 119 29 241.5t87.5 235.5t138 201t190 141t235.5 53q194 0 311 -188l-49 -33q-95 168 -266 168q-114 0 -214.5 -50.5t-172.5 -133.5t-124.5 -188.5t-78 -217t-25.5 -217.5q0 -105 23.5 -192t70 -154t123 -104t176.5 -37q94 0 172.5 33.5t159.5 101.5l37 -41 q-91 -74 -179 -111t-194 -37q-111 0 -198 40.5t-141.5 112.5t-82.5 167t-28 209z" />
<glyph unicode="D" horiz-adv-x="1171" d="M82 0l270 1352h213q272 0 412.5 -142t140.5 -383q0 -174 -46.5 -323t-135 -262t-227 -177.5t-312.5 -64.5h-315zM152 53h249q154 0 280 62.5t207 169t125 245t44 293.5q0 217 -126 346t-370 129h-160z" />
<glyph unicode="E" horiz-adv-x="991" d="M82 0l270 1352h701l-13 -54h-639l-110 -553h540l-12 -53h-536l-131 -639h659l-12 -53h-717z" />
<glyph unicode="F" horiz-adv-x="917" d="M82 0l270 1352h701l-13 -54h-639l-114 -577h540l-12 -53h-536l-136 -668h-61z" />
<glyph unicode="G" horiz-adv-x="1167" d="M119 504q0 121 28.5 243.5t87.5 235.5t140.5 200.5t196.5 140t247 52.5q194 0 311 -188l-49 -33q-95 168 -266 168q-118 0 -222.5 -50.5t-178.5 -133.5t-128 -188.5t-80 -217t-26 -217.5q0 -82 14 -153t46 -133t79 -106t117.5 -69.5t157.5 -25.5q176 0 295 110l90 455 h-324l13 53h385l-111 -536q-156 -136 -352 -136q-231 0 -351 144.5t-120 384.5z" />
<glyph unicode="H" horiz-adv-x="1224" d="M82 0l270 1352h62l-123 -607h729l123 607h61l-270 -1352h-62l140 692h-729l-140 -692h-61z" />
<glyph unicode="I" horiz-adv-x="446" d="M82 0l270 1352h62l-271 -1352h-61z" />
<glyph unicode="J" horiz-adv-x="876" d="M4 184l53 25q54 -180 246 -180q116 0 193 86.5t106 232.5l201 1004h61l-200 -1008q-31 -171 -126.5 -270t-238.5 -99q-223 0 -295 209z" />
<glyph unicode="K" horiz-adv-x="1069" d="M82 0l270 1352h62l-152 -758h4l811 758h78l-516 -492l311 -860h-65l-295 819l-344 -319l-103 -500h-61z" />
<glyph unicode="L" horiz-adv-x="884" d="M82 0l270 1352h62l-258 -1299h614l-12 -53h-676z" />
<glyph unicode="M" horiz-adv-x="1384" d="M82 0l270 1352h103l135 -815l53 -308h8l160 308l451 815h102l-270 -1352h-62l189 942q10 44 36.5 168.5t40.5 183.5h-8l-160 -290l-462 -848h-70l-147 848l-50 290h-8q-10 -55 -30.5 -176t-30.5 -176l-189 -942h-61z" />
<glyph unicode="N" horiz-adv-x="1228" d="M82 0l270 1352h70l377 -996l98 -270h8q39 249 66 385l176 881h61l-270 -1352h-66l-372 991l-103 283h-8q-22 -147 -70 -381l-176 -893h-61z" />
<glyph unicode="O" horiz-adv-x="1253" d="M127 537q0 110 26.5 225.5t80.5 225.5t128.5 196.5t178.5 139t221 52.5q144 0 243 -73t145 -197t46 -291q0 -110 -26.5 -225.5t-80.5 -225.5t-128.5 -197t-178.5 -139.5t-221 -52.5q-144 0 -243 73t-145 197.5t-46 291.5zM188 545q0 -116 22 -209t66.5 -162.5t117.5 -107 t171 -37.5q89 0 170 35.5t142 95.5t111 138t81.5 165.5t48.5 175t17 168.5q0 116 -22 209t-66.5 162.5t-117.5 107t-171 37.5q-89 0 -170 -35.5t-142 -95.5t-111 -138t-81.5 -165.5t-48.5 -175t-17 -168.5z" />
<glyph unicode="P" horiz-adv-x="1073" d="M82 0l270 1352h344q190 0 292 -76t102 -232q0 -217 -149.5 -329.5t-416.5 -112.5h-262l-119 -602h-61zM274 655h238q255 0 385.5 97.5t130.5 287.5q0 135 -91.5 196.5t-277.5 61.5h-258z" />
<glyph unicode="Q" horiz-adv-x="1253" d="M127 537q0 110 26.5 225.5t80.5 225.5t128.5 196.5t178.5 139t221 52.5q144 0 243 -73t145 -197t46 -291q0 -91 -19 -187.5t-55 -190.5t-91.5 -177.5t-124 -147t-157 -100.5t-186.5 -37q27 -111 118 -168t224 -57q45 0 94 12l9 -57q-56 -12 -107 -12q-150 0 -258.5 72 t-140.5 215q-185 21 -280 170.5t-95 386.5zM188 545q0 -116 22 -209t66.5 -162.5t117.5 -107t171 -37.5q89 0 170 35.5t142 95.5t111 138t81.5 165.5t48.5 175t17 168.5q0 116 -22 209t-66.5 162.5t-117.5 107t-171 37.5q-89 0 -170 -35.5t-142 -95.5t-111 -138 t-81.5 -165.5t-48.5 -175t-17 -168.5z" />
<glyph unicode="R" horiz-adv-x="1069" d="M82 0l270 1352h328q389 0 389 -291q0 -178 -123.5 -292t-320.5 -132l264 -637h-70l-260 635h-289l-127 -635h-61zM283 688h249q226 0 351 98t125 271q0 129 -89.5 185t-275.5 56h-242z" />
<glyph unicode="S" horiz-adv-x="999" d="M37 201l49 32q134 -204 385 -204q157 0 261 91.5t104 239.5q0 165 -177 267l-180 106q-213 127 -213 303q0 139 106.5 239.5t270.5 100.5q117 0 210.5 -50.5t150.5 -129.5l-46 -37q-128 164 -327 164q-132 0 -217.5 -86t-85.5 -193q0 -90 48.5 -150.5t131.5 -107.5 l176 -102q103 -60 158 -135.5t55 -179.5q0 -176 -123.5 -285t-310.5 -109q-284 0 -426 226z" />
<glyph unicode="T" horiz-adv-x="1007" d="M205 1294l12 58h905l-12 -58h-422l-258 -1294h-61l258 1294h-422z" />
<glyph unicode="U" horiz-adv-x="1216" d="M168 369q0 80 16 168l164 815h62l-160 -799q-21 -87 -21 -168q0 -171 83.5 -263.5t244.5 -92.5q143 0 253 111.5t157 346.5l172 865h61l-176 -881q-27 -134 -76 -232.5t-113 -154.5t-135 -82.5t-151 -26.5q-179 0 -280 103.5t-101 290.5z" />
<glyph unicode="V" horiz-adv-x="921" d="M172 1352h57l74 -820q33 -306 45 -454h8q163 324 234 454l430 820h61l-712 -1352h-70z" />
<glyph unicode="W" horiz-adv-x="1486" d="M221 1352h62v-820q-2 -73 -2 -220.5t-2 -221.5h8q115 241 205 442l385 820h69l29 -820q8 -146 16 -442h8q115 278 189 442l344 820h65l-581 -1352h-78l-33 967q0 55 -2 159t-2 160h-8q-18 -50 -40 -101t-53 -117.5t-46 -100.5l-451 -967h-78z" />
<glyph unicode="X" horiz-adv-x="913" d="M-74 0l533 705l-234 647h62l151 -430q9 -23 28.5 -80.5t33.5 -91.5h4q51 60 143 184l311 418h66l-500 -660l254 -692h-61l-160 446q-14 36 -74 205h-4q-33 -40 -164 -217l-323 -434h-66z" />
<glyph unicode="Y" horiz-adv-x="864" d="M176 1352h62l120 -441q78 -283 80 -290h6q34 48 100.5 145t100.5 145l309 441h66l-559 -793l-113 -559h-61l112 559z" />
<glyph unicode="Z" horiz-adv-x="1028" d="M4 0l8 37l983 1261h-684l13 54h757l-8 -37l-979 -1262h758l-12 -53h-836z" />
<glyph unicode="[" horiz-adv-x="536" d="M37 -311l352 1761h295l-4 -45h-254l-332 -1671h250l-12 -45h-295z" />
<glyph unicode="\" horiz-adv-x="716" d="M184 1454h49l304 -1782h-50z" />
<glyph unicode="]" horiz-adv-x="536" d="M-131 -311l8 45h250l340 1671h-254l8 45h299l-352 -1761h-299z" />
<glyph unicode="^" horiz-adv-x="937" d="M188 594l295 778h49l295 -778h-53l-164 434l-98 270h-4l-98 -270l-164 -434h-58z" />
<glyph unicode="_" horiz-adv-x="991" d="M-53 -229l12 57h938l-12 -57h-938z" />
<glyph unicode="`" horiz-adv-x="1032" d="M573 1442h70l123 -275h-49z" />
<glyph unicode="a" horiz-adv-x="1073" d="M94 328q0 137 45.5 264t119.5 216t171 142.5t197 53.5q169 0 258 -164h8l37 139h49l-197 -979h-49l25 160h-8q-178 -185 -369 -185q-132 0 -209.5 92t-77.5 261zM152 340q0 -153 61.5 -232t171.5 -79q193 0 389 221l107 512q-57 99 -120 143.5t-138 44.5q-120 0 -230 -89 t-175.5 -230.5t-65.5 -290.5z" />
<glyph unicode="b" horiz-adv-x="1069" d="M90 0l295 1479h57l-90 -443l-41 -200h4q207 168 373 168q132 0 209.5 -92t77.5 -261q0 -137 -45.5 -264t-119.5 -216t-171 -142.5t-197 -53.5q-169 0 -258 164h-8l-37 -139h-49zM188 217q57 -99 120 -143.5t138 -44.5q120 0 230 89t176 230.5t66 290.5q0 152 -62 231.5 t-172 79.5q-83 0 -187.5 -52.5t-197.5 -135.5z" />
<glyph unicode="c" horiz-adv-x="876" d="M90 360q0 140 45.5 262.5t119 204.5t167 129.5t188.5 47.5q79 0 136 -29.5t110 -89.5l-41 -41q-47 57 -93.5 81.5t-115.5 24.5q-85 0 -168.5 -47t-147.5 -124.5t-103.5 -185t-39.5 -220.5q0 -344 287 -344q128 0 266 106l33 -45q-152 -115 -303 -115q-158 0 -249 101 t-91 284z" />
<glyph unicode="d" horiz-adv-x="1077" d="M94 328q0 137 45.5 264t119.5 216t171 142.5t197 53.5q169 0 258 -164h8l41 196l90 443h57l-299 -1479h-49l25 160h-8q-178 -185 -369 -185q-132 0 -209.5 92t-77.5 261zM152 340q0 -153 61.5 -232t171.5 -79q193 0 389 221l107 512q-57 99 -120 143.5t-138 44.5 q-120 0 -230 -89t-175.5 -230.5t-65.5 -290.5z" />
<glyph unicode="e" horiz-adv-x="958" d="M90 377q0 135 43.5 254.5t114.5 199.5t161.5 126.5t184.5 46.5q150 0 220.5 -92.5t70.5 -252.5q0 -78 -25 -163h-700q-12 -73 -12 -135q0 -41 6 -77q14 -88 59 -144.5t108 -83.5t142 -27q117 0 254 98l28 -45q-146 -107 -286 -107q-172 0 -270.5 104.5t-98.5 297.5z M172 549h643q12 61 12 123q0 55 -12.5 102.5t-39.5 88t-74.5 64t-110.5 23.5q-139 0 -259 -114t-159 -287z" />
<glyph unicode="f" horiz-adv-x="503" d="M98 0l185 926h-127l8 45l131 8l49 246q30 140 97 209t157 69q76 0 143 -45l-28 -45q-61 37 -119 37q-72 0 -122.5 -64t-70.5 -161l-49 -246h221l-12 -53h-221l-184 -926h-58z" />
<glyph unicode="g" horiz-adv-x="1060" d="M12 -344l37 45q134 -127 295 -127q145 0 232.5 97t123.5 268l50 229h-9q-183 -176 -364 -176q-129 0 -206 91.5t-77 256.5q0 133 45 257t118 212.5t167 141.5t190 53q85 0 151 -44t107 -120h9l37 139h49l-217 -1077q-38 -179 -143 -280t-267 -101q-170 0 -328 135z M152 352q0 -151 60 -229t169 -78q86 0 188.5 56.5t192.5 152.5l106 508q-59 100 -121 144t-137 44q-85 0 -169.5 -53t-147.5 -136.5t-102 -192.5t-39 -216z" />
<glyph unicode="h" horiz-adv-x="1019" d="M90 0l295 1479h57l-114 -570l-25 -94h8q112 95 195 142t166 47q120 0 176.5 -63.5t56.5 -174.5q0 -55 -16 -131l-127 -635h-57l126 627q17 86 17 131q0 97 -43.5 144.5t-140.5 47.5q-146 0 -369 -217l-148 -733h-57z" />
<glyph unicode="i" horiz-adv-x="438" d="M90 0l197 979h57l-197 -979h-57zM311 1286q0 35 22.5 58.5t51.5 23.5q25 0 41 -17t16 -44q0 -33 -22 -55.5t-51 -22.5q-25 0 -41.5 16t-16.5 41z" />
<glyph unicode="j" horiz-adv-x="438" d="M-242 -446l25 49q16 -10 25.5 -15t28.5 -9.5t44 -4.5q115 0 164 213l242 1192h57l-238 -1180q-58 -278 -229 -278q-59 0 -119 33zM311 1286q0 35 22.5 58.5t51.5 23.5q25 0 41 -17t16 -44q0 -33 -22 -55.5t-51 -22.5q-25 0 -41.5 16t-16.5 41z" />
<glyph unicode="k" horiz-adv-x="892" d="M90 0l295 1479h57l-221 -1119h4l611 619h73l-381 -393l238 -586h-61l-222 545l-282 -287l-54 -258h-57z" />
<glyph unicode="l" horiz-adv-x="462" d="M102 49q0 8 9 53l274 1377h57l-274 -1381q-4 -20 -4 -41q0 -28 29 -28q12 0 32 8l8 -49q-33 -13 -57 -13q-32 0 -53 19.5t-21 54.5z" />
<glyph unicode="m" horiz-adv-x="1589" d="M90 0l197 979h49l-25 -160h8q88 84 174 134.5t154 50.5q115 0 168.5 -58t56.5 -151q215 209 361 209q118 0 173.5 -64t55.5 -174q0 -55 -16 -131l-127 -635h-57l127 627q16 81 16 131q0 97 -43 144.5t-137 47.5q-56 0 -150 -55.5t-194 -161.5l-148 -733h-57l127 627 q16 81 16 131q0 97 -43 144.5t-137 47.5q-56 0 -150 -55.5t-194 -161.5l-148 -733h-57z" />
<glyph unicode="n" horiz-adv-x="1032" d="M90 0l197 979h49l-25 -160h8q106 91 188.5 138t164.5 47q120 0 176.5 -63.5t56.5 -174.5q0 -55 -16 -131l-127 -635h-57l126 627q17 86 17 131q0 97 -43.5 144.5t-140.5 47.5q-146 0 -369 -217l-148 -733h-57z" />
<glyph unicode="o" horiz-adv-x="1024" d="M94 360q0 133 43 254t113.5 205.5t163.5 134.5t192 50q149 0 236.5 -102t87.5 -284q0 -177 -72.5 -326.5t-190 -233t-249.5 -83.5q-150 0 -237 101.5t-87 283.5zM152 373q0 -168 70 -256t200 -88q82 0 163.5 47t144.5 124.5t102.5 185t39.5 220.5q0 168 -70 256t-200 88 q-82 0 -163.5 -47t-144.5 -124.5t-102.5 -185t-39.5 -220.5z" />
<glyph unicode="p" horiz-adv-x="1064" d="M0 -455l287 1434h49l-25 -143h8q95 77 184.5 122.5t184.5 45.5q131 0 209 -93t78 -260q0 -137 -45.5 -264t-119.5 -216t-171 -142.5t-197 -53.5q-85 0 -153 44.5t-113 119.5h-4l-45 -225l-70 -369h-57zM188 209q57 -96 119.5 -138t138.5 -42q120 0 230 89t176 230.5 t66 290.5q0 152 -62 231.5t-172 79.5q-84 0 -188.5 -53t-196.5 -139z" />
<glyph unicode="q" horiz-adv-x="1073" d="M94 328q0 137 45.5 264t119.5 216t171 142.5t197 53.5q169 0 258 -164h8l37 139h49l-287 -1434h-57l74 369l49 250h-4q-182 -189 -373 -189q-132 0 -209.5 92t-77.5 261zM152 340q0 -153 61.5 -232t171.5 -79q87 0 192.5 59t196.5 162l107 512q-57 99 -120 143.5 t-138 44.5q-120 0 -230 -89t-175.5 -230.5t-65.5 -290.5z" />
<glyph unicode="r" horiz-adv-x="630" d="M90 0l197 979h49l-33 -184h8q149 209 307 209q40 0 87 -17l-25 -57q-32 16 -74 16q-81 0 -171 -77t-156 -210l-132 -659h-57z" />
<glyph unicode="s" horiz-adv-x="786" d="M0 156l45 32q43 -69 118.5 -114t168.5 -45q107 0 186.5 66t79.5 155q0 66 -37.5 113.5t-150.5 107.5q-138 74 -192 131.5t-54 130.5q0 120 87.5 195.5t211.5 75.5q154 0 262 -115l-41 -41q-95 102 -225 102q-98 0 -168 -60.5t-70 -144.5q0 -66 46.5 -110t138.5 -94 q81 -45 133 -83t76.5 -72.5t32 -61.5t7.5 -62q0 -130 -93.5 -208.5t-237.5 -78.5q-100 0 -190 55t-134 126z" />
<glyph unicode="t" horiz-adv-x="593" d="M143 926l9 45l159 8l66 283h49l-57 -283h270l-12 -53h-271l-139 -676q-8 -50 -8 -78q0 -74 31.5 -108.5t111.5 -34.5q47 0 123 37l21 -46q-83 -45 -148 -45q-103 0 -149.5 51.5t-46.5 133.5q0 28 8 94l139 672h-156z" />
<glyph unicode="u" horiz-adv-x="1052" d="M143 213q0 50 17 131l127 635h57l-127 -627q-16 -81 -16 -131q0 -97 43.5 -144.5t140.5 -47.5q146 0 369 217l147 733h57l-196 -979h-49l24 164h-8q-109 -94 -189.5 -141.5t-162.5 -47.5q-120 0 -177 64t-57 174z" />
<glyph unicode="v" horiz-adv-x="835" d="M119 979h57l103 -639q7 -44 22 -141.5t23 -145.5h8q84 160 155 287l349 639h61l-541 -979h-77z" />
<glyph unicode="w" horiz-adv-x="1380" d="M139 979h58l57 -664q4 -51 13 -140t12 -122h8q24 51 68.5 149.5t50.5 112.5l307 664h82l49 -664q2 -46 8 -133.5t8 -128.5h8q13 27 55 118.5t68 143.5l316 664h57l-467 -979h-86l-45 639q-4 47 -8 146.5t-8 144.5h-9q-11 -24 -58 -130t-73 -161l-295 -639h-86z" />
<glyph unicode="x" horiz-adv-x="778" d="M-98 0l463 516l-197 463h61l107 -258q10 -24 30.5 -78t34.5 -86h9q86 93 147 164l229 258h66l-418 -475l213 -504h-61l-111 279q-46 112 -82 188h-8q-40 -50 -164 -184l-250 -283h-69z" />
<glyph unicode="y" horiz-adv-x="835" d="M-172 -434l25 49q33 -16 69 -16q174 0 316 290l45 91l-164 999h57l103 -639q29 -168 45 -291h8q63 122 155 291l349 639h61l-614 -1114q-34 -66 -66.5 -115.5t-78 -100t-101.5 -77.5t-119 -27q-41 0 -90 21z" />
<glyph unicode="z" horiz-adv-x="790" d="M-49 0l4 37l762 889h-520l12 53h594l-4 -37l-762 -889h598l-12 -53h-672z" />
<glyph unicode="{" horiz-adv-x="532" d="M74 545l12 49q97 0 141.5 46.5t59.5 121.5q11 55 34 202.5t39 223.5q30 151 86 206.5t168 55.5h66l-8 -45h-66q-91 0 -134 -53.5t-66 -171.5q-13 -64 -33.5 -200t-32.5 -198q-20 -93 -53 -144t-94 -69v-8q69 -30 69 -110q0 -75 -57.5 -302.5t-57.5 -295.5q0 -61 29 -90 t103 -29h61l-12 -45h-62q-88 0 -128 34.5t-40 116.5q0 73 59.5 300t59.5 294q0 49 -30 80t-113 31z" />
<glyph unicode="|" horiz-adv-x="434" d="M205 -512v2048h53v-2048h-53z" />
<glyph unicode="}" horiz-adv-x="536" d="M-131 -311l8 45h66q91 0 134 52t66 169q13 64 33.5 199.5t32.5 197.5q20 95 53 147t94 70v9q-69 28 -69 110q0 72 57 298.5t57 295.5q0 64 -28.5 93.5t-102.5 29.5h-61l12 45h62q87 0 127.5 -36.5t40.5 -115.5q0 -72 -59.5 -301.5t-59.5 -296.5q0 -106 143 -106l-12 -49 q-97 0 -141.5 -46.5t-59.5 -121.5q-10 -55 -34 -204.5t-40 -225.5q-30 -149 -86.5 -203.5t-167.5 -54.5h-65z" />
<glyph unicode="~" d="M102 639q39 77 93.5 118.5t111.5 41.5q41 0 82.5 -19.5t75.5 -47.5t67 -55.5t67.5 -47t64.5 -19.5q91 0 159 131l45 -24q-39 -78 -93 -119t-111 -41q-41 0 -82.5 19.5t-75.5 47t-67 55t-67.5 47t-64.5 19.5q-92 0 -160 -131z" />
<glyph unicode="&#xa1;" horiz-adv-x="495" d="M49 -397l25 131l180 893h49l-172 -893l-25 -131h-57zM266 913q0 35 24.5 63t57.5 28q27 0 42.5 -18t15.5 -44q0 -34 -27 -64t-60 -30q-53 0 -53 65z" />
<glyph unicode="&#xa2;" d="M168 590q0 121 41.5 226t109 173.5t149.5 109t165 44.5l43 221h57l-45 -223q130 -15 225 -129l-41 -41q-46 56 -88.5 83t-105.5 33l-164 -825q127 5 272 107l29 -50q-44 -28 -64 -39t-63.5 -32t-88 -29.5t-95.5 -9.5l-45 -229h-58l48 233q-132 15 -206.5 113t-74.5 264z M229 602q0 -146 58.5 -234.5t171.5 -103.5l162 826q-68 -5 -137 -43t-126 -99.5t-93 -152.5t-36 -193z" />
<glyph unicode="&#xa3;" d="M16 0l9 33q151 80 227 216t76 300q0 37 -2 57h-195l12 45l181 8q-2 25 -7 78.5t-7.5 94t-2.5 73.5q0 200 100.5 315t268.5 115q90 0 154 -48t104 -120l-49 -32q-36 66 -91 106.5t-122 40.5q-135 0 -221 -102t-86 -262q0 -34 2.5 -75t7 -99t6.5 -85h336l-12 -53h-320v-45 q0 -161 -54.5 -282t-166.5 -218v-8h569l-8 -53h-709z" />
<glyph unicode="&#xa4;" d="M29 311l153 135q-26 70 -26 156q0 92 33.5 177t93.5 149l-99 133l41 33l97 -129q114 96 243 96q131 0 205 -96l152 133l32 -41l-157 -139q30 -64 30 -160q0 -178 -114 -312l114 -151l-41 -33l-110 146q-115 -109 -258 -109q-141 0 -209 100l-148 -129zM213 614 q0 -127 54 -194.5t155 -67.5q63 0 126 31t112 82.5t79.5 125.5t30.5 154q0 127 -54 195t-155 68q-63 0 -126 -31t-112 -83t-79.5 -126t-30.5 -154z" />
<glyph unicode="&#xa5;" d="M74 348l12 49h332l28 160h-331l12 49h307l-201 705h58l115 -418q35 -127 73 -287h8q158 239 193 287l270 418h62l-471 -705h307l-12 -49h-332l-29 -160h332l-12 -49h-332l-70 -348h-57l70 348h-332z" />
<glyph unicode="&#xa6;" horiz-adv-x="434" d="M205 451h53v-963h-53v963zM205 561v975h53v-975h-53z" />
<glyph unicode="&#xa7;" horiz-adv-x="929" d="M53 49l41 45q118 -131 266 -131q94 0 162 61t68 152q0 54 -25.5 97t-66.5 73t-90 57t-98.5 55t-90.5 60.5t-66.5 81t-25.5 109.5q0 110 62 186.5t169 118.5q-34 49 -34 116q0 120 76 191.5t190 71.5q146 0 278 -140l-45 -41q-105 127 -237 127q-81 0 -143 -54t-62 -142 q0 -49 25 -90t65 -71.5t88.5 -59t97.5 -59.5t89 -66.5t65 -86.5t25 -112q0 -115 -54 -179t-168 -110q33 -54 33 -121q0 -115 -84.5 -196.5t-206.5 -81.5q-164 0 -303 139zM184 721q0 -59 28.5 -105.5t76 -79t97.5 -59t106.5 -60.5t89.5 -69q103 38 149.5 89.5t46.5 148.5 q0 60 -27 108.5t-73.5 84t-94.5 64.5t-103.5 64t-88.5 68q-207 -80 -207 -254z" />
<glyph unicode="&#xa8;" horiz-adv-x="1032" d="M487 1286q0 33 20 55.5t46 22.5q53 0 53 -57q0 -30 -20 -52t-45 -22t-39.5 14t-14.5 39zM786 1286q0 33 20 55.5t46 22.5q53 0 53 -57q0 -30 -20 -52t-45 -22t-39.5 14t-14.5 39z" />
<glyph unicode="&#xa9;" horiz-adv-x="1351" d="M82 541q0 114 32.5 228.5t96 216t149.5 179.5t202 124t245 46q236 0 382 -156.5t146 -408.5q0 -114 -32.5 -228.5t-96 -216t-149.5 -180t-202 -124.5t-245 -46q-236 0 -382 157t-146 409zM135 549q0 -239 130.5 -381.5t348.5 -142.5q118 0 225 44t186 118t138 168.5 t89 199.5t30 207q0 239 -130.5 381.5t-348.5 142.5q-118 0 -225 -44t-186 -118t-138 -168.5t-89 -199.5t-30 -207zM377 557q0 109 37 203t96.5 154.5t130.5 95t141 34.5q69 0 112 -25.5t81 -76.5l-41 -37q-34 44 -69 65t-87 21q-59 0 -120 -32t-110.5 -86t-81.5 -134.5 t-32 -169.5q0 -129 61.5 -195.5t168.5 -66.5q44 0 91 17t73 32.5t77 49.5l29 -46q-52 -36 -83.5 -54.5t-83.5 -35t-108 -16.5q-128 0 -205 77t-77 226z" />
<glyph unicode="&#xaa;" horiz-adv-x="708" d="M127 754q0 181 109.5 311.5t250.5 130.5q113 0 164 -102h8l25 86h41l-127 -648h-45l20 107h-8q-116 -123 -246 -123q-88 0 -140 61.5t-52 176.5zM180 762q0 -97 39.5 -147t104.5 -50q59 0 127.5 42t130.5 110l61 311q-65 119 -160 119q-74 0 -145 -55.5t-114.5 -145.5 t-43.5 -184z" />
<glyph unicode="&#xab;" horiz-adv-x="761" d="M82 492l12 65l324 320l33 -33l-304 -328l185 -340l-41 -24zM360 492l13 65l323 320l33 -33l-303 -328l184 -340l-41 -24z" />
<glyph unicode="&#xac;" d="M98 651v54h795v-480h-57v426h-738z" />
<glyph unicode="&#xad;" horiz-adv-x="577" d="M74 483l12 58h422l-12 -58h-422z" />
<glyph unicode="&#xae;" horiz-adv-x="770" d="M135 1012q0 111 51.5 210.5t143 161.5t198.5 62q132 0 224 -93.5t92 -238.5q0 -112 -52.5 -212t-143.5 -161t-197 -61q-132 0 -224 92.5t-92 239.5zM188 1020q0 -129 71.5 -210t195.5 -81q135 0 235.5 112t100.5 265q0 128 -73 209.5t-194 81.5q-137 0 -236.5 -112.5 t-99.5 -264.5zM332 856l86 422h110q59 0 91 -30.5t32 -88.5q0 -48 -28.5 -83.5t-73.5 -51.5l61 -168h-57l-53 156h-82l-33 -156h-53zM430 1061h53q53 0 84 24.5t31 69.5q0 35 -19.5 54.5t-58.5 19.5h-61z" />
<glyph unicode="&#xaf;" horiz-adv-x="1032" d="M467 1245l8 53h434l-8 -53h-434z" />
<glyph unicode="&#xb0;" horiz-adv-x="581" d="M217 1135q0 108 68.5 187t165.5 79q80 0 134 -56.5t54 -144.5q0 -108 -68 -187t-165 -79q-81 0 -135 56.5t-54 144.5zM270 1143q0 -69 38.5 -114.5t101.5 -45.5q76 0 126 64t50 145q0 69 -38.5 114.5t-101.5 45.5q-76 0 -126 -64t-50 -145z" />
<glyph unicode="&#xb1;" d="M98 0v53h795v-53h-795zM98 651v54h369v413h57v-413h369v-54h-369v-426h-57v426h-369z" />
<glyph unicode="&#xb2;" horiz-adv-x="704" d="M197 901l8 49q122 89 198.5 149t142.5 119.5t100 106.5t52.5 95t18.5 100q0 155 -160 155q-99 0 -197 -114l-36 36q117 127 237 127q98 0 155.5 -54t57.5 -146q0 -70 -27.5 -134t-91.5 -134t-147 -139.5t-217 -166.5h409l-8 -49h-495z" />
<glyph unicode="&#xb3;" horiz-adv-x="704" d="M188 1040l45 29q75 -143 213 -143q88 0 148.5 49t60.5 135q0 75 -67 127.5t-187 52.5l13 49q145 0 218 58t73 135q0 65 -41.5 104t-114.5 39q-101 0 -197 -80l-28 43q106 86 229 86q94 0 151.5 -51t57.5 -141q0 -74 -57 -137t-148 -88q75 -20 115.5 -73.5t40.5 -111.5 q0 -112 -79 -178.5t-192 -66.5q-86 0 -153 47.5t-101 115.5z" />
<glyph unicode="&#xb4;" horiz-adv-x="1032" d="M561 1167l238 275h78l-259 -275h-57z" />
<glyph unicode="&#xb5;" horiz-adv-x="1044" d="M0 -410l279 1389h57l-127 -627q-16 -81 -16 -131q0 -97 43.5 -144.5t140.5 -47.5q145 0 368 217l148 733h57l-196 -979h-49l24 164h-8q-109 -94 -189.5 -141.5t-162.5 -47.5q-167 0 -213 144l-37 -205l-62 -324h-57z" />
<glyph unicode="&#xb6;" horiz-adv-x="974" d="M156 856q0 119 45 215.5t120 156.5t168 92t195 32h107l-173 -844h-4q-128 0 -230 38.5t-165 118.5t-63 191zM590 -164l303 1516h57l-303 -1516h-57z" />
<glyph unicode="&#xb7;" horiz-adv-x="413" d="M168 659q0 35 26.5 65t59.5 30q26 0 39.5 -18.5t13.5 -47.5q0 -35 -24.5 -62.5t-57.5 -27.5q-27 0 -42 17.5t-15 43.5z" />
<glyph unicode="&#xb8;" horiz-adv-x="1032" d="M221 -385q201 44 201 139q0 38 -27 58t-92 36l111 156h57l-90 -127q94 -31 94 -110q0 -80 -70 -128t-176 -65z" />
<glyph unicode="&#xb9;" horiz-adv-x="696" d="M381 1585l8 41q78 12 124.5 28t88.5 46h45l-160 -799h-53l135 684h-188z" />
<glyph unicode="&#xba;" horiz-adv-x="696" d="M127 770q0 185 108 305.5t244 120.5q104 0 162.5 -67t58.5 -187q0 -185 -108 -305.5t-244 -120.5q-104 0 -162.5 67t-58.5 187zM180 778q0 -102 44.5 -157.5t127.5 -55.5q115 0 205 111t90 258q0 102 -44.5 157.5t-127.5 55.5q-115 0 -205 -111t-90 -258z" />
<glyph unicode="&#xbb;" horiz-adv-x="761" d="M41 184l303 328l-184 340l41 25l209 -340l-13 -66l-323 -319zM319 184l304 328l-185 340l41 25l209 -340l-12 -66l-324 -319z" />
<glyph unicode="&#xbc;" horiz-adv-x="1482" d="M246 -25l1007 1401h62l-1008 -1401h-61zM266 1237l8 41q78 12 124.5 28t88.5 46h45l-159 -799h-54l136 684h-189zM815 246l8 37l467 516h37l-100 -504h116l-12 -49h-114l-50 -246h-53l49 246h-348zM897 295h277l38 201l50 200h-9l-147 -168z" />
<glyph unicode="&#xbd;" horiz-adv-x="1515" d="M184 -25l1008 1401h61l-1007 -1401h-62zM258 1237l8 41q78 12 124.5 28t88.5 46h45l-159 -799h-54l135 684h-188zM823 0l8 49q122 89 198.5 149t142.5 119.5t100 106t52.5 94.5t18.5 100q0 156 -159 156q-98 0 -197 -115l-37 37q117 127 238 127q98 0 155.5 -54 t57.5 -146q0 -70 -27.5 -134t-91.5 -134t-147 -139.5t-217 -166.5h409l-8 -49h-496z" />
<glyph unicode="&#xbe;" horiz-adv-x="1523" d="M106 692l46 29q75 -143 213 -143q88 0 148 49t60 135q0 75 -67 127.5t-187 52.5l13 49q145 0 218 58t73 135q0 65 -41.5 104t-114.5 39q-101 0 -197 -80l-28 43q106 86 229 86q94 0 151.5 -51t57.5 -141q0 -74 -57 -138t-148 -88q75 -20 115.5 -73.5t40.5 -110.5 q0 -113 -79 -179.5t-192 -66.5q-86 0 -153 48t-101 116zM332 -25l1007 1401h62l-1008 -1401h-61zM860 246l8 37l467 516h37l-100 -504h117l-13 -49h-114l-50 -246h-53l49 246h-348zM942 295h277l38 201l50 200h-9l-147 -168z" />
<glyph unicode="&#xbf;" horiz-adv-x="778" d="M-12 -152q0 69 23.5 132t61.5 113t84 98t92.5 96t85.5 97.5t65.5 112t29.5 130.5l53 -4q-2 -73 -27.5 -139.5t-64.5 -117.5t-85.5 -99.5t-92 -94t-83.5 -92t-61.5 -103t-23.5 -116.5q0 -104 55.5 -162.5t153.5 -58.5q72 0 141.5 35t120.5 92l37 -41q-53 -60 -134.5 -100 t-168.5 -40q-123 0 -192.5 69.5t-69.5 192.5zM438 918q0 35 24.5 62.5t57.5 27.5q27 0 42.5 -18t15.5 -44q0 -34 -26.5 -64t-59.5 -30q-27 0 -40.5 18.5t-13.5 47.5z" />
<glyph unicode="&#xc0;" horiz-adv-x="983" d="M-94 0l749 1352h62l172 -1352h-62l-59 487h-526l-267 -487h-69zM270 541h492l-33 270q-7 62 -25.5 221t-27.5 250h-8q-37 -76 -76 -149.5t-95.5 -177.5t-78.5 -144zM516 1663h70l159 -209h-53z" />
<glyph unicode="&#xc1;" horiz-adv-x="983" d="M-94 0l749 1352h62l172 -1352h-62l-59 487h-526l-267 -487h-69zM270 541h492l-33 270q-7 62 -25.5 221t-27.5 250h-8q-37 -76 -76 -149.5t-95.5 -177.5t-78.5 -144zM618 1454l226 209h78l-246 -209h-58z" />
<glyph unicode="&#xc2;" horiz-adv-x="983" d="M-94 0l749 1352h62l172 -1352h-62l-59 487h-526l-267 -487h-69zM270 541h492l-33 270q-7 62 -25.5 221t-27.5 250h-8q-37 -76 -76 -149.5t-95.5 -177.5t-78.5 -144zM467 1452l229 209h49l148 -209h-53l-119 156h-8l-185 -156h-61z" />
<glyph unicode="&#xc3;" horiz-adv-x="983" d="M-94 0l749 1352h62l172 -1352h-62l-59 487h-526l-267 -487h-69zM270 541h492l-33 270q-7 62 -25.5 221t-27.5 250h-8q-37 -76 -76 -149.5t-95.5 -177.5t-78.5 -144zM436 1470q12 64 58.5 118t107.5 54q25 0 47 -13t39 -31.5t33.5 -37t37 -31.5t42.5 -13q70 0 110 122h45 q-12 -64 -58.5 -118t-106.5 -54q-30 0 -57.5 20t-45.5 43.5t-43.5 43.5t-52.5 20q-71 0 -111 -123h-45z" />
<glyph unicode="&#xc4;" horiz-adv-x="983" d="M-94 0l749 1352h62l172 -1352h-62l-59 487h-526l-267 -487h-69zM270 541h492l-33 270q-7 62 -25.5 221t-27.5 250h-8q-37 -76 -76 -149.5t-95.5 -177.5t-78.5 -144zM492 1540q0 33 19.5 55.5t45.5 22.5q53 0 53 -57q0 -30 -20 -52t-45 -22t-39 14t-14 39zM791 1540 q0 33 19.5 55.5t45.5 22.5q53 0 53 -57q0 -30 -20 -52t-45 -22t-39 14t-14 39z" />
<glyph unicode="&#xc5;" horiz-adv-x="983" d="M-94 0l749 1352h62l172 -1352h-62l-59 487h-526l-267 -487h-69zM270 541h492l-33 270q-7 62 -25.5 221t-27.5 250h-8q-37 -76 -76 -149.5t-95.5 -177.5t-78.5 -144zM545 1581q0 76 52.5 130t123.5 54q64 0 103.5 -38.5t39.5 -112.5q0 -76 -52.5 -130t-123.5 -54 q-64 0 -103.5 38.5t-39.5 112.5zM594 1585q0 -52 26 -81t72 -29q50 0 86.5 38.5t36.5 96.5q0 52 -26 81t-72 29q-50 0 -86.5 -38.5t-36.5 -96.5z" />
<glyph unicode="&#xc6;" horiz-adv-x="1585" d="M-66 0l1004 1352h709l-13 -54h-610l-111 -553h512l-12 -53h-508l-131 -639h631l-12 -53h-688l92 463h-449l-340 -463h-74zM387 516h420l156 778h-9q-59 -82 -177.5 -245.5t-178.5 -245.5z" />
<glyph unicode="&#xc7;" horiz-adv-x="1097" d="M119 504q0 119 29 241.5t87.5 235.5t138 201t190 141t235.5 53q194 0 311 -188l-49 -33q-95 168 -266 168q-114 0 -214.5 -50.5t-172.5 -133.5t-124.5 -188.5t-78 -217t-25.5 -217.5q0 -105 23.5 -192t70 -154t123 -104t176.5 -37q94 0 172.5 33.5t159.5 101.5l37 -41 q-88 -73 -176 -110t-193 -38l-69 -98q94 -31 94 -110q0 -80 -70 -128t-176 -65l-8 41q201 44 201 139q0 38 -27 58t-92 36l92 129q-130 12 -221.5 85t-134.5 186t-43 256z" />
<glyph unicode="&#xc8;" horiz-adv-x="991" d="M82 0l270 1352h701l-13 -54h-639l-110 -553h540l-12 -53h-536l-131 -639h659l-12 -53h-717zM553 1663h70l159 -209h-53z" />
<glyph unicode="&#xc9;" horiz-adv-x="991" d="M82 0l270 1352h701l-13 -54h-639l-110 -553h540l-12 -53h-536l-131 -639h659l-12 -53h-717zM655 1454l226 209h77l-245 -209h-58z" />
<glyph unicode="&#xca;" horiz-adv-x="991" d="M82 0l270 1352h701l-13 -54h-639l-110 -553h540l-12 -53h-536l-131 -639h659l-12 -53h-717zM504 1452l229 209h49l148 -209h-53l-119 156h-8l-185 -156h-61z" />
<glyph unicode="&#xcb;" horiz-adv-x="991" d="M82 0l270 1352h701l-13 -54h-639l-110 -553h540l-12 -53h-536l-131 -639h659l-12 -53h-717zM528 1540q0 33 20 55.5t46 22.5q53 0 53 -57q0 -30 -20 -52t-45 -22t-39.5 14t-14.5 39zM827 1540q0 33 20 55.5t46 22.5q53 0 53 -57q0 -30 -20 -52t-45 -22t-39.5 14t-14.5 39 z" />
<glyph unicode="&#xcc;" horiz-adv-x="446" d="M82 0l270 1352h62l-271 -1352h-61zM225 1663h70l160 -209h-54z" />
<glyph unicode="&#xcd;" horiz-adv-x="446" d="M82 0l270 1352h62l-271 -1352h-61zM328 1454l225 209h78l-246 -209h-57z" />
<glyph unicode="&#xce;" horiz-adv-x="446" d="M82 0l270 1352h62l-271 -1352h-61zM176 1452l230 209h49l147 -209h-53l-119 156h-8l-184 -156h-62z" />
<glyph unicode="&#xcf;" horiz-adv-x="446" d="M82 0l270 1352h62l-271 -1352h-61zM201 1540q0 33 19.5 55.5t45.5 22.5q53 0 53 -57q0 -30 -20 -52t-45 -22t-39 14t-14 39zM500 1540q0 33 19.5 55.5t45.5 22.5q53 0 53 -57q0 -30 -20 -52t-45 -22t-39 14t-14 39z" />
<glyph unicode="&#xd0;" horiz-adv-x="1208" d="M111 692l12 49l145 4l121 607h213q272 0 412.5 -142t140.5 -383q0 -174 -46.5 -323t-135 -262t-227 -177.5t-312.5 -64.5h-315l139 692h-147zM188 53h250q154 0 280 62.5t207 169t125 245t44 293.5q0 217 -126 346t-370 129h-160l-110 -553h348l-12 -53h-347z" />
<glyph unicode="&#xd1;" horiz-adv-x="1228" d="M82 0l270 1352h70l377 -996l98 -270h8q39 249 66 385l176 881h61l-270 -1352h-66l-372 991l-103 283h-8q-22 -147 -70 -381l-176 -893h-61zM543 1470q12 64 58.5 118t107.5 54q25 0 47 -13t39 -31.5t33.5 -37t36.5 -31.5t42 -13q71 0 111 122h45q-12 -64 -58.5 -118 t-107.5 -54q-30 0 -57.5 20t-45.5 43.5t-43.5 43.5t-52.5 20q-70 0 -110 -123h-45z" />
<glyph unicode="&#xd2;" horiz-adv-x="1253" d="M127 537q0 110 26.5 225.5t80.5 225.5t128.5 196.5t178.5 139t221 52.5q144 0 243 -73t145 -197t46 -291q0 -110 -26.5 -225.5t-80.5 -225.5t-128.5 -197t-178.5 -139.5t-221 -52.5q-144 0 -243 73t-145 197.5t-46 291.5zM188 545q0 -116 22 -209t66.5 -162.5t117.5 -107 t171 -37.5q89 0 170 35.5t142 95.5t111 138t81.5 165.5t48.5 175t17 168.5q0 116 -22 209t-66.5 162.5t-117.5 107t-171 37.5q-89 0 -170 -35.5t-142 -95.5t-111 -138t-81.5 -165.5t-48.5 -175t-17 -168.5zM643 1663h70l159 -209h-53z" />
<glyph unicode="&#xd3;" horiz-adv-x="1253" d="M127 537q0 110 26.5 225.5t80.5 225.5t128.5 196.5t178.5 139t221 52.5q144 0 243 -73t145 -197t46 -291q0 -110 -26.5 -225.5t-80.5 -225.5t-128.5 -197t-178.5 -139.5t-221 -52.5q-144 0 -243 73t-145 197.5t-46 291.5zM188 545q0 -116 22 -209t66.5 -162.5t117.5 -107 t171 -37.5q89 0 170 35.5t142 95.5t111 138t81.5 165.5t48.5 175t17 168.5q0 116 -22 209t-66.5 162.5t-117.5 107t-171 37.5q-89 0 -170 -35.5t-142 -95.5t-111 -138t-81.5 -165.5t-48.5 -175t-17 -168.5zM745 1454l226 209h78l-246 -209h-58z" />
<glyph unicode="&#xd4;" horiz-adv-x="1253" d="M127 537q0 110 26.5 225.5t80.5 225.5t128.5 196.5t178.5 139t221 52.5q144 0 243 -73t145 -197t46 -291q0 -110 -26.5 -225.5t-80.5 -225.5t-128.5 -197t-178.5 -139.5t-221 -52.5q-144 0 -243 73t-145 197.5t-46 291.5zM188 545q0 -116 22 -209t66.5 -162.5t117.5 -107 t171 -37.5q89 0 170 35.5t142 95.5t111 138t81.5 165.5t48.5 175t17 168.5q0 116 -22 209t-66.5 162.5t-117.5 107t-171 37.5q-89 0 -170 -35.5t-142 -95.5t-111 -138t-81.5 -165.5t-48.5 -175t-17 -168.5zM594 1452l229 209h49l148 -209h-53l-119 156h-8l-185 -156h-61z " />
<glyph unicode="&#xd5;" horiz-adv-x="1253" d="M127 537q0 110 26.5 225.5t80.5 225.5t128.5 196.5t178.5 139t221 52.5q144 0 243 -73t145 -197t46 -291q0 -110 -26.5 -225.5t-80.5 -225.5t-128.5 -197t-178.5 -139.5t-221 -52.5q-144 0 -243 73t-145 197.5t-46 291.5zM188 545q0 -116 22 -209t66.5 -162.5t117.5 -107 t171 -37.5q89 0 170 35.5t142 95.5t111 138t81.5 165.5t48.5 175t17 168.5q0 116 -22 209t-66.5 162.5t-117.5 107t-171 37.5q-89 0 -170 -35.5t-142 -95.5t-111 -138t-81.5 -165.5t-48.5 -175t-17 -168.5zM563 1470q12 64 58.5 118t107.5 54q25 0 47 -13t39 -31.5t33.5 -37 t37 -31.5t42.5 -13q70 0 110 122h45q-12 -64 -58.5 -118t-106.5 -54q-30 0 -57.5 20t-45.5 43.5t-43.5 43.5t-52.5 20q-71 0 -111 -123h-45z" />
<glyph unicode="&#xd6;" horiz-adv-x="1253" d="M127 537q0 110 26.5 225.5t80.5 225.5t128.5 196.5t178.5 139t221 52.5q144 0 243 -73t145 -197t46 -291q0 -110 -26.5 -225.5t-80.5 -225.5t-128.5 -197t-178.5 -139.5t-221 -52.5q-144 0 -243 73t-145 197.5t-46 291.5zM188 545q0 -116 22 -209t66.5 -162.5t117.5 -107 t171 -37.5q89 0 170 35.5t142 95.5t111 138t81.5 165.5t48.5 175t17 168.5q0 116 -22 209t-66.5 162.5t-117.5 107t-171 37.5q-89 0 -170 -35.5t-142 -95.5t-111 -138t-81.5 -165.5t-48.5 -175t-17 -168.5zM618 1540q0 33 20 55.5t46 22.5q53 0 53 -57q0 -30 -20 -52 t-45 -22t-39.5 14t-14.5 39zM918 1540q0 33 19.5 55.5t45.5 22.5q53 0 53 -57q0 -30 -20 -52t-45 -22t-39 14t-14 39z" />
<glyph unicode="&#xd7;" d="M135 340l324 340l-324 336l37 37l324 -336l323 336l37 -37l-324 -336l324 -340l-37 -37l-323 340l-324 -340z" />
<glyph unicode="&#xd8;" horiz-adv-x="1253" d="M4 -8l191 207q-68 139 -68 338q0 110 26.5 225.5t80.5 225.5t128.5 196.5t178.5 139t221 52.5q229 0 344 -180l176 193l33 -37l-185 -203q66 -135 66 -334q0 -110 -26.5 -225.5t-80.5 -225.5t-128.5 -197t-178.5 -139.5t-221 -52.5q-224 0 -338 172l-174 -192zM188 545 q0 -173 50 -297l825 901q-94 174 -305 174q-89 0 -170 -35.5t-142 -95.5t-111 -138t-81.5 -165.5t-48.5 -175t-17 -168.5zM264 193q98 -164 301 -164q89 0 170 35.5t142 95.5t111 138t81.5 165.5t48.5 175t17 168.5q0 177 -48 293z" />
<glyph unicode="&#xd9;" horiz-adv-x="1216" d="M168 369q0 80 16 168l164 815h62l-160 -799q-21 -87 -21 -168q0 -171 83.5 -263.5t244.5 -92.5q143 0 253 111.5t157 346.5l172 865h61l-176 -881q-27 -134 -76 -232.5t-113 -154.5t-135 -82.5t-151 -26.5q-179 0 -280 103.5t-101 290.5zM618 1663h70l160 -209h-53z" />
<glyph unicode="&#xda;" horiz-adv-x="1216" d="M168 369q0 80 16 168l164 815h62l-160 -799q-21 -87 -21 -168q0 -171 83.5 -263.5t244.5 -92.5q143 0 253 111.5t157 346.5l172 865h61l-176 -881q-27 -134 -76 -232.5t-113 -154.5t-135 -82.5t-151 -26.5q-179 0 -280 103.5t-101 290.5zM721 1454l225 209h78l-246 -209 h-57z" />
<glyph unicode="&#xdb;" horiz-adv-x="1216" d="M168 369q0 80 16 168l164 815h62l-160 -799q-21 -87 -21 -168q0 -171 83.5 -263.5t244.5 -92.5q143 0 253 111.5t157 346.5l172 865h61l-176 -881q-27 -134 -76 -232.5t-113 -154.5t-135 -82.5t-151 -26.5q-179 0 -280 103.5t-101 290.5zM569 1452l230 209h49l147 -209 h-53l-119 156h-8l-184 -156h-62z" />
<glyph unicode="&#xdc;" horiz-adv-x="1216" d="M168 369q0 80 16 168l164 815h62l-160 -799q-21 -87 -21 -168q0 -171 83.5 -263.5t244.5 -92.5q143 0 253 111.5t157 346.5l172 865h61l-176 -881q-27 -134 -76 -232.5t-113 -154.5t-135 -82.5t-151 -26.5q-179 0 -280 103.5t-101 290.5zM594 1540q0 33 19.5 55.5 t45.5 22.5q25 0 39.5 -15t14.5 -42q0 -30 -20.5 -52t-45.5 -22t-39 14t-14 39zM893 1540q0 33 19.5 55.5t45.5 22.5q25 0 39.5 -15t14.5 -42q0 -30 -20.5 -52t-45.5 -22t-39 14t-14 39z" />
<glyph unicode="&#xdd;" horiz-adv-x="864" d="M176 1352h62l120 -441q78 -283 80 -290h6q34 48 100.5 145t100.5 145l309 441h66l-559 -793l-113 -559h-61l112 559zM528 1454l226 209h77l-245 -209h-58z" />
<glyph unicode="&#xde;" horiz-adv-x="1097" d="M82 0l270 1352h62l-49 -254h278q190 0 291.5 -75.5t101.5 -231.5q0 -217 -149.5 -330t-415.5 -113h-258l-70 -348h-61zM225 401h234q255 0 385.5 97.5t130.5 287.5q0 135 -91.5 196.5t-277.5 61.5h-254z" />
<glyph unicode="&#xdf;" horiz-adv-x="1048" d="M90 0l221 1106q36 170 136 283.5t241 113.5q105 0 165 -62.5t60 -178.5q0 -64 -22.5 -120t-56 -94t-73 -77t-73 -70t-56 -73t-22.5 -87q0 -40 18.5 -74.5t47.5 -60.5t64.5 -51.5t71 -54t64.5 -60t47.5 -76.5t18.5 -98q0 -122 -87 -206.5t-220 -84.5q-71 0 -144 29.5 t-131 81.5l37 41q119 -98 242 -98q100 0 173 64.5t73 160.5q0 49 -18.5 91t-47.5 72.5t-64.5 58.5t-71 55t-64.5 54.5t-47.5 64.5t-18.5 79q0 56 22.5 105.5t56 84t73 74t73 75t56 86.5t22.5 108q0 85 -42 136.5t-130 51.5q-116 0 -201.5 -103.5t-117.5 -261.5l-218 -1085 h-57z" />
<glyph unicode="&#xe0;" horiz-adv-x="1073" d="M94 328q0 137 45.5 264t119.5 216t171 142.5t197 53.5q169 0 258 -164h8l37 139h49l-197 -979h-49l25 160h-8q-178 -185 -369 -185q-132 0 -209.5 92t-77.5 261zM152 340q0 -153 61.5 -232t171.5 -79q193 0 389 221l107 512q-57 99 -120 143.5t-138 44.5q-120 0 -230 -89 t-175.5 -230.5t-65.5 -290.5zM565 1442h70l123 -275h-49z" />
<glyph unicode="&#xe1;" horiz-adv-x="1073" d="M94 328q0 137 45.5 264t119.5 216t171 142.5t197 53.5q169 0 258 -164h8l37 139h49l-197 -979h-49l25 160h-8q-178 -185 -369 -185q-132 0 -209.5 92t-77.5 261zM152 340q0 -153 61.5 -232t171.5 -79q193 0 389 221l107 512q-57 99 -120 143.5t-138 44.5q-120 0 -230 -89 t-175.5 -230.5t-65.5 -290.5zM553 1167l238 275h77l-258 -275h-57z" />
<glyph unicode="&#xe2;" horiz-adv-x="1073" d="M94 328q0 137 45.5 264t119.5 216t171 142.5t197 53.5q169 0 258 -164h8l37 139h49l-197 -979h-49l25 160h-8q-178 -185 -369 -185q-132 0 -209.5 92t-77.5 261zM152 340q0 -153 61.5 -232t171.5 -79q193 0 389 221l107 512q-57 99 -120 143.5t-138 44.5q-120 0 -230 -89 t-175.5 -230.5t-65.5 -290.5zM446 1167l250 275h37l139 -275h-49l-114 205h-9l-196 -205h-58z" />
<glyph unicode="&#xe3;" horiz-adv-x="1073" d="M94 328q0 137 45.5 264t119.5 216t171 142.5t197 53.5q169 0 258 -164h8l37 139h49l-197 -979h-49l25 160h-8q-178 -185 -369 -185q-132 0 -209.5 92t-77.5 261zM152 340q0 -153 61.5 -232t171.5 -79q193 0 389 221l107 512q-57 99 -120 143.5t-138 44.5q-120 0 -230 -89 t-175.5 -230.5t-65.5 -290.5zM426 1192q22 71 60 119.5t92 48.5q32 0 57.5 -12.5t42 -31t32 -36.5t36 -30.5t45.5 -12.5q26 0 52 33t46 86h45q-22 -71 -60 -119.5t-92 -48.5q-32 0 -57.5 12.5t-42 31t-32 36.5t-36 30.5t-45.5 12.5q-26 0 -52 -33t-46 -86h-45z" />
<glyph unicode="&#xe4;" horiz-adv-x="1073" d="M94 328q0 137 45.5 264t119.5 216t171 142.5t197 53.5q169 0 258 -164h8l37 139h49l-197 -979h-49l25 160h-8q-178 -185 -369 -185q-132 0 -209.5 92t-77.5 261zM152 340q0 -153 61.5 -232t171.5 -79q193 0 389 221l107 512q-57 99 -120 143.5t-138 44.5q-120 0 -230 -89 t-175.5 -230.5t-65.5 -290.5zM479 1286q0 33 20 55.5t46 22.5q53 0 53 -57q0 -30 -20.5 -52t-45.5 -22t-39 14t-14 39zM778 1286q0 33 20 55.5t46 22.5q53 0 53 -57q0 -30 -20.5 -52t-45.5 -22t-39 14t-14 39z" />
<glyph unicode="&#xe5;" horiz-adv-x="1073" d="M94 328q0 137 45.5 264t119.5 216t171 142.5t197 53.5q169 0 258 -164h8l37 139h49l-197 -979h-49l25 160h-8q-178 -185 -369 -185q-132 0 -209.5 92t-77.5 261zM152 340q0 -153 61.5 -232t171.5 -79q193 0 389 221l107 512q-57 99 -120 143.5t-138 44.5q-120 0 -230 -89 t-175.5 -230.5t-65.5 -290.5zM520 1249q0 77 53 135t123 58q64 0 104 -41t40 -115q0 -77 -53 -134.5t-123 -57.5q-64 0 -104 40.5t-40 114.5zM569 1253q0 -53 26.5 -83.5t72.5 -30.5q50 0 86.5 42.5t36.5 100.5q0 53 -26.5 84t-72.5 31q-50 0 -86.5 -43t-36.5 -101z" />
<glyph unicode="&#xe6;" horiz-adv-x="1568" d="M82 209q0 99 47 172.5t138 119.5t212 70.5t279 30.5q16 71 16 127q0 109 -47.5 165t-153.5 56q-132 0 -294 -98l-25 49q175 103 324 103q113 0 180 -61t73 -181q71 112 170.5 177t202.5 65q150 0 220.5 -92.5t70.5 -252.5q0 -78 -25 -163h-671q-40 -202 38 -334.5 t232 -132.5q121 0 258 98l29 -45q-146 -107 -291 -107q-106 0 -191 62.5t-116 159.5q-222 -222 -434 -222q-102 0 -172 61.5t-70 172.5zM139 221q0 -92 55 -142t142 -50q84 0 192 56t213 165q-20 141 9 299q-186 -4 -321 -40t-212.5 -109t-77.5 -179zM811 549h614 q13 67 13 123q0 117 -58 197.5t-180 80.5t-236 -114.5t-153 -286.5z" />
<glyph unicode="&#xe7;" horiz-adv-x="876" d="M90 360q0 140 45.5 262.5t119 204.5t167 129.5t188.5 47.5q79 0 136 -29.5t110 -89.5l-41 -41q-47 57 -93.5 81.5t-115.5 24.5q-85 0 -168.5 -47t-147.5 -124.5t-103.5 -185t-39.5 -220.5q0 -344 287 -344q128 0 266 106l33 -45q-152 -115 -303 -115l-70 -98 q95 -31 95 -110q0 -80 -70 -128t-176 -65l-8 41q200 43 200 139q0 38 -27 58t-91 36l92 132q-134 17 -209.5 116t-75.5 264z" />
<glyph unicode="&#xe8;" horiz-adv-x="958" d="M90 377q0 135 43.5 254.5t114.5 199.5t161.5 126.5t184.5 46.5q150 0 220.5 -92.5t70.5 -252.5q0 -78 -25 -163h-700q-20 -123 -6.5 -211.5t59 -145t108.5 -83.5t142 -27q117 0 254 98l28 -45q-146 -107 -286 -107q-172 0 -270.5 104.5t-98.5 297.5zM172 549h643 q12 61 12 123q0 55 -12.5 102.5t-39.5 88t-74.5 64t-110.5 23.5q-139 0 -259 -114t-159 -287zM524 1442h70l123 -275h-49z" />
<glyph unicode="&#xe9;" horiz-adv-x="958" d="M90 377q0 135 43.5 254.5t114.5 199.5t161.5 126.5t184.5 46.5q150 0 220.5 -92.5t70.5 -252.5q0 -78 -25 -163h-700q-20 -123 -6.5 -211.5t59 -145t108.5 -83.5t142 -27q117 0 254 98l28 -45q-146 -107 -286 -107q-172 0 -270.5 104.5t-98.5 297.5zM172 549h643 q12 61 12 123q0 55 -12.5 102.5t-39.5 88t-74.5 64t-110.5 23.5q-139 0 -259 -114t-159 -287zM512 1167l238 275h77l-258 -275h-57z" />
<glyph unicode="&#xea;" horiz-adv-x="958" d="M90 377q0 135 43.5 254.5t114.5 199.5t161.5 126.5t184.5 46.5q150 0 220.5 -92.5t70.5 -252.5q0 -78 -25 -163h-700q-20 -123 -6.5 -211.5t59 -145t108.5 -83.5t142 -27q117 0 254 98l28 -45q-146 -107 -286 -107q-172 0 -270.5 104.5t-98.5 297.5zM172 549h643 q12 61 12 123q0 55 -12.5 102.5t-39.5 88t-74.5 64t-110.5 23.5q-139 0 -259 -114t-159 -287zM406 1167l249 275h37l139 -275h-49l-114 205h-9l-196 -205h-57z" />
<glyph unicode="&#xeb;" horiz-adv-x="958" d="M90 377q0 135 43.5 254.5t114.5 199.5t161.5 126.5t184.5 46.5q150 0 220.5 -92.5t70.5 -252.5q0 -78 -25 -163h-700q-20 -123 -6.5 -211.5t59 -145t108.5 -83.5t142 -27q117 0 254 98l28 -45q-146 -107 -286 -107q-172 0 -270.5 104.5t-98.5 297.5zM172 549h643 q12 61 12 123q0 55 -12.5 102.5t-39.5 88t-74.5 64t-110.5 23.5q-139 0 -259 -114t-159 -287zM438 1286q0 33 20 55.5t46 22.5q53 0 53 -57q0 -30 -20 -52t-45 -22t-39.5 14t-14.5 39zM737 1286q0 33 20 55.5t46 22.5q53 0 53 -57q0 -30 -20 -52t-45 -22t-39.5 14t-14.5 39z " />
<glyph unicode="&#xec;" horiz-adv-x="438" d="M90 0l197 979h57l-197 -979h-57zM262 1442h70l123 -275h-49z" />
<glyph unicode="&#xed;" horiz-adv-x="438" d="M90 0l197 979h57l-197 -979h-57zM250 1167l237 275h78l-258 -275h-57z" />
<glyph unicode="&#xee;" horiz-adv-x="438" d="M90 0l197 979h57l-197 -979h-57zM143 1167l250 275h37l139 -275h-49l-114 205h-9l-196 -205h-58z" />
<glyph unicode="&#xef;" horiz-adv-x="438" d="M90 0l197 979h57l-197 -979h-57zM176 1286q0 33 20 55.5t46 22.5q53 0 53 -57q0 -30 -20.5 -52t-45.5 -22t-39 14t-14 39zM475 1286q0 33 20 55.5t46 22.5q53 0 53 -57q0 -30 -20.5 -52t-45.5 -22t-39 14t-14 39z" />
<glyph unicode="&#xf0;" horiz-adv-x="1052" d="M102 336q0 109 34.5 211t95.5 180.5t152.5 126t197.5 47.5q153 0 278 -166q-11 284 -149 473l-305 -131l-17 45l293 125q-85 103 -219 191l33 41q134 -85 237 -209l299 127l17 -45l-287 -123q156 -219 156 -533q0 -200 -60.5 -364t-173 -260.5t-254.5 -96.5t-235 105.5 t-93 255.5zM160 344q0 -132 76 -223.5t206 -91.5q117 0 212 87.5t147.5 228t58.5 304.5q-38 58 -74 97.5t-91.5 70.5t-116.5 31q-121 0 -218 -73.5t-148.5 -188t-51.5 -242.5z" />
<glyph unicode="&#xf1;" horiz-adv-x="1032" d="M90 0l197 979h49l-25 -160h8q106 91 188.5 138t164.5 47q120 0 176.5 -63.5t56.5 -174.5q0 -55 -16 -131l-127 -635h-57l126 627q17 86 17 131q0 97 -43.5 144.5t-140.5 47.5q-146 0 -369 -217l-148 -733h-57zM438 1192q22 71 60 119.5t92 48.5q32 0 57.5 -12.5t42 -31 t32 -36.5t36 -30.5t45.5 -12.5q26 0 52 33t46 86h45q-22 -72 -59.5 -120t-91.5 -48q-32 0 -57.5 12.5t-42 31t-32 36.5t-36 30.5t-45.5 12.5q-27 0 -53 -33.5t-46 -85.5h-45z" />
<glyph unicode="&#xf2;" horiz-adv-x="1024" d="M94 360q0 133 43 254t113.5 205.5t163.5 134.5t192 50q149 0 236.5 -102t87.5 -284q0 -177 -72.5 -326.5t-190 -233t-249.5 -83.5q-150 0 -237 101.5t-87 283.5zM152 373q0 -168 70 -256t200 -88q82 0 163.5 47t144.5 124.5t102.5 185t39.5 220.5q0 168 -70 256t-200 88 q-82 0 -163.5 -47t-144.5 -124.5t-102.5 -185t-39.5 -220.5zM573 1442h70l123 -275h-49z" />
<glyph unicode="&#xf3;" horiz-adv-x="1024" d="M94 360q0 133 43 254t113.5 205.5t163.5 134.5t192 50q149 0 236.5 -102t87.5 -284q0 -177 -72.5 -326.5t-190 -233t-249.5 -83.5q-150 0 -237 101.5t-87 283.5zM152 373q0 -168 70 -256t200 -88q82 0 163.5 47t144.5 124.5t102.5 185t39.5 220.5q0 168 -70 256t-200 88 q-82 0 -163.5 -47t-144.5 -124.5t-102.5 -185t-39.5 -220.5zM561 1167l238 275h78l-259 -275h-57z" />
<glyph unicode="&#xf4;" horiz-adv-x="1024" d="M94 360q0 133 43 254t113.5 205.5t163.5 134.5t192 50q149 0 236.5 -102t87.5 -284q0 -177 -72.5 -326.5t-190 -233t-249.5 -83.5q-150 0 -237 101.5t-87 283.5zM152 373q0 -168 70 -256t200 -88q82 0 163.5 47t144.5 124.5t102.5 185t39.5 220.5q0 168 -70 256t-200 88 q-82 0 -163.5 -47t-144.5 -124.5t-102.5 -185t-39.5 -220.5zM455 1167l250 275h36l140 -275h-50l-114 205h-8l-197 -205h-57z" />
<glyph unicode="&#xf5;" horiz-adv-x="1024" d="M94 360q0 133 43 254t113.5 205.5t163.5 134.5t192 50q149 0 236.5 -102t87.5 -284q0 -177 -72.5 -326.5t-190 -233t-249.5 -83.5q-150 0 -237 101.5t-87 283.5zM152 373q0 -168 70 -256t200 -88q82 0 163.5 47t144.5 124.5t102.5 185t39.5 220.5q0 168 -70 256t-200 88 q-82 0 -163.5 -47t-144.5 -124.5t-102.5 -185t-39.5 -220.5zM434 1192q22 71 60 119.5t92 48.5q32 0 57.5 -12.5t42 -31t32 -36.5t36 -30.5t45.5 -12.5q26 0 52 33t46 86h45q-22 -72 -59.5 -120t-91.5 -48q-32 0 -57.5 12.5t-42 31t-32 36.5t-36 30.5t-45.5 12.5 q-27 0 -53 -33.5t-46 -85.5h-45z" />
<glyph unicode="&#xf6;" horiz-adv-x="1024" d="M94 360q0 133 43 254t113.5 205.5t163.5 134.5t192 50q149 0 236.5 -102t87.5 -284q0 -177 -72.5 -326.5t-190 -233t-249.5 -83.5q-150 0 -237 101.5t-87 283.5zM152 373q0 -168 70 -256t200 -88q82 0 163.5 47t144.5 124.5t102.5 185t39.5 220.5q0 168 -70 256t-200 88 q-82 0 -163.5 -47t-144.5 -124.5t-102.5 -185t-39.5 -220.5zM487 1286q0 33 20 55.5t46 22.5q53 0 53 -57q0 -30 -20 -52t-45 -22t-39.5 14t-14.5 39zM786 1286q0 33 20 55.5t46 22.5q53 0 53 -57q0 -30 -20 -52t-45 -22t-39.5 14t-14.5 39z" />
<glyph unicode="&#xf7;" d="M98 651v54h795v-54h-795zM434 303q0 28 17.5 47t44.5 19t44 -19t17 -47q0 -29 -17 -49.5t-44 -20.5t-44.5 20.5t-17.5 49.5zM434 1049q0 28 17.5 46.5t44.5 18.5t44 -18.5t17 -46.5q0 -29 -17 -49.5t-44 -20.5t-44.5 20.5t-17.5 49.5z" />
<glyph unicode="&#xf8;" horiz-adv-x="1024" d="M0 -8l141 145q-47 89 -47 223q0 133 43 254t113.5 205.5t163.5 134.5t192 50q169 0 256 -125l137 141l37 -37l-147 -152q41 -90 41 -213q0 -177 -72.5 -326.5t-190 -233t-249.5 -83.5q-163 0 -248 117l-133 -137zM152 373q0 -120 32 -191l637 654q-71 114 -219 114 q-82 0 -163.5 -47t-144.5 -124.5t-102.5 -185t-39.5 -220.5zM211 133q67 -104 211 -104q82 0 163.5 47t144.5 124.5t102.5 185t39.5 220.5q0 104 -28 180z" />
<glyph unicode="&#xf9;" horiz-adv-x="1052" d="M143 213q0 50 17 131l127 635h57l-127 -627q-16 -81 -16 -131q0 -97 43.5 -144.5t140.5 -47.5q146 0 369 217l147 733h57l-196 -979h-49l24 164h-8q-109 -94 -189.5 -141.5t-162.5 -47.5q-120 0 -177 64t-57 174zM553 1442h70l122 -275h-49z" />
<glyph unicode="&#xfa;" horiz-adv-x="1052" d="M143 213q0 50 17 131l127 635h57l-127 -627q-16 -81 -16 -131q0 -97 43.5 -144.5t140.5 -47.5q146 0 369 217l147 733h57l-196 -979h-49l24 164h-8q-109 -94 -189.5 -141.5t-162.5 -47.5q-120 0 -177 64t-57 174zM541 1167l237 275h78l-258 -275h-57z" />
<glyph unicode="&#xfb;" horiz-adv-x="1052" d="M143 213q0 50 17 131l127 635h57l-127 -627q-16 -81 -16 -131q0 -97 43.5 -144.5t140.5 -47.5q146 0 369 217l147 733h57l-196 -979h-49l24 164h-8q-109 -94 -189.5 -141.5t-162.5 -47.5q-120 0 -177 64t-57 174zM434 1167l250 275h37l139 -275h-49l-115 205h-8 l-196 -205h-58z" />
<glyph unicode="&#xfc;" horiz-adv-x="1052" d="M143 213q0 50 17 131l127 635h57l-127 -627q-16 -81 -16 -131q0 -97 43.5 -144.5t140.5 -47.5q146 0 369 217l147 733h57l-196 -979h-49l24 164h-8q-109 -94 -189.5 -141.5t-162.5 -47.5q-120 0 -177 64t-57 174zM467 1286q0 33 19.5 55.5t45.5 22.5q25 0 39.5 -15 t14.5 -42q0 -30 -20.5 -52t-45.5 -22t-39 14t-14 39zM766 1286q0 33 19.5 55.5t45.5 22.5q25 0 39.5 -15t14.5 -42q0 -30 -20.5 -52t-45.5 -22t-39 14t-14 39z" />
<glyph unicode="&#xfd;" horiz-adv-x="835" d="M-172 -434l25 49q33 -16 69 -16q174 0 316 290l45 91l-164 999h57l103 -639q29 -168 45 -291h8q63 122 155 291l349 639h61l-614 -1114q-34 -66 -66.5 -115.5t-78 -100t-101.5 -77.5t-119 -27q-41 0 -90 21zM418 1167l237 275h78l-258 -275h-57z" />
<glyph unicode="&#xfe;" horiz-adv-x="1064" d="M0 -455l385 1934h57l-90 -443l-41 -200h4q207 168 373 168q131 0 209 -93t78 -260q0 -137 -45.5 -264t-119.5 -216t-171 -142.5t-197 -53.5q-163 0 -266 164h-4l-45 -225l-70 -369h-57zM188 209q57 -96 119.5 -138t138.5 -42q120 0 230 89t176 230.5t66 290.5 q0 152 -62 231.5t-172 79.5q-83 0 -187.5 -52.5t-197.5 -135.5z" />
<glyph unicode="&#xff;" horiz-adv-x="835" d="M-172 -434l25 49q33 -16 69 -16q174 0 316 290l45 91l-164 999h57l103 -639q29 -168 45 -291h8q63 122 155 291l349 639h61l-614 -1114q-34 -66 -66.5 -115.5t-78 -100t-101.5 -77.5t-119 -27q-41 0 -90 21zM344 1286q0 33 20 55.5t46 22.5q53 0 53 -57q0 -30 -20.5 -52 t-45.5 -22t-39 14t-14 39zM643 1286q0 33 20 55.5t46 22.5q53 0 53 -57q0 -30 -20.5 -52t-45.5 -22t-39 14t-14 39z" />
<glyph unicode="&#x152;" horiz-adv-x="1642" d="M127 524q0 139 29 262.5t88.5 227t144 179t202.5 117.5t257 42h856l-12 -54h-590l-111 -553h492l-13 -53h-487l-131 -639h610l-12 -53h-770q-272 0 -412.5 141.5t-140.5 382.5zM188 528q0 -217 126 -346t370 -129h111l249 1245h-200q-154 0 -280 -62.5t-207 -169 t-125 -245t-44 -293.5z" />
<glyph unicode="&#x153;" horiz-adv-x="1687" d="M94 360q0 133 43 254t113.5 205.5t163.5 134.5t192 50q133 0 217 -80.5t103 -227.5q63 142 172 225t225 83q150 0 220.5 -92.5t70.5 -252.5q0 -78 -25 -163h-663q-17 -123 -4.5 -211.5t52.5 -145t95 -83.5t123 -27q117 0 254 98l29 -45q-146 -107 -287 -107 q-136 0 -222.5 85t-105.5 243q-67 -151 -187 -239.5t-255 -88.5q-150 0 -237 101.5t-87 283.5zM152 373q0 -168 70 -256t200 -88q82 0 163.5 47t144.5 124.5t102.5 185t39.5 220.5q0 168 -70 256t-200 88q-82 0 -163.5 -47t-144.5 -124.5t-102.5 -185t-39.5 -220.5zM938 549 h606q12 61 12 123q0 55 -12.5 102.5t-39.5 88t-74.5 64t-110.5 23.5q-127 0 -235.5 -113.5t-145.5 -287.5z" />
<glyph unicode="&#x178;" horiz-adv-x="864" d="M176 1352h62l120 -441q78 -283 80 -290h6q34 48 100.5 145t100.5 145l309 441h66l-559 -793l-113 -559h-61l112 559zM401 1540q0 33 20 55.5t46 22.5q53 0 53 -57q0 -30 -20 -52t-45 -22t-39.5 14t-14.5 39zM700 1540q0 33 20 55.5t46 22.5q53 0 53 -57q0 -30 -20 -52 t-45 -22t-39.5 14t-14.5 39z" />
<glyph unicode="&#x2c6;" horiz-adv-x="1032" d="M455 1167l250 275h36l140 -275h-50l-114 205h-8l-197 -205h-57z" />
<glyph unicode="&#x2dc;" horiz-adv-x="1032" d="M434 1192q22 71 60 119.5t92 48.5q32 0 57.5 -12.5t42 -31t32 -36.5t36 -30.5t45.5 -12.5q26 0 52 33t46 86h45q-22 -72 -59.5 -120t-91.5 -48q-32 0 -57.5 12.5t-42 31t-32 36.5t-36 30.5t-45.5 12.5q-27 0 -53 -33.5t-46 -85.5h-45z" />
<glyph unicode="&#x2000;" horiz-adv-x="882" />
<glyph unicode="&#x2001;" horiz-adv-x="1765" />
<glyph unicode="&#x2002;" horiz-adv-x="882" />
<glyph unicode="&#x2003;" horiz-adv-x="1765" />
<glyph unicode="&#x2004;" horiz-adv-x="588" />
<glyph unicode="&#x2005;" horiz-adv-x="441" />
<glyph unicode="&#x2006;" horiz-adv-x="294" />
<glyph unicode="&#x2007;" horiz-adv-x="294" />
<glyph unicode="&#x2008;" horiz-adv-x="220" />
<glyph unicode="&#x2009;" horiz-adv-x="353" />
<glyph unicode="&#x200a;" horiz-adv-x="98" />
<glyph unicode="&#x2010;" horiz-adv-x="577" d="M74 483l12 58h422l-12 -58h-422z" />
<glyph unicode="&#x2011;" horiz-adv-x="577" d="M74 483l12 58h422l-12 -58h-422z" />
<glyph unicode="&#x2012;" horiz-adv-x="577" d="M74 483l12 58h422l-12 -58h-422z" />
<glyph unicode="&#x2013;" horiz-adv-x="946" d="M74 487l12 54h786l-16 -54h-782z" />
<glyph unicode="&#x2014;" horiz-adv-x="1572" d="M74 487l12 54h1413l-12 -54h-1413z" />
<glyph unicode="&#x2018;" horiz-adv-x="413" d="M246 1110q0 104 55 189t150 139l24 -41q-77 -49 -119.5 -112.5t-44.5 -129.5h8q29 0 47.5 -15.5t18.5 -45.5q0 -31 -19 -52.5t-47 -21.5q-32 0 -52.5 24t-20.5 66z" />
<glyph unicode="&#x2019;" horiz-adv-x="413" d="M233 1061q77 49 119.5 112.5t44.5 129.5h-8q-29 0 -47 15.5t-18 45.5q0 31 18.5 52.5t46.5 21.5q32 0 53 -24t21 -66q0 -104 -55 -189t-150 -139z" />
<glyph unicode="&#x201a;" horiz-adv-x="413" d="M-37 -246q77 49 119.5 112.5t44.5 129.5h-8q-29 0 -47.5 15.5t-18.5 45.5q0 31 19 52.5t47 21.5q32 0 53 -24t21 -66q0 -104 -55 -189t-150 -139z" />
<glyph unicode="&#x201c;" horiz-adv-x="663" d="M246 1110q0 104 55 189t150 139l24 -41q-77 -49 -119.5 -112.5t-44.5 -129.5h8q29 0 47.5 -15.5t18.5 -45.5q0 -31 -19 -52.5t-47 -21.5q-32 0 -52.5 24t-20.5 66zM496 1110q0 105 54.5 189.5t149.5 138.5l25 -41q-77 -49 -119.5 -112.5t-44.5 -129.5h8q29 0 47.5 -15.5 t18.5 -45.5q0 -31 -19 -52.5t-47 -21.5q-32 0 -52.5 24t-20.5 66z" />
<glyph unicode="&#x201d;" horiz-adv-x="663" d="M233 1061q77 49 119.5 112.5t44.5 129.5h-8q-29 0 -47 15.5t-18 45.5q0 31 18.5 52.5t46.5 21.5q32 0 53 -24t21 -66q0 -104 -55 -189t-150 -139zM483 1061q77 49 119.5 112.5t44.5 129.5h-8q-29 0 -47.5 15.5t-18.5 45.5q0 31 19 52.5t47 21.5q32 0 53 -24t21 -66 q0 -104 -55 -189t-150 -139z" />
<glyph unicode="&#x201e;" horiz-adv-x="393" d="M-37 -246q77 49 119.5 112.5t44.5 129.5h-8q-29 0 -47.5 15.5t-18.5 45.5q0 31 19 52.5t47 21.5q32 0 53 -24t21 -66q0 -104 -55 -189t-150 -139zM213 -246q77 49 119.5 112.5t44.5 129.5h-8q-29 0 -47.5 15.5t-18.5 45.5q0 31 19 52.5t47 21.5q32 0 52.5 -24t20.5 -66 q0 -105 -54.5 -189.5t-149.5 -138.5z" />
<glyph unicode="&#x2022;" horiz-adv-x="544" d="M86 516q0 95 60 168.5t157 73.5q71 0 119.5 -53.5t48.5 -135.5q0 -97 -59 -169t-154 -72q-74 0 -123 52.5t-49 135.5z" />
<glyph unicode="&#x2026;" horiz-adv-x="1937" d="M193 37q0 34 26.5 64t59.5 30q53 0 53 -65q0 -35 -24.5 -63t-57.5 -28q-27 0 -42 18t-15 44zM881 37q0 34 26.5 64t59.5 30q53 0 53 -65q0 -35 -24.5 -63t-57.5 -28q-27 0 -42 18t-15 44zM1569 37q0 34 26.5 64t59.5 30q53 0 53 -65q0 -35 -24.5 -63t-57.5 -28 q-27 0 -42 18t-15 44z" />
<glyph unicode="&#x202f;" horiz-adv-x="353" />
<glyph unicode="&#x2039;" horiz-adv-x="483" d="M82 492l12 65l324 320l33 -33l-304 -328l185 -340l-41 -24z" />
<glyph unicode="&#x203a;" horiz-adv-x="483" d="M41 184l303 328l-184 340l41 25l209 -340l-13 -66l-323 -319z" />
<glyph unicode="&#x205f;" horiz-adv-x="441" />
<glyph unicode="&#x20ac;" d="M49 518l12 41l117 8q6 82 25 170h-113l12 41l113 8q63 243 208 396t314 153q185 0 279 -196l-49 -29q-42 83 -95.5 127.5t-138.5 44.5q-145 0 -273 -138.5t-188 -357.5h580l-12 -49h-580q-20 -109 -24 -170h493l-12 -49h-484q-7 -232 74.5 -360.5t224.5 -128.5 q148 0 287 135l37 -41q-148 -148 -328 -148q-169 0 -265 142.5t-87 400.5h-127z" />
<glyph unicode="&#x2122;" horiz-adv-x="1183" d="M164 1331l12 53h496l-13 -53h-217l-114 -573h-58l115 573h-221zM647 758l127 626h86l49 -270l29 -180h8l98 180l164 270h86l-127 -626h-57l70 348l49 209h-8l-267 -459h-53l-86 459h-8l-33 -209l-69 -348h-58z" />
<glyph unicode="&#xe000;" horiz-adv-x="983" d="M0 0v983h983v-983h-983z" />
<glyph unicode="&#xfb01;" horiz-adv-x="942" d="M98 0l185 926h-127l8 45l131 8l49 246q30 140 97 209t157 69q76 0 143 -45l-28 -45q-61 37 -119 37q-72 0 -122.5 -64t-70.5 -161l-49 -246h221l-12 -53h-221l-184 -926h-58zM594 0l197 979h57l-197 -979h-57zM815 1286q0 35 22.5 58.5t51.5 23.5q25 0 41 -17t16 -44 q0 -33 -22.5 -55.5t-51.5 -22.5q-25 0 -41 16t-16 41z" />
<glyph unicode="&#xfb02;" horiz-adv-x="966" d="M98 0l185 926h-127l8 45l131 8l49 246q30 140 97 209t157 69q76 0 143 -45l-28 -45q-61 37 -119 37q-72 0 -122.5 -64t-70.5 -161l-49 -246h221l-12 -53h-221l-184 -926h-58zM606 49q0 13 8 53l275 1377h57l-274 -1381q-4 -20 -4 -41q0 -28 28 -28q13 0 33 8l8 -49 q-33 -13 -57 -13q-32 0 -53 19.5t-21 54.5z" />
</font>
</defs>
</svg>
