<?xml version="1.0" standalone="no"?>
<!DOCTYPE svg PUBLIC "-//W3C//DTD SVG 1.1//EN" "http://www.w3.org/Graphics/SVG/1.1/DTD/svg11.dtd" >
<svg xmlns="http://www.w3.org/2000/svg">
<metadata></metadata>
<defs>
<font id="berthold_akzidenz_grotesk_bRg" horiz-adv-x="1236" >
<font-face units-per-em="2048" ascent="1638" descent="-410" />
<missing-glyph horiz-adv-x="555" />
<glyph horiz-adv-x="0" />
<glyph unicode="&#xd;" horiz-adv-x="555" />
<glyph unicode=" "  horiz-adv-x="555" />
<glyph unicode="&#x09;" horiz-adv-x="555" />
<glyph unicode="&#xa0;" horiz-adv-x="555" />
<glyph unicode="!" horiz-adv-x="598" d="M184 0v348h328v-348h-328zM184 1014v432h328v-418l-98 -530h-138z" />
<glyph unicode="&#x22;" horiz-adv-x="811" d="M47 1374v23q0 35 13.5 60.5t35 43t49 25.5t54.5 8q55 0 97 -33t42 -94v-18.5t-2 -18.5l-109 -534h-65l-111 512q-4 14 -4 26zM473 1374v23q0 70 49 103.5t105 33.5q53 0 95 -33t42 -94v-18.5t-2 -18.5l-109 -534h-63l-113 512q-4 14 -4 26z" />
<glyph unicode="#" horiz-adv-x="1366" d="M86 381v252h229l27 196h-205v254h240l51 363h256l-53 -363h205l49 363h256l-49 -363h186v-254h-221l-27 -196h201v-252h-238l-53 -381h-256l53 381h-202l-54 -381h-252l50 381h-193zM569 633h203l29 196h-203z" />
<glyph unicode="$" horiz-adv-x="1366" d="M55 168l187 213q72 -41 127 -63.5t98 -35t77 -17.5t62 -7v315q-115 23 -214 51.5t-167 88.5q-41 37 -64.5 75.5t-33.5 74.5t-12 64.5t-2 43.5q0 231 182 354q82 53 163 68.5t146 19.5v236h166v-236q68 -6 124 -19.5t110.5 -33t107.5 -48t115 -65.5l-180 -209 q-51 27 -86 42.5t-64 25.5t-58.5 17t-68.5 16v-273q129 -29 234.5 -63.5t175.5 -106.5q45 -47 70.5 -112.5t25.5 -139.5q0 -63 -19 -127q-27 -94 -71.5 -151t-114.5 -100q-80 -47 -151.5 -61.5t-149.5 -24.5v-246h-164v246q-70 6 -136.5 17t-134 32.5t-136 54.5t-144.5 84z M440 1008q0 -31 14.5 -49.5t37 -31t53 -19.5t61.5 -13v246q-20 -4 -40.5 -7.5t-39.5 -11.5q-41 -16 -63.5 -48t-22.5 -66zM770 262q18 2 48 9.5t59.5 24.5t50 46t20.5 76q0 35 -16.5 56.5t-42 35.5t-57 21.5t-62.5 11.5v-281z" />
<glyph unicode="%" horiz-adv-x="1792" d="M53 938q0 78 14.5 165t61.5 163q31 49 77 87t124 52q14 2 27.5 3t27.5 1q70 0 128 -28.5t101 -88t68 -149.5t25 -211q0 -102 -25 -195.5t-72 -158.5q-8 -10 -25.5 -29t-45 -37t-68.5 -31.5t-98 -13.5q-94 0 -155.5 44t-98.5 112.5t-51.5 151.5t-14.5 163zM262 922 q0 -59 5 -110.5t19.5 -89.5t38 -59.5t58.5 -21.5q41 0 63.5 33t34 80t14.5 96t3 84q0 33 -3 85t-15.5 101t-38 82t-70.5 29q-37 -4 -53.5 -27.5t-20.5 -36.5q-12 -27 -19.5 -64.5t-10.5 -74.5t-4 -66.5t-1 -39.5zM428 0l770 1475l164 -86l-770 -1473zM1081 453 q0 92 18.5 179t58.5 153.5t103.5 106.5t155.5 38q80 -2 136.5 -36t91.5 -83q29 -39 46 -87t27.5 -96t13.5 -94.5t3 -80.5q0 -102 -24.5 -195.5t-72.5 -159.5q-8 -12 -24.5 -30.5t-44 -36t-67.5 -30.5t-95 -13q-96 0 -159.5 45t-100.5 113.5t-51.5 150.5t-14.5 156zM1292 442 q0 -59 5.5 -110t19.5 -89t37.5 -59.5t58.5 -21.5q41 0 64.5 34.5t35 82t13.5 96.5t2 80q0 47 -5 101t-18.5 99t-39 73t-66.5 24q-35 -4 -51.5 -28t-20.5 -36q-12 -27 -19.5 -64.5t-10.5 -73.5t-4 -65.5t-1 -42.5z" />
<glyph unicode="&#x26;" horiz-adv-x="1409" d="M59 432q0 80 31 164q27 68 67 116t85 81.5t90 56t82 39.5q-41 68 -68 125t-27 123q0 68 24 125t71 100t115.5 67.5t160.5 24.5q86 0 151.5 -25.5t110.5 -68.5t67.5 -99.5t22.5 -117.5q0 -66 -24.5 -120t-62 -95t-86 -72t-97.5 -51q35 -55 59.5 -91t45 -66t41 -59.5 t51.5 -70.5q14 33 23 55.5t17.5 45t14.5 49t14 65.5l256 -94q-18 -59 -32.5 -99t-31 -76t-38 -75t-53.5 -94q20 -25 52 -46.5t103 -21.5q16 0 30.5 1t31.5 1v-229h-162q-51 0 -87 5t-63.5 16.5t-52 30t-51.5 44.5q-25 -14 -59.5 -33.5t-82.5 -36t-108.5 -28.5t-134.5 -12 q-125 0 -218 37.5t-154.5 100t-92.5 143.5t-31 165zM373 444q0 -31 11 -67.5t38 -69.5t66.5 -55.5t99.5 -22.5q59 0 107 21.5t93 46.5l-247 381q-25 -16 -53.5 -36.5t-54 -48.5t-43 -64.5t-17.5 -84.5zM582 1149q0 -33 17 -66t52 -90q53 29 93 65t40 89q0 39 -26.5 63.5 t-73.5 24.5q-41 0 -71.5 -22.5t-30.5 -63.5z" />
<glyph unicode="'" horiz-adv-x="425" d="M68 1374v23q0 70 49 103.5t104 33.5t96 -33t41 -94v-18.5t-2 -18.5l-108 -534h-64l-112 512q-4 14 -4 26z" />
<glyph unicode="(" horiz-adv-x="724" d="M78 602q0 27 3 86.5t21.5 139t58.5 177t113 201.5q88 127 174.5 201t139.5 115l108 -103q-45 -43 -92 -95t-100 -153q-61 -113 -99 -248t-38 -305q0 -164 41 -319.5t118 -280.5q43 -70 84 -111.5t82 -82.5l-104 -121q-74 57 -163 136t-166 187.5t-129 251t-52 324.5z" />
<glyph unicode=")" horiz-adv-x="724" d="M31 -180q43 43 90 96t100 152q61 113 99 248t38 307q0 162 -39.5 317.5t-117.5 280.5q-45 70 -86 111.5t-82 82.5l104 121q74 -55 162 -134t166 -188.5t130 -252t52 -324.5q0 -29 -3 -87t-21.5 -138t-58.5 -177.5t-113 -201.5q-88 -127 -173 -201t-139 -115z" />
<glyph unicode="*" horiz-adv-x="724" d="M29 1137l47 159l174 -53l67 -57l-41 74v186h164v-184l-34 -78l59 61l178 60l51 -154l-178 -55l-84 8l78 -43l111 -150l-134 -96l-106 152l-19 86l-14 -86l-108 -152l-131 94l108 156l70 39l-78 -19z" />
<glyph unicode="+" horiz-adv-x="1366" d="M86 467v260h469v467h260v-467h465v-260h-465v-467h-260v467h-469z" />
<glyph unicode="," horiz-adv-x="512" d="M92 0v344h328v-262q0 -59 -6 -119.5t-35 -120.5q-27 -51 -62.5 -84.5t-73.5 -55t-77 -35t-70 -21.5v145q70 29 92.5 78t28.5 131h-125z" />
<glyph unicode="-" horiz-adv-x="724" d="M106 457v293h508v-293h-508z" />
<glyph unicode="." horiz-adv-x="512" d="M92 0v342h324v-342h-324z" />
<glyph unicode="/" horiz-adv-x="980" d="M33 0l622 1446h291l-622 -1446h-291z" />
<glyph unicode="0" horiz-adv-x="1150" d="M82 705q0 49 4 108t15.5 121.5t33 127t58.5 126.5q12 18 37.5 55t69.5 73t107.5 63.5t149.5 31.5q117 4 199 -34t139 -102.5t91 -145t52.5 -161.5t23.5 -156t5 -124q0 -119 -22.5 -246t-80 -232.5t-154.5 -173t-247 -67.5q-23 0 -63.5 3t-90 21.5t-102.5 57.5t-102 111 q-61 90 -92 220t-31 323zM385 637q0 -59 6 -132t26.5 -135.5t58.5 -104.5t99 -42q55 0 87 31t53 84q23 66 34 160t11 186q0 51 -3 106.5t-11.5 107.5t-20.5 97t-31 78q-47 84 -129 82q-51 -2 -86 -39t-55.5 -104.5t-29.5 -162.5t-9 -212z" />
<glyph unicode="1" horiz-adv-x="1150" d="M180 969v213q59 4 114.5 12t115.5 39q68 35 95 75t48 81h250v-1389h-330v1014q-29 -12 -50.5 -20.5t-50 -13.5t-73.5 -7t-119 -4z" />
<glyph unicode="2" horiz-adv-x="1150" d="M66 891q-2 53 1 114.5t31 133.5q37 98 97.5 152.5t126 82t128 33.5t103.5 6q51 0 120.5 -10t137.5 -45q70 -35 112 -83t64.5 -99.5t29.5 -100.5t7 -86q0 -76 -19.5 -148.5t-64.5 -147.5t-118.5 -154.5t-182.5 -167.5q-37 -31 -75 -59.5t-77 -57.5l541 8v-262h-952v242 q39 31 73.5 58.5t71.5 57t80 64.5t96 82q61 53 113.5 104t89.5 106.5t58.5 121t21.5 147.5q0 20 -2 53t-15.5 63.5t-42 52.5t-81.5 22q-43 0 -74 -16.5t-47 -39.5q-12 -16 -21.5 -46t-9.5 -91q0 -27 2 -51.5t6 -57.5z" />
<glyph unicode="3" horiz-adv-x="1150" d="M63 467l320 27q0 -16 -1 -29.5t-1 -30.5q0 -98 49 -151.5t121 -53.5q82 0 132 53.5t50 151.5q0 70 -27.5 108t-67.5 53t-82 16t-73 -1v236q27 -2 52.5 -2t50.5 6q45 10 68.5 34.5t34.5 50.5t13.5 46t2.5 27q0 43 -14.5 72.5t-36 48t-48 27.5t-51.5 9q-53 0 -82 -22.5 t-42 -55t-15 -66.5t-2 -56l-324 28q10 98 44 179t110 143q45 37 94 56.5t95 28.5t84 11t58 2q131 0 209 -30.5t119 -65.5q61 -51 93 -125t32 -152t-28.5 -141t-75.5 -100q-27 -23 -58.5 -38.5t-66.5 -29.5q20 -4 39.5 -9t40.5 -13q92 -37 138 -119t46 -176 q0 -72 -24.5 -141.5t-71.5 -125.5q-41 -49 -91.5 -82.5t-106.5 -53t-115.5 -28t-116.5 -8.5q-106 0 -206 35t-169 117q-37 43 -57.5 90t-29.5 92t-10.5 86t-1.5 72z" />
<glyph unicode="4" horiz-adv-x="1150" d="M25 319l2 250l573 817h309v-839h185v-228h-185v-319h-323v319h-561zM258 547h330v203l12 329q-12 -23 -24.5 -47t-24.5 -47q-16 -29 -34.5 -55.5t-35.5 -55.5z" />
<glyph unicode="5" horiz-adv-x="1150" d="M57 436l326 13q-2 -25 0 -52.5t12 -62.5q16 -51 54 -82t98 -31q61 0 95 30t51.5 70.5t21.5 85t4 72.5q0 63 -14.5 108.5t-39 75t-56 43t-66.5 13.5q-39 0 -70 -14q-39 -18 -52 -43t-24 -52l-284 47l84 727h798l-20 -262h-524l-33 -254q23 16 74 44t145 28q100 0 178 -36 t131 -98.5t81 -146.5t28 -178q0 -90 -30 -181t-92.5 -164t-161.5 -118t-239 -45q-72 0 -127 13.5t-98 32t-72.5 41t-48.5 40.5q-43 43 -67.5 88t-37.5 89.5t-17.5 85t-6.5 73.5z" />
<glyph unicode="6" horiz-adv-x="1150" d="M86 662q0 141 20.5 276t80 241.5t165 171t275.5 64.5q72 0 132 -16.5t109 -44.5q55 -35 89 -78t53.5 -86t29 -83t15.5 -69l-328 -37v34t-4 34q-10 45 -44 71.5t-79 26.5q-35 0 -70.5 -18.5t-60.5 -52.5q-23 -33 -36 -79t-20 -97.5t-10.5 -101.5t-5.5 -89q14 27 36 53.5 t69 55.5t97 41t99 12q63 0 131 -23.5t124.5 -75t92 -132t35.5 -195.5q0 -117 -36.5 -207t-102 -152.5t-157 -95.5t-201.5 -33q-59 0 -127 15.5t-133 58.5q-53 35 -97.5 87t-75 126t-48 172.5t-17.5 225.5zM438 442q0 -29 5.5 -66.5t21.5 -72.5t48 -59.5t85 -24.5q63 0 98 30 t50.5 67.5t18.5 74.5t3 51t-1 38t-8 49.5t-20.5 51t-38.5 44.5q-23 16 -51 24t-57 6q-66 -4 -110 -57t-44 -156z" />
<glyph unicode="7" horiz-adv-x="1150" d="M70 1120v269h981v-250q-74 -90 -132.5 -172t-103.5 -164t-82 -168t-67 -184q-25 -78 -40.5 -137.5t-26.5 -111.5t-17.5 -100.5t-12.5 -101.5h-381q16 72 48 193.5t92.5 271t158 318.5t244.5 337h-661z" />
<glyph unicode="8" horiz-adv-x="1150" d="M80 397q0 80 26 140q20 47 48 79.5t58 54t60.5 35t55.5 23.5q-20 12 -53 34.5t-64 59.5t-52.5 91.5t-21.5 127.5q0 63 23.5 129t76 120.5t135.5 88t203 33.5q90 0 169 -24.5t137.5 -72.5t91.5 -119t33 -165q0 -78 -21.5 -130t-52.5 -86t-64.5 -53.5t-58.5 -31.5 q33 -14 77 -34.5t83 -58.5t66.5 -96.5t27.5 -146.5q0 -119 -47 -198.5t-119 -129t-159 -70t-167 -20.5q-111 0 -204 32t-150 79q-61 51 -99 134t-38 175zM412 424q0 -55 13 -93t35.5 -61.5t51.5 -35t57 -11.5q41 0 76 17.5t55 46.5q8 10 19.5 39.5t11.5 97.5q0 61 -16.5 98 t-39 58.5t-47 30t-40.5 10.5q-33 2 -64.5 -8.5t-56.5 -35t-40 -62.5t-15 -91zM442 1010q0 -23 4.5 -52.5t18.5 -57.5t40.5 -47t69.5 -19q51 0 90.5 35.5t39.5 121.5q0 18 -4.5 50t-17.5 62t-41 50t-75 18q-66 -4 -95.5 -52t-29.5 -109z" />
<glyph unicode="9" horiz-adv-x="1150" d="M66 924q0 117 36.5 207t102 152.5t158 95t200.5 32.5q70 0 136.5 -17.5t123.5 -56.5q53 -35 97.5 -87t75 -125.5t48 -172t17.5 -225.5q0 -143 -21.5 -278.5t-80 -241t-164 -170t-273.5 -64.5q-66 0 -127 13.5t-114 48.5q-55 35 -90 78t-54.5 87t-29 84t-13.5 68l328 35 v-33.5t4 -34.5q10 -45 44 -71.5t79 -26.5q35 0 70.5 18.5t58.5 53.5q20 33 33.5 79t21.5 96t11.5 100t5.5 91q-29 -51 -69 -82.5t-83 -49t-83 -23.5t-66 -6q-61 0 -128 22.5t-124.5 72.5t-94 132t-36.5 199zM379 946q0 -14 1 -37.5t8 -49t20.5 -51.5t37.5 -44 q23 -16 51.5 -24.5t57.5 -6.5q66 4 110 57.5t44 155.5q0 29 -5.5 67t-21.5 72.5t-48 59t-85 24.5q-63 0 -98 -29.5t-50.5 -67.5t-18.5 -74.5t-3 -51.5z" />
<glyph unicode=":" horiz-adv-x="598" d="M176 0v348h328v-348h-328zM176 725v344h328v-344h-328z" />
<glyph unicode=";" horiz-adv-x="598" d="M176 0v350h328v-325q-4 -47 -18.5 -114t-73.5 -136q-55 -66 -114.5 -87.5t-121.5 -37.5v143q35 12 57.5 27.5t37 39t20.5 57.5t10 83h-125zM176 725v348h328v-348h-328z" />
<glyph unicode="&#x3c;" horiz-adv-x="1366" d="M0 592v254l1366 606v-285l-1001 -448l1001 -440v-285z" />
<glyph unicode="=" horiz-adv-x="1366" d="M0 254v260h1366v-260h-1366zM0 682v258h1366v-258h-1366z" />
<glyph unicode="&#x3e;" horiz-adv-x="1366" d="M0 -6v285l1001 440l-1001 448v285l1366 -606v-254z" />
<glyph unicode="?" d="M125 1094q12 37 26.5 72.5t36 71.5t52 70.5t75.5 65.5q78 55 172.5 78t198.5 23q96 0 197.5 -22.5t177.5 -80.5q66 -51 101.5 -123.5t35.5 -156.5q0 -68 -18.5 -119t-46 -89t-57 -63.5t-50.5 -42.5q-57 -43 -115.5 -82t-117.5 -86q-23 -16 -35.5 -29.5t-19.5 -25.5 t-11 -25.5t-8 -31.5h-260q2 35 4 63.5t11 56t25.5 54t45.5 55.5q39 41 84 70.5t90 60.5q12 8 35.5 26.5t45 44t38 57.5t16.5 71q0 18 -10 63t-45 76q-20 18 -53 31.5t-82 13.5q-61 0 -111.5 -21.5t-89.5 -74.5q-31 -45 -37 -81t-8 -65zM430 0v348h324v-348h-324z" />
<glyph unicode="@" horiz-adv-x="1835" d="M141 487q0 195 72 371t198 309t298 212t374 79q143 0 256 -45t192 -125t121 -189.5t42 -238.5q0 -139 -40 -269t-107.5 -231.5t-155.5 -163t-185 -61.5q-57 0 -92 17.5t-55.5 41t-27.5 47t-9 33.5q-47 -55 -108.5 -97t-149.5 -42q-57 0 -109.5 21.5t-91.5 64.5 t-61.5 108.5t-22.5 153.5q0 106 33 211t92.5 189t140 136t179.5 52q51 0 88 -13.5t61.5 -32.5t40.5 -40.5t27 -36.5l18 80h187l-70 -323q-6 -29 -15.5 -75t-18.5 -95.5t-15 -94.5t-6 -69q0 -18 5 -40t34 -22q33 0 77.5 44t85.5 118t70 172t29 209q0 123 -41 208t-106.5 137 t-147.5 75.5t-162 23.5q-147 0 -283.5 -63.5t-241 -174t-168 -258t-63.5 -315.5q0 -170 61.5 -281.5t154.5 -177t202 -92t203 -26.5q135 0 274 46t271 144q78 61 120 109l97 -125q-47 -43 -117 -101.5t-163 -110.5t-211 -88t-261 -36q-78 0 -167 14.5t-178 48t-171 90 t-144.5 138.5t-100.5 193.5t-38 256.5zM692 494q0 -63 17.5 -98.5t39 -52.5t43 -21.5t29.5 -4.5q39 0 81 27t77 72q25 33 43 72.5t29.5 79.5t16.5 78t5 69q-2 84 -41 128t-98 44q-55 0 -100.5 -39t-77 -97.5t-48 -127t-16.5 -129.5z" />
<glyph unicode="A" horiz-adv-x="1449" d="M-2 0l537 1446h376l533 -1446h-385l-72 231h-532l-72 -231h-385zM539 492h366l-188 610q-14 -55 -28.5 -111.5t-31.5 -111.5q-12 -41 -27.5 -91.5t-31.5 -102.5t-31.5 -102.5t-27.5 -90.5z" />
<glyph unicode="B" horiz-adv-x="1449" d="M139 0v1446h559q115 0 213.5 -6t163.5 -29q68 -23 115 -58.5t76.5 -79.5t44 -95.5t14.5 -102.5q0 -59 -11 -94t-16 -45q-25 -55 -60.5 -90t-75.5 -55.5t-79 -30.5t-67 -17q33 -6 70.5 -13t74.5 -20.5t73 -35t66 -53.5q39 -41 59.5 -98.5t20.5 -119.5q0 -43 -12 -91 t-40 -96t-74 -90t-113 -73q-82 -35 -174.5 -44t-216.5 -9h-611zM483 262h252q45 0 94.5 4t90.5 20.5t67.5 51.5t26.5 96q0 66 -23.5 101.5t-57.5 52t-72 20.5t-64 4h-314v-350zM483 874h273q31 0 68.5 4.5t69.5 18.5t54.5 46t22.5 87q0 51 -20.5 81t-49.5 44t-61.5 17.5 t-59.5 3.5h-297v-302z" />
<glyph unicode="C" horiz-adv-x="1409" d="M80 725q0 160 52 300t144.5 243.5t221.5 163t282 59.5q125 0 232.5 -39t189.5 -104q76 -59 117 -119t72 -113l-287 -143q-16 35 -39 71.5t-70 77.5q-53 41 -103 56.5t-95 15.5q-88 0 -155 -38t-112 -101.5t-67.5 -146.5t-22.5 -173q0 -119 29 -208t77 -148.5t112.5 -89 t138.5 -29.5q70 0 121 21.5t87.5 54.5t61.5 70.5t43 68.5l285 -145q-41 -63 -87 -125t-132 -121q-23 -16 -61 -37.5t-89 -42t-114.5 -34t-139.5 -13.5q-143 0 -269 51t-220.5 149.5t-148.5 241t-54 326.5z" />
<glyph unicode="D" horiz-adv-x="1492" d="M137 0v1446h461q66 0 146.5 -4t163.5 -20.5t165 -50.5t152 -95q113 -102 160 -244.5t47 -296.5q0 -94 -11.5 -162.5t-25.5 -115.5q-33 -111 -86.5 -189t-118 -128t-134 -78.5t-134 -42t-122 -16.5t-93.5 -3h-570zM502 291h110q72 2 153 10t148.5 50t112.5 128t45 242 q0 76 -13.5 149.5t-62.5 141.5q-37 49 -80 75.5t-89 38t-92 13.5t-87 2h-145v-850z" />
<glyph unicode="E" horiz-adv-x="1323" d="M139 0v1446h1069v-281h-708v-262h661v-274h-661v-344h772v-285h-1133z" />
<glyph unicode="F" horiz-adv-x="1280" d="M137 0v1446h1110v-279h-749v-303h690v-280h-690v-584h-361z" />
<glyph unicode="G" horiz-adv-x="1536" d="M82 721q0 174 53 317.5t148.5 244.5t226.5 156.5t285 55.5q143 0 251.5 -40t185.5 -94t126 -110.5t74 -89.5l-275 -166q-18 29 -45 65t-66.5 66.5t-94 52t-130.5 21.5q-102 0 -175 -39t-118 -104.5t-65.5 -150.5t-20.5 -175q0 -123 31 -219t84 -150q41 -45 110.5 -74.5 t153.5 -29.5q49 0 101.5 13.5t97.5 41.5q35 23 56.5 48.5t33.5 53t17.5 56.5t9.5 57h-324v275h629v-803h-283v135q-23 -20 -57.5 -49t-85.5 -55.5t-121 -45t-162 -18.5q-152 0 -272.5 57.5t-204.5 159t-129 239.5t-45 298z" />
<glyph unicode="H" horiz-adv-x="1536" d="M139 0v1446h365v-522h528v522h363v-1446h-363v616h-528v-616h-365z" />
<glyph unicode="I" horiz-adv-x="641" d="M137 0v1446h361v-1446h-361z" />
<glyph unicode="J" horiz-adv-x="811" d="M33 0v293h61q74 0 117 5t66.5 21.5t30.5 46t7 76.5v1004h363v-1043q0 -100 -9.5 -171.5t-62.5 -131.5q-31 -35 -69.5 -54t-82.5 -29.5t-90.5 -13.5t-89.5 -3h-241z" />
<glyph unicode="K" horiz-adv-x="1449" d="M139 0v1446h344v-590l541 590h434l-512 -537l553 -909h-407l-387 655l-222 -231v-424h-344z" />
<glyph unicode="L" horiz-adv-x="1110" d="M139 0v1448h361v-1143h565v-305h-926z" />
<glyph unicode="M" horiz-adv-x="1878" d="M139 0v1446h529l221 -811l51 -232q8 37 12 60.5t8.5 41t8.5 35t10 42.5l231 864h527v-1446h-346l22 1030l4 146l-12 -52q-6 -31 -11 -50t-8.5 -34.5t-7.5 -31t-10 -37.5l-272 -971h-312l-262 930l-63 258q2 -43 3 -73t3 -57.5t3 -61t3 -85.5l18 -911h-350z" />
<glyph unicode="N" horiz-adv-x="1492" d="M137 0v1446h355l313 -533q43 -76 72.5 -129t53 -96t45 -83t46.5 -87l-16 928h346v-1446h-355l-270 457q-49 80 -81 134t-58.5 100t-52 96.5t-62.5 121.5l10 -909h-346z" />
<glyph unicode="O" horiz-adv-x="1622" d="M86 729q0 147 46 284.5t136 243t223.5 170t307.5 64.5q66 0 132 -10.5t132 -32.5q111 -39 188.5 -101.5t130 -135t83 -150.5t46 -146.5t19.5 -122t4 -77.5q0 -94 -20.5 -182.5t-57.5 -166t-87 -142t-109 -113.5q-106 -88 -224 -120t-231 -32q-172 0 -306 61.5t-225.5 167 t-139.5 244.5t-48 297zM442 735q0 -129 33 -219t85 -145.5t116.5 -81t128.5 -25.5q63 0 127.5 23.5t116 76t85 132t37.5 194.5v27q1 101 -25 195q-30 106 -91 171q-47 49 -114 78t-140 29q-82 0 -148.5 -34t-112.5 -95.5t-72 -144t-26 -181.5z" />
<glyph unicode="P" horiz-adv-x="1409" d="M137 0v1446h582q88 0 172 -3t157.5 -19.5t136 -54.5t109.5 -105q41 -61 61.5 -142.5t20.5 -154.5q0 -125 -49 -226q-47 -96 -116.5 -149t-149.5 -80t-164 -32t-158 -7h-239v-473h-363zM500 741h217q51 0 104 4.5t96.5 26t71 67.5t27.5 130q0 80 -30 122t-74 62.5 t-94 23.5t-89 3h-229v-439z" />
<glyph unicode="Q" horiz-adv-x="1622" d="M86 729q0 158 50 296t143.5 241.5t226.5 163t299 59.5q172 0 308 -61.5t230.5 -165t143.5 -239.5t49 -288q0 -92 -14.5 -166.5t-36 -133t-47 -102.5t-45.5 -79q31 -29 58.5 -49.5t58 -34.5t69.5 -25.5t94 -19.5l-104 -256q-59 10 -101.5 21.5t-84.5 31t-91 52t-121 85.5 q-43 -20 -83.5 -38.5t-83.5 -32t-91.5 -21.5t-105.5 -8q-147 0 -279.5 51t-226.5 144q-61 59 -102 129.5t-65.5 146.5t-36 152.5t-11.5 146.5zM446 731q0 -109 27 -195.5t76 -147t116.5 -92.5t149.5 -32q92 0 159.5 38t113 101.5t68 147.5t22.5 178q0 102 -28 183t-54 122 q-33 51 -74 81t-84 46.5t-83 20.5q-27 3 -48 3q-11 0 -21 -1q-96 -6 -161.5 -49t-105.5 -108.5t-56.5 -143.5t-16.5 -152z" />
<glyph unicode="R" horiz-adv-x="1449" d="M137 0v1446h651q57 0 120 -3t124.5 -17.5t120.5 -44t109 -83.5q51 -57 82.5 -140t31.5 -181q0 -109 -32.5 -179.5t-78.5 -115.5t-97.5 -67.5t-88.5 -36.5l334 -578h-399l-287 516h-227v-516h-363zM500 784h299q18 0 55 4.5t73 23.5t62.5 59t26.5 112q0 70 -21.5 107.5 t-54.5 56t-68.5 24t-64.5 5.5h-307v-392z" />
<glyph unicode="S" horiz-adv-x="1409" d="M18 260l275 174q29 -31 57.5 -57.5t81.5 -54.5q72 -39 143.5 -54.5t135.5 -15.5q53 0 101 12t85 33.5t58.5 53.5t21.5 69q0 43 -24.5 69.5t-61.5 42t-82 22.5t-84 13q-59 8 -118.5 16.5t-119.5 20.5q-23 4 -59.5 13.5t-79.5 28t-88 46t-81 69.5t-58.5 100.5t-22.5 135.5 q0 139 55.5 232.5t141.5 149t188.5 79t196.5 23.5q125 0 223 -27t175 -67.5t135.5 -89t105.5 -91.5l-266 -190q-35 35 -68 63.5t-76 53.5q-39 23 -102.5 43t-132.5 20q-53 0 -94 -14.5t-68 -36t-40 -48t-13 -53.5q0 -41 20.5 -66.5t49 -39.5t60.5 -20.5t54 -8.5 q57 -6 121.5 -16t126 -22.5t113 -24.5t81.5 -23q125 -47 187.5 -139t62.5 -215q0 -78 -28.5 -160t-85.5 -147q-49 -57 -111.5 -94t-133.5 -59.5t-146.5 -32t-151.5 -9.5q-154 0 -263.5 31t-186 76t-127 96t-83.5 90z" />
<glyph unicode="T" horiz-adv-x="1150" d="M14 1161v287h1114v-287h-374v-1161h-363v1161h-377z" />
<glyph unicode="U" horiz-adv-x="1492" d="M127 639v807h365v-901q0 -55 4 -100.5t22 -79.5q35 -57 100.5 -78t133.5 -21q92 0 142 28t72.5 70t27.5 91t5 92v899h363v-807q0 -53 -2 -104.5t-10.5 -103.5t-24.5 -102t-47 -100q-59 -94 -141 -146t-163 -77.5t-146.5 -32t-88.5 -6.5q-82 0 -172 19.5t-164 58.5 q-104 53 -160.5 125t-83 151.5t-29.5 161.5t-3 156z" />
<glyph unicode="V" horiz-adv-x="1366" d="M-2 1446h385l299 -1028l297 1028h385l-502 -1446h-368z" />
<glyph unicode="W" horiz-adv-x="2004" d="M0 1446h360q39 -172 67 -296t48.5 -218t34.5 -164t25.5 -132.5t20.5 -124.5t19 -140q20 106 35 178t29 136.5t32.5 135t47.5 178.5l119 447h319q33 -117 65.5 -233.5t67.5 -233.5q31 -104 49.5 -172t32.5 -129.5t27.5 -130t30.5 -172.5q16 106 27 177t23.5 135.5t28 136 t39.5 182.5q23 111 47.5 220t46.5 220h359l-367 -1446h-372q-35 121 -68 239.5t-68 237.5q-29 100 -46 158.5t-29.5 104.5t-22.5 93.5t-27 122.5q-14 -68 -23 -109.5t-21.5 -87.5t-30 -106.5t-47.5 -165.5l-140 -487h-372z" />
<glyph unicode="X" horiz-adv-x="1579" d="M0 0l559 784l-481 662h428l278 -436l283 436h420l-477 -662l563 -784h-414l-371 547l-374 -547h-414z" />
<glyph unicode="Y" horiz-adv-x="1449" d="M4 1446h416l311 -496q6 14 11.5 25.5t11.5 22l14 24.5t23 37l247 387h412l-547 -762v-684h-356v674z" />
<glyph unicode="Z" horiz-adv-x="1280" d="M10 0v270l801 893h-733v283h1167v-283l-788 -878h784v-285h-1231z" />
<glyph unicode="[" horiz-adv-x="724" d="M139 -213v1659h545v-164h-278v-1327h276v-168h-543z" />
<glyph unicode="\" horiz-adv-x="980" d="M33 1446h291l622 -1446h-291z" />
<glyph unicode="]" horiz-adv-x="724" d="M43 -47h279v1327h-277v166h543v-1659h-545v166z" />
<glyph unicode="^" horiz-adv-x="1366" d="M199 664l399 782h186l383 -782h-241l-238 501l-250 -501h-239z" />
<glyph unicode="_" horiz-adv-x="1024" d="M-20 -154h1064v-102h-1064v102z" />
<glyph unicode="`" horiz-adv-x="555" d="M12 1475h379l152 -273h-207z" />
<glyph unicode="a" horiz-adv-x="1193" d="M90 297q0 63 22.5 114.5t56.5 89.5t74 63.5t72 39.5q33 14 84.5 27.5t109.5 26t118.5 23.5t109.5 21v58q-2 18 -5 40.5t-14 43t-35 34t-67 13.5q-53 0 -83.5 -14.5t-48 -34t-24.5 -41t-9 -35.5h-316q4 55 22.5 117.5t90.5 120.5q74 59 165 76.5t185 17.5q49 0 125 -9.5 t148.5 -41t124 -92t51.5 -164.5v-623q0 -43 1 -69.5t5 -44t9 -29t15 -25.5h-309v98q-31 -23 -63.5 -45t-71.5 -40.5t-86 -30t-107 -11.5q-92 0 -158.5 30t-108.5 77t-62.5 105.5t-20.5 113.5zM399 311q0 -39 32 -73.5t87 -34.5q29 0 56.5 9t52.5 26q39 25 60.5 55.5t32.5 65 t14 73.5t3 80l-202 -68q-20 -8 -44 -18t-44.5 -25.5t-34 -37t-13.5 -52.5z" />
<glyph unicode="b" horiz-adv-x="1280" d="M141 0v1448h308v-475q16 18 40.5 39.5t61.5 42t87 34t118 13.5q63 0 143 -25.5t148.5 -87t115.5 -167t47 -265.5q0 -82 -15 -170t-50 -160q-20 -45 -55 -91t-85.5 -83t-115 -59.5t-144.5 -22.5q-72 0 -124 16.5t-88.5 39t-61.5 46t-39 40.5l12 -113h-303zM440 545 q0 -59 10.5 -126t38.5 -114q31 -49 82.5 -74.5t104.5 -25.5q63 0 103 27.5t61 52.5q20 29 33.5 66.5t19.5 75.5t8 69.5t2 50.5q0 63 -11 123.5t-38 105.5q-26 46 -70 72q-38 23 -95 23q-8 0 -17 -1q-86 -4 -133 -47t-68.5 -96t-26 -105.5t-4.5 -76.5z" />
<glyph unicode="c" horiz-adv-x="1024" d="M68 524q0 117 33.5 221.5t101 182.5t168 124t233.5 46q45 0 102.5 -8.5t120 -36t123 -77.5t111.5 -134l-234 -133q-14 29 -32.5 56.5t-57.5 55.5q-23 16 -52.5 26.5t-66.5 10.5q-63 0 -107 -32.5t-70.5 -81t-38 -104.5t-11.5 -105q0 -53 13.5 -109.5t42 -104t73.5 -77 t109 -29.5q6 0 22.5 1t39 8t48 21.5t49.5 43.5q20 23 29.5 43t18.5 43l237 -123q-29 -47 -65.5 -95t-102.5 -96q-61 -43 -138 -69.5t-169 -26.5q-78 0 -170 25.5t-172 90t-134 172t-54 271.5z" />
<glyph unicode="d" d="M66 528q0 152 38.5 259.5t102 177t143.5 101.5t160 32q53 0 96 -11.5t77 -28t60.5 -34.5t49.5 -35v457h305v-1446h-287v100q-18 -18 -44 -40.5t-60.5 -42t-79.5 -33t-105 -13.5q-80 0 -158.5 31t-142.5 92q-59 55 -90 121t-46 126t-17 110.5t-2 76.5zM385 535 q0 -55 9 -115t32 -108t61.5 -78.5t98.5 -30.5q53 0 102 33q41 29 63.5 70.5t33 84.5t12.5 82t2 62q0 18 -1 49.5t-7.5 69.5t-20.5 76t-39 69q-10 14 -43 38.5t-80 24.5q-55 0 -94 -21.5t-63.5 -53t-38 -71.5t-19.5 -76t-7 -64.5t-1 -40.5z" />
<glyph unicode="e" horiz-adv-x="1193" d="M66 514q0 96 26.5 200.5t90 190.5t169 142.5t262.5 56.5q25 0 68 -3t97.5 -18.5t111.5 -46t108 -86.5q51 -55 81 -120.5t45.5 -130t19.5 -124t6 -104.5h-764q0 -49 13.5 -97t44 -86t76.5 -60.5t110 -22.5q63 0 108 18.5t76 47t51.5 61.5t34.5 61l238 -121 q-29 -41 -58.5 -80.5t-70.5 -78.5q-70 -66 -172.5 -109t-231.5 -43q-119 0 -218 37t-171 107.5t-111.5 174t-39.5 234.5zM389 668h436q-4 35 -14 75.5t-45 75.5q-29 29 -71 44.5t-83 15.5q-57 0 -97 -22.5t-62 -47.5q-33 -35 -44.5 -71t-19.5 -70z" />
<glyph unicode="f" horiz-adv-x="724" d="M20 852v192h170v132q0 41 7.5 90t38.5 92q29 41 96 74.5t178 33.5q47 0 94 -6l94 -12v-236h-75q-45 0 -70 -6t-37 -24.5t-14 -51t-2 -86.5h211v-192h-209v-852h-314v852h-168z" />
<glyph unicode="g" d="M63 563q0 80 21.5 172t74 171t139.5 130t220 51q61 0 107.5 -12t80 -29.5t57 -38t42.5 -36.5v100h295v-1028q-2 -43 -6 -90t-19.5 -92t-48.5 -87t-90 -75q-41 -25 -89 -41t-97.5 -25.5t-95.5 -12.5t-83 -3q-160 0 -263 44t-146 89q-31 31 -48.5 65.5t-24.5 68.5t-8 63.5 t-1 52.5h326q2 -18 4 -38.5t11 -41t27.5 -40t49.5 -34.5q16 -8 39.5 -14t60.5 -6q72 0 111 19.5t56 48t20 64.5t3 69v114q-23 -16 -49 -31.5t-60 -28.5t-76 -21.5t-97 -8.5q-66 0 -128.5 17.5t-115.5 52.5q-109 70 -154 186.5t-45 255.5zM389 565q0 -35 4 -82t23.5 -90 t59.5 -73.5t114 -30.5q59 0 98 21.5t60.5 59.5t29.5 88t8 107q0 18 -1 47t-5 57.5t-12 57.5t-20 47q-18 29 -62 56q-37 23 -94 23q-8 0 -17 -1q-55 -2 -92 -25.5t-57 -62.5t-28.5 -90t-8.5 -109z" />
<glyph unicode="h" d="M139 0v1448h316v-492q16 16 42.5 41t63.5 47.5t87 38t114 15.5q59 0 119.5 -17.5t107.5 -58.5q72 -59 91.5 -137t19.5 -183v-702h-314v559q0 66 -2 100.5t-12 63.5q-12 37 -31.5 57.5t-41 31.5t-42 14t-32.5 3q-41 0 -75 -17t-54 -44q-31 -41 -36 -103.5t-5 -132.5v-532 h-316z" />
<glyph unicode="i" horiz-adv-x="598" d="M143 0v1071h312v-1071h-312zM143 1204v244h312v-244h-312z" />
<glyph unicode="j" horiz-adv-x="598" d="M0 -113h21q38 0 61 5q29 8 42 25t15 48t2 74v1030h312v-1057q0 -68 -5.5 -135t-34 -121.5t-91 -87.5t-177.5 -33l-145 3v249zM141 1204v242h312v-242h-312z" />
<glyph unicode="k" horiz-adv-x="1193" d="M137 0v1446h309v-744l347 367h378l-368 -381l416 -688h-365l-274 461l-136 -127v-334h-307z" />
<glyph unicode="l" horiz-adv-x="598" d="M139 0v1446h316v-1446h-316z" />
<glyph unicode="m" horiz-adv-x="1835" d="M137 0v1067h312v-111q14 16 36.5 40t59.5 46.5t87 38t120 15.5q66 0 112.5 -11.5t80.5 -29t57.5 -40t46.5 -44.5q23 18 51 40.5t66 41t87.5 31t112.5 12.5q66 0 116 -14.5t87 -38t60.5 -50t35.5 -51.5q20 -43 24.5 -101.5t4.5 -144.5v-696h-312v561q0 47 -1 99.5 t-11 82.5q-10 33 -29.5 52.5t-40 30t-40 12.5t-27.5 2q-23 0 -51.5 -7.5t-51.5 -25.5q-45 -35 -52 -86t-7 -139v-582h-311v633q0 35 -4 78t-27 73q-18 25 -51 40.5t-72 15.5q-18 0 -40.5 -5.5t-45.5 -19.5q-27 -18 -41 -41.5t-21 -51.5t-8 -57.5t-1 -56.5v-608h-312z" />
<glyph unicode="n" d="M143 0v1067h318v-94q23 25 44 44t62 40q37 16 87.5 27.5t107.5 11.5q47 0 98 -10.5t92 -32.5q84 -45 113 -121t29 -201v-731h-314v602q0 72 -2 104.5t-12 55.5q-18 43 -56 62.5t-85 19.5q-61 0 -95 -22.5t-49.5 -60.5t-18.5 -86t-3 -97v-578h-316z" />
<glyph unicode="o" horiz-adv-x="1280" d="M66 537q0 123 38.5 229t115.5 184q76 78 192 119q97 34 221 34q24 0 49 -1q164 -10 267.5 -71.5t162.5 -147.5t80.5 -179.5t21.5 -166.5q0 -102 -30.5 -203t-99 -182.5t-178 -132t-265.5 -50.5q-113 0 -217.5 33t-184 102.5t-126.5 177t-47 255.5zM383 539 q0 -63 15.5 -122t47 -103t80.5 -69.5t115 -25.5q63 0 111.5 23.5t80 65.5t47 97.5t15.5 118.5q0 182 -88 269q-25 23 -50.5 36t-50 18t-46.5 6h-13q-13 0 -24 -1q-68 -4 -111 -28.5t-76 -75.5q-29 -47 -41 -100.5t-12 -108.5z" />
<glyph unicode="p" d="M131 -371v1436h281v-100q8 10 15 18t15 16q41 39 110 67t159 28q98 0 183 -37t147.5 -107.5t98.5 -174t36 -236.5q0 -82 -20.5 -179.5t-73 -182.5t-142.5 -141t-227 -56q-45 0 -80 7t-65.5 19t-59.5 28.5t-59 35.5v-441h-318zM434 532q0 -102 22.5 -165.5t53.5 -98.5 q29 -29 65.5 -45t75.5 -16q57 0 99.5 28.5t69 75.5t39.5 106.5t13 123.5q0 53 -8 105t-27.5 97t-51 77t-80.5 44q-23 6 -43 6q-43 0 -85 -19.5t-77 -66.5q-35 -45 -50.5 -110.5t-15.5 -141.5z" />
<glyph unicode="q" d="M63 522q0 141 37 249t99.5 180.5t146.5 109.5t180 37q55 0 97.5 -11.5t76 -29t60 -39t51.5 -41.5v90h287v-1436h-316v445l-38.5 -27.5t-58.5 -33t-79 -27t-100 -11.5q-80 0 -160 32t-142.5 98.5t-101.5 170t-39 244.5zM375 539q0 -72 16.5 -131.5t46 -103.5t68.5 -68.5 t84 -24.5q41 0 80 19.5t69.5 60.5t49 104.5t18.5 151.5q0 160 -60.5 242.5t-152.5 82.5q-23 0 -60.5 -11t-72.5 -47t-60.5 -101.5t-25.5 -173.5z" />
<glyph unicode="r" horiz-adv-x="768" d="M135 0v1071h307v-113q27 23 55.5 42.5t64.5 36t82 27.5t108 17v-278l-105 -17q-57 -10 -95 -21t-60.5 -30.5t-31.5 -50.5t-9 -82v-602h-316z" />
<glyph unicode="s" horiz-adv-x="1067" d="M-4 180l199 180q66 -63 143.5 -105t167.5 -42q29 0 61.5 5t61 17.5t48 32t19.5 49.5q0 29 -13 41.5t-28 20.5q-35 18 -85 25.5t-97 15.5q-35 6 -71.5 14t-71.5 19q-49 14 -96.5 35.5t-81.5 56.5q-35 35 -57.5 88t-22.5 112q0 66 28.5 130.5t85 114.5t140.5 82t196 32 q94 0 170 -17.5t135.5 -43t101.5 -53t70 -46.5l-194 -180q-76 59 -144.5 82.5t-123.5 23.5q-47 0 -76 -8t-46.5 -20.5t-23.5 -25.5t-6 -25q0 -47 46 -62.5t124 -30.5q80 -14 163 -34.5t150.5 -59.5t109.5 -100.5t42 -155.5t-44 -164.5t-114.5 -117t-162 -70t-185.5 -23.5 q-111 0 -197 23.5t-148.5 56.5t-105.5 68t-67 59z" />
<glyph unicode="t" horiz-adv-x="724" d="M23 854v193h155v331h314v-334h206v-192h-209v-481v-46.5t8.5 -39t26 -26.5t47.5 -9l113 4v-246q-51 -8 -87 -12t-79 -4q-41 0 -83 2t-80 13t-72.5 31.5t-59.5 57.5q-33 47 -39 105.5t-6 136.5v516h-155z" />
<glyph unicode="u" d="M131 397v672h318v-663q0 -35 3 -69t21 -58q14 -18 46 -36t79 -18q14 0 44 3t65 24q51 31 60 69.5t11 81.5v666h316v-1069h-316v102q-23 -27 -43 -44t-63 -40q-96 -49 -203 -49q-27 0 -61.5 3t-72.5 14.5t-75 34t-63 61.5q-20 29 -33.5 57.5t-21 64.5t-9.5 82t-2 111z" />
<glyph unicode="v" horiz-adv-x="1024" d="M0 1069h332q49 -178 79.5 -292.5t50 -197.5t33 -147.5t25.5 -140.5q16 88 26.5 145.5t22 107.5t25.5 109.5t39 153.5l65 262h324l-346 -1069h-330z" />
<glyph unicode="w" horiz-adv-x="1622" d="M0 1069h332l149 -747l162 747h336l145 -754l168 754h326l-320 -1069h-342l-157 713l-160 -713h-346z" />
<glyph unicode="x" horiz-adv-x="1067" d="M0 0l362 580l-323 489h356l142 -272l151 272h338l-324 -500l363 -569h-336l-203 332l-178 -332h-348z" />
<glyph unicode="y" horiz-adv-x="1024" d="M0 1069h336l176 -766l176 766h336l-377 -1155q-18 -53 -38.5 -101.5t-61.5 -93.5q-55 -59 -110.5 -71.5t-117.5 -14.5h-227v250h111q18 0 41.5 2t43 9.5t33 22.5t13.5 44q0 20 -5 39.5t-10 36.5z" />
<glyph unicode="z" horiz-adv-x="1110" d="M70 0v238l577 589h-516v242h916v-242l-570 -581h570v-246h-977z" />
<glyph unicode="{" horiz-adv-x="724" d="M72 559v109q59 12 92 46t48 80t17 99t2 104v93q0 66 1 114.5t8.5 88.5t23 72t41.5 60q33 35 71 54.5t88 29t112.5 11.5t144.5 2v-111q-35 -8 -70 -17.5t-63 -31.5q-33 -23 -51.5 -50.5t-26.5 -62.5t-10 -80t-2 -102v-47q0 -61 -1 -99t-3 -65t-7.5 -46t-13.5 -42 q-16 -45 -40.5 -72.5t-51.5 -44t-53.5 -25t-44.5 -14.5q16 -4 41.5 -12t52 -24.5t52.5 -43t42 -65.5q10 -23 15.5 -46.5t8.5 -52t4 -67.5t1 -92v-51q0 -68 2 -110t14 -79q12 -41 31.5 -66.5t46.5 -42t58.5 -26.5t68.5 -20v-111q-74 0 -136.5 2t-114.5 11.5t-94 31t-75 57.5 q-51 57 -59.5 131t-8.5 170v101q0 49 -1 78.5t-2 50t-3 34t-4 27.5q-16 57 -55 101.5t-96 60.5z" />
<glyph unicode="|" horiz-adv-x="468" d="M104 -512v2048h261v-2048h-261z" />
<glyph unicode="}" horiz-adv-x="724" d="M37 -186q35 8 69.5 17t63.5 32q33 23 51.5 50.5t26.5 62t10 79.5t2 103v47q0 61 1 99t3 64.5t7 46t14 42.5q16 45 40.5 72.5t51 44t53.5 24.5t45 14q-16 4 -41.5 12.5t-52.5 25t-52.5 42t-41.5 66.5q-10 23 -15.5 46t-8.5 52t-4 68t-1 92v51q0 68 -2 110t-14 78 q-12 41 -32 67t-46.5 42t-58 26.5t-68.5 20.5v111q74 0 136.5 -2t114.5 -11.5t94 -31t75 -58.5q51 -57 59 -131t8 -170v-100q0 -49 1 -79t2 -50.5t2 -33.5t6 -28q16 -57 55 -101t96 -60v-109q-59 -12 -92 -46t-48.5 -80t-17.5 -99t-2 -105v-92q0 -66 -1 -115t-8 -89 t-22.5 -71.5t-41.5 -60.5q-33 -35 -71 -54t-88 -28.5t-112.5 -11.5t-144.5 -2v111z" />
<glyph unicode="~" horiz-adv-x="1366" d="M168 604q12 16 34.5 47t59.5 60.5t87 52t116 22.5q57 0 105 -17t114 -48l70 -33q33 -14 71.5 -28.5t77.5 -14.5q63 0 112.5 40t88.5 87l94 -182q-18 -20 -47 -49t-66.5 -54.5t-85 -44t-102.5 -18.5q-53 0 -101 18.5t-110 46.5l-59 29q-43 20 -80 33.5t-78 13.5 q-31 0 -54.5 -7t-45 -23.5t-46 -43t-57.5 -65.5z" />
<glyph unicode="&#xa1;" horiz-adv-x="598" d="M84 0v420l96 532h137l93 -518v-434h-326zM84 1102v344h326v-344h-326z" />
<glyph unicode="&#xa2;" horiz-adv-x="1110" d="M66 526q0 129 37.5 231.5t103 174.5t152.5 112.5t188 47.5v229h158v-231q82 -12 142 -42t104 -66t74 -73t52 -67l-233 -135q-23 37 -39.5 60.5t-31.5 37.5t-31.5 22.5t-36.5 14.5v-619q53 14 82.5 48t64.5 102l233 -121q-20 -35 -48.5 -76t-72.5 -81t-106.5 -72.5 t-152.5 -49.5v-243h-158v239q-80 8 -166 41t-155.5 97.5t-114.5 167t-45 251.5zM391 535q0 -82 18.5 -136.5t44 -89.5t51 -52t42.5 -26v611q-43 -18 -73 -54t-48 -79t-26.5 -89.5t-8.5 -84.5z" />
<glyph unicode="&#xa3;" horiz-adv-x="1409" d="M33 217q0 51 22.5 98t65.5 83t106.5 57.5t145.5 21.5q35 0 63.5 -4t63.5 -8q-12 27 -21.5 45t-17.5 33.5t-19.5 31t-25.5 37.5h-297v201h157q-47 72 -60 134.5t-13 96.5q0 45 14 92.5t44 92.5t77 83t115 64q45 16 119.5 31.5t203.5 15.5q104 0 177 -16t122 -38.5 t76 -46.5t39 -38q33 -37 51.5 -85t27.5 -94t12 -87t3 -64l-313 -22q-2 47 -8.5 91t-28 77t-62.5 52t-112 19q-12 0 -47 -3t-72 -18t-65.5 -48t-28.5 -94q0 -59 30.5 -108.5t59.5 -86.5h319v-201h-184q18 -33 35.5 -79t17.5 -117q0 -41 -8 -88q41 -29 67.5 -51.5t67.5 -22.5 q66 0 82.5 63.5t20.5 167.5l299 -22q-6 -106 -21.5 -203.5t-66.5 -169.5q-27 -35 -75 -68.5t-132 -33.5q-94 0 -174 44t-166 103q-14 -18 -41 -46t-70 -54.5t-105.5 -46t-146.5 -19.5q-59 0 -117.5 14.5t-104.5 45t-73.5 78t-27.5 110.5zM256 227q0 -37 27.5 -58.5 t66.5 -21.5q16 0 32.5 4.5t33.5 10.5q43 23 60.5 50t33.5 60q-29 14 -63.5 26.5t-75.5 12.5q-59 0 -87 -27.5t-28 -56.5z" />
<glyph unicode="&#xa4;" horiz-adv-x="1366" d="M12 219l168 166q-12 20 -27.5 48t-28.5 65t-22.5 86t-9.5 110t9.5 110.5t21.5 86.5t27.5 64.5t27.5 48.5l-162 163l193 195l164 -164q18 10 45.5 25.5t66.5 29t88.5 23.5t110.5 10t109.5 -9t86.5 -23.5t65.5 -29t47.5 -26.5l164 164l197 -195l-168 -163q12 -18 26.5 -47 t28.5 -67t23.5 -86t9.5 -110q0 -123 -32 -196.5t-56 -114.5l166 -168l-197 -195l-164 168q-18 -10 -47 -25.5t-66.5 -28.5t-86 -22.5t-107.5 -9.5q-61 0 -110.5 9.5t-88.5 24t-66.5 29.5t-45.5 25l-166 -165zM348 694q0 -82 30 -144.5t78 -105.5t108.5 -65.5t121.5 -22.5 q68 0 128 25t105.5 70t72 107t26.5 136q0 80 -28.5 142.5t-76 105.5t-108 66.5t-121.5 23.5t-121.5 -22.5t-107.5 -65.5t-77 -105.5t-30 -144.5z" />
<glyph unicode="&#xa5;" horiz-adv-x="1449" d="M4 1417h416l309 -483l309 483h412l-354 -483h174v-221h-336l-31 -43v-99h367v-221h-367v-350h-356v350h-369v221h369v88l-37 54h-332v221h172z" />
<glyph unicode="&#xa6;" horiz-adv-x="468" d="M104 358h261v-716h-261v716zM104 666v716h261v-716h-261z" />
<glyph unicode="&#xa7;" d="M43 606q0 61 27 125q33 76 82 116t98 73q-33 41 -55.5 78.5t-22.5 101.5q0 41 10.5 72.5t20.5 54.5q29 57 71.5 93t92 56.5t103.5 28.5t103 8q88 0 165 -16.5t146.5 -42t131 -57t117.5 -62.5l-201 -160q-66 35 -153 72t-191 37q-41 0 -76 -12.5t-35 -47.5q0 -18 15 -39 q10 -16 43.5 -33.5t107.5 -52.5q53 -25 104.5 -47t104.5 -47q82 -39 147.5 -78t110.5 -84t69.5 -98t24.5 -121t-21.5 -121t-53 -93t-66.5 -68.5t-62 -48.5q29 -41 49.5 -79t20.5 -96q0 -59 -27.5 -115.5t-78 -99.5t-122 -69.5t-159.5 -26.5q-63 0 -151.5 15.5t-180.5 50.5 q-84 31 -139 62.5t-104 62.5l198 161q35 -20 77 -41.5t87 -39t92 -28.5t92 -11q41 0 64.5 9t35 21.5t13.5 22.5t2 12q0 6 -2 14.5t-16.5 21.5t-44 31.5t-84.5 45.5q-41 18 -82 37.5t-84 40.5q-55 25 -108.5 49t-106.5 57q-16 10 -50 33.5t-67 61.5t-57.5 90.5t-24.5 119.5z M326 659q0 -8 5 -34.5t36 -59.5q12 -12 22 -20t33.5 -20.5t69 -33t124.5 -57.5q72 -35 117 -58.5t101 -53.5q29 29 56.5 62.5t27.5 84.5q0 66 -58.5 106.5t-173.5 92.5q-41 20 -76 36.5t-65.5 32l-61 31t-65.5 33.5q-29 -20 -60.5 -52t-31.5 -90z" />
<glyph unicode="&#xa8;" horiz-adv-x="555" d="M-139 1223v254h321v-254h-321zM375 1223v254h321v-254h-321z" />
<glyph unicode="&#xa9;" horiz-adv-x="1705" d="M125 723q0 156 58.5 290t158.5 231t232.5 152.5t279.5 55.5q158 0 292 -58.5t231.5 -158.5t151.5 -233t54 -283q0 -152 -57.5 -284t-155.5 -230.5t-231 -154.5t-287 -56q-141 0 -273.5 53t-232.5 149.5t-160.5 230.5t-60.5 296zM190 723q0 -139 52.5 -261t142.5 -211 t211 -140.5t258 -51.5q141 0 262 52.5t210 141.5t140.5 209t51.5 257t-49.5 258t-137.5 212t-210 144t-263 53t-263 -52t-212 -142t-141.5 -211t-51.5 -258zM358 723q0 104 35 197.5t100.5 164t161 111.5t215.5 41q84 0 148.5 -18.5t113 -45t83 -56.5t57.5 -54l-178 -172 q-47 47 -100.5 73.5t-125.5 26.5q-68 0 -117 -23.5t-79.5 -60.5t-45 -85t-14.5 -97q0 -119 70 -191.5t190 -72.5q45 0 81 10t63.5 24.5t46 30t31.5 27.5l178 -164q-98 -102 -198.5 -137t-203.5 -35q-127 0 -222 41t-159.5 110.5t-97.5 161t-33 193.5z" />
<glyph unicode="&#xaa;" horiz-adv-x="681" d="M76 1044q0 57 25.5 93.5t59.5 56.5t67.5 28.5t47.5 10.5q27 6 53.5 10t53.5 10l39 11q0 8 -1 22t-7 27.5t-21.5 23t-44.5 9.5q-47 0 -60.5 -24t-15.5 -40h-174q2 25 8.5 53.5t28.5 57.5q33 41 86 56t119 15q45 0 101.5 -10t97.5 -45q16 -14 31.5 -38.5t15.5 -74.5v-354 q2 -23 5 -32t15 -25h-174q-2 16 -2 23v26q-29 -23 -64.5 -41.5t-95.5 -18.5q-92 0 -143 49.5t-51 120.5zM248 1053q0 -2 1 -10.5t7 -16.5t17.5 -15t31.5 -7q49 0 80 30q27 27 31 56.5t4 58.5q-49 -14 -82 -23.5t-53.5 -19.5t-28.5 -22.5t-8 -30.5z" />
<glyph unicode="&#xab;" horiz-adv-x="854" d="M66 473v254l327 274v-282l-133 -117l133 -117v-280zM451 471v256l323 274v-282l-139 -117l139 -117v-280z" />
<glyph unicode="&#xac;" horiz-adv-x="1366" d="M2 465v260h1364v-725h-260v465h-1104z" />
<glyph unicode="&#xad;" horiz-adv-x="724" d="M106 457v293h508v-293h-508z" />
<glyph unicode="&#xae;" horiz-adv-x="1705" d="M125 723q0 158 58.5 291t158.5 230t232.5 152.5t279.5 55.5q158 0 292 -58.5t231.5 -158.5t151.5 -232t54 -282q0 -152 -57.5 -285t-155.5 -231.5t-231 -154.5t-287 -56q-141 0 -273.5 53t-232.5 149.5t-160.5 230.5t-60.5 296zM190 723q0 -139 52.5 -261t142.5 -211 t211 -140.5t258 -51.5q141 0 262 52.5t210 141.5t140.5 210t51.5 258q0 135 -49.5 257t-137.5 212t-210 143t-263 53t-263 -52t-212 -142t-141.5 -211t-51.5 -258zM514 262v938h334q59 0 116.5 -3t104.5 -19q90 -29 128 -97.5t38 -134.5q0 -53 -17.5 -89t-42 -60.5t-53 -40 t-51.5 -25.5q20 -14 36.5 -26.5t29 -31t21.5 -47t18 -71.5q14 -96 29.5 -162.5t49.5 -130.5h-258q-23 43 -32 92t-19 111q-10 66 -17 103.5t-23.5 56t-46.5 23.5t-81 7h-39v-393h-225zM739 834h99q51 0 80.5 3t50.5 15q23 12 32 35.5t9 46.5t-10.5 47.5t-38.5 36.5 q-10 4 -19.5 6t-26 3t-42 1h-66.5h-68v-194z" />
<glyph unicode="&#xaf;" horiz-adv-x="555" d="M-139 1223v207h835v-207h-835z" />
<glyph unicode="&#xb0;" horiz-adv-x="724" d="M10 1176q0 74 28 137t76 111.5t111.5 76t136.5 27.5q74 0 137.5 -27.5t111.5 -76t76 -112t28 -136.5q0 -74 -28 -137.5t-76 -111.5t-111.5 -76t-137.5 -28t-137 28t-111 76t-76 111.5t-28 137.5zM248 1176q0 -47 33.5 -81t80.5 -34t81 33.5t34 81.5q0 47 -33.5 80.5 t-81.5 33.5q-47 0 -80.5 -33.5t-33.5 -80.5z" />
<glyph unicode="&#xb1;" horiz-adv-x="1366" d="M86 0v260h1194v-260h-1194zM86 760v260h469v426h260v-426h465v-260h-465v-428h-260v428h-469z" />
<glyph unicode="&#xb2;" horiz-adv-x="768" d="M47 1061q0 45 4 95t31 104q35 72 102.5 110.5t169.5 38.5q33 0 72 -5t80 -22q49 -18 83 -50t54.5 -68.5t29.5 -76.5t9 -75q0 -111 -62.5 -200t-175.5 -177q-23 -18 -46 -36.5t-48 -34.5h336v-181h-629v168q106 82 181 145.5t123.5 117t70 103.5t21.5 105q0 47 -23.5 81 t-69.5 34q-53 0 -74.5 -41t-21.5 -82q0 -18 2 -33.5t6 -31.5z" />
<glyph unicode="&#xb3;" horiz-adv-x="768" d="M45 797l217 18q0 -10 -1 -20.5t-1 -20.5q0 -66 33 -100.5t78 -34.5q51 0 82.5 35t31.5 86q0 23 -6 43t-20 37q-29 35 -68 40t-72 3v161q10 0 21.5 -1t21.5 -1q47 0 75 26t28 73t-27.5 72.5t-66.5 25.5q-35 0 -52.5 -16.5t-25.5 -38t-9 -44t-1 -34.5l-220 20 q6 39 19.5 88.5t47.5 92.5t94.5 72.5t164.5 29.5q141 0 218 -68.5t77 -171.5q0 -55 -16.5 -91t-40 -59.5t-47 -34.5t-35.5 -15q16 -6 43.5 -17.5t55.5 -35t48.5 -62.5t20.5 -98q0 -53 -18.5 -104.5t-59.5 -92.5t-105.5 -66.5t-156.5 -25.5q-125 0 -192.5 39t-97.5 92 t-34 108.5t-4 90.5z" />
<glyph unicode="&#xb4;" horiz-adv-x="555" d="M16 1200l150 273h373l-314 -273h-209z" />
<glyph unicode="&#xb5;" d="M131 -434v1503h318v-651q0 -35 5 -69t25 -62q16 -23 48 -42.5t85 -19.5q57 0 91 23.5t50.5 54.5t20.5 59.5t4 40.5v664h316v-1067h-316v102q-10 -18 -24.5 -40.5t-37 -42t-55 -34t-77.5 -14.5q-53 0 -84 17.5t-51 34.5v-457h-318z" />
<glyph unicode="&#xb6;" horiz-adv-x="1366" d="M264 1006q0 27 3 65.5t17.5 83.5t41 91t73.5 89q43 39 88 61.5t88 33t82 13.5t70 3h512v-160h-74v-1628h-172v1628h-241v-1628h-172v940q-35 10 -79 25.5t-91 52.5q-74 59 -110 146t-36 184z" />
<glyph unicode="&#xb7;" horiz-adv-x="512" d="M92 428v342h324v-342h-324z" />
<glyph unicode="&#xb8;" horiz-adv-x="555" d="M78 -297l57 47q16 -23 43 -44t68 -21q29 0 50 17t21 46q0 35 -31.5 58.5t-82.5 23.5q-14 0 -27.5 -2t-28.5 -4l-24 37l65 121h97l-43 -91q18 2 38.5 4.5t41.5 2.5q51 0 82.5 -16.5t47 -38t20.5 -44t5 -35.5q0 -35 -15.5 -65.5t-43 -53t-63.5 -35.5t-74 -13 q-59 0 -111.5 29.5t-91.5 76.5z" />
<glyph unicode="&#xb9;" horiz-adv-x="768" d="M98 1106v149q66 2 110 10.5t73.5 25t49 40t38.5 55.5h174v-903h-226v650q-41 -14 -85 -20.5t-134 -6.5z" />
<glyph unicode="&#xba;" horiz-adv-x="724" d="M61 1169q0 59 17.5 112.5t53.5 93.5t90 64.5t128 26.5q96 2 156.5 -30.5t94.5 -79.5t46 -98.5t12 -88.5q0 -35 -11 -90t-44 -102q-49 -68 -118.5 -89.5t-127.5 -21.5q-51 0 -104 14.5t-96 50.5t-70 94t-27 144zM233 1165q0 -29 7.5 -57.5t23 -51t40 -36.5t58.5 -14 q10 0 27 1t33 11q29 16 46 55t17 92q0 31 -7 60.5t-22.5 52t-40 37t-61.5 12.5q-20 -2 -46.5 -10t-49.5 -43q-12 -20 -18.5 -50t-6.5 -59z" />
<glyph unicode="&#xbb;" horiz-adv-x="854" d="M74 197v282l139 119l-139 117v278l323 -264v-256zM457 197v282l131 119l-131 117v278l325 -268v-252z" />
<glyph unicode="&#xbc;" horiz-adv-x="1792" d="M98 1106v149q66 2 110 10.5t73.5 25t49 40t38.5 55.5h174v-905h-226v652q-41 -14 -85 -20.5t-134 -6.5zM430 0l768 1477l164 -86l-770 -1475zM1047 201v172l378 532h213v-545h119v-159h-121v-201h-217v201h-372zM1217 360h204v308q-20 -33 -38.5 -65t-41.5 -64 q-29 -45 -60.5 -89t-63.5 -90z" />
<glyph unicode="&#xbd;" horiz-adv-x="1792" d="M98 1106v149q66 2 110 10.5t73.5 25t49 40t38.5 55.5h174v-905h-226v652q-41 -14 -85 -20.5t-134 -6.5zM381 0l768 1477l164 -86l-770 -1475zM1071 578q0 45 4 95t31 103q35 72 102.5 111t169.5 39q33 0 72 -5.5t80 -21.5q49 -18 83 -50t54.5 -69t29.5 -76.5t9 -74.5 q0 -111 -62.5 -200t-175.5 -177q-23 -18 -46 -36.5t-48 -35.5h336v-180h-629v168q106 82 181 145.5t123.5 116.5t70 103.5t21.5 105.5q0 47 -23.5 81t-69.5 34q-53 0 -74.5 -41t-21.5 -82q0 -18 2 -33.5t6 -32.5z" />
<glyph unicode="&#xbe;" horiz-adv-x="1792" d="M45 797l217 18q0 -10 -1 -20.5t-1 -20.5q0 -66 33 -100.5t80 -34.5q51 0 82.5 35t31.5 86q0 23 -6 43t-20 37q-29 35 -69 40t-70 3v161q10 0 20 -1t20 -1q47 0 75 26t28 73t-27.5 72.5t-66.5 25.5q-35 0 -52.5 -16.5t-25.5 -38t-8 -44v-34.5l-222 20q6 39 19.5 88.5 t47.5 92.5t94.5 72.5t164.5 29.5q141 0 218 -68.5t77 -171.5q0 -55 -16.5 -91t-40 -59.5t-46 -34.5t-34.5 -15q16 -6 43.5 -17.5t55.5 -35t48.5 -62.5t20.5 -98q0 -53 -18.5 -104.5t-59.5 -92.5t-105.5 -66.5t-156.5 -25.5q-127 0 -193.5 39t-97.5 92t-35 108.5t-4 90.5z M492 0l768 1475l163 -86l-770 -1473zM1049 201v172l376 530h213v-543h119v-159h-121v-201h-217v201h-370zM1217 360h204v306q-20 -33 -38.5 -65t-41.5 -64q-29 -43 -60.5 -87t-63.5 -90z" />
<glyph unicode="&#xbf;" d="M39 360q0 68 18.5 119t46 89t56 63.5t51.5 42.5q57 43 115.5 82t117.5 86q20 16 34 29.5t21 25.5t11 25.5t8 31.5h260q-2 -35 -4 -63.5t-10 -55t-24.5 -53t-47.5 -57.5q-39 -41 -85 -69.5t-89 -61.5q-12 -10 -35.5 -27.5t-45 -43t-38 -58.5t-16.5 -70q0 -23 9 -60.5 t38 -70.5q29 -31 65.5 -42t77.5 -11q61 0 111.5 21.5t89.5 74.5q31 45 37 81t8 65l293 -95q-12 -37 -26.5 -72.5t-36 -71.5t-52 -70.5t-75.5 -65.5q-72 -53 -164 -77t-207 -24q-92 0 -194.5 21.5t-180.5 81.5q-66 51 -101.5 123.5t-35.5 156.5zM483 1104v342h324v-342h-324z " />
<glyph unicode="&#xc0;" horiz-adv-x="1449" d="M-2 0l537 1446h376l533 -1446h-385l-72 231h-532l-72 -231h-385zM397 1839h377l129 -235h-207zM539 492h366l-188 610q-14 -55 -28.5 -111.5t-31.5 -111.5q-12 -41 -27.5 -91.5t-31.5 -102.5t-31.5 -102.5t-27.5 -90.5z" />
<glyph unicode="&#xc1;" horiz-adv-x="1449" d="M-2 0l537 1446h376l533 -1446h-385l-72 231h-532l-72 -231h-385zM539 492h366l-188 610q-14 -55 -28.5 -111.5t-31.5 -111.5q-12 -41 -27.5 -91.5t-31.5 -102.5t-31.5 -102.5t-27.5 -90.5zM551 1602l125 235h368l-296 -235h-197z" />
<glyph unicode="&#xc2;" horiz-adv-x="1449" d="M-2 0l537 1446h376l533 -1446h-385l-72 231h-532l-72 -231h-385zM408 1595l184 236h270l180 -236h-237l-82 105l-78 -105h-237zM539 492h366l-188 610q-14 -55 -28.5 -111.5t-31.5 -111.5q-12 -41 -27.5 -91.5t-31.5 -102.5t-31.5 -102.5t-27.5 -90.5z" />
<glyph unicode="&#xc3;" horiz-adv-x="1449" d="M-2 0l537 1446h376l533 -1446h-385l-72 231h-532l-72 -231h-385zM375 1585q8 53 21.5 107.5t58.5 97.5q23 23 54.5 39t78.5 16t90 -15t65 -26q37 -16 58.5 -25.5t35 -14.5t21.5 -6t19 -1q39 0 57 30t27 50h139q-4 -45 -13.5 -93t-37.5 -89q-16 -20 -52 -50t-94 -30 q-23 0 -61.5 8t-120.5 45q-43 20 -74 31.5t-57 11.5q-23 0 -36 -9t-21.5 -22.5t-12.5 -28t-6 -26.5h-139zM539 492h366l-188 610q-14 -55 -28.5 -111.5t-31.5 -111.5q-12 -41 -27.5 -91.5t-31.5 -102.5t-31.5 -102.5t-27.5 -90.5z" />
<glyph unicode="&#xc4;" horiz-adv-x="1449" d="M-2 0l537 1446h376l533 -1446h-385l-72 231h-532l-72 -231h-385zM326 1595v240h327v-240h-327zM539 492h366l-188 610q-14 -55 -28.5 -111.5t-31.5 -111.5q-12 -41 -27.5 -91.5t-31.5 -102.5t-31.5 -102.5t-27.5 -90.5zM780 1597v238h330v-238h-330z" />
<glyph unicode="&#xc5;" horiz-adv-x="1449" d="M-2 0l537 1446h376l533 -1446h-385l-72 231h-532l-72 -231h-385zM514 1698q0 41 16.5 77.5t44 64.5t63.5 43t77 15q84 0 142 -58t58 -142q0 -41 -15 -77t-43 -63.5t-64.5 -44t-77.5 -16.5t-77 15t-65 44q-59 59 -59 142zM539 492h366l-188 610q-14 -55 -28.5 -111.5 t-31.5 -111.5q-12 -41 -27.5 -91.5t-31.5 -102.5t-31.5 -102.5t-27.5 -90.5zM635 1698q-1 -31 22 -58q27 -23 58 -22q33 0 56.5 22.5t23.5 57.5t-22.5 57.5t-57.5 22.5t-57.5 -22.5t-22.5 -57.5z" />
<glyph unicode="&#xc6;" horiz-adv-x="2304" d="M-10 0l854 1446h1351v-277h-739v-266h690v-276h-688v-344h807v-283h-1169v350h-506l-195 -350h-405zM735 616h361v646z" />
<glyph unicode="&#xc7;" horiz-adv-x="1409" d="M80 725q0 162 52 301t144.5 242.5t221.5 163t282 59.5q123 0 230.5 -39t191.5 -104q76 -59 117 -119t72 -113l-287 -143q-16 35 -39 71.5t-70 77.5q-53 43 -104 57.5t-94 14.5q-86 0 -152.5 -38t-112 -100.5t-69 -145.5t-23.5 -175q0 -117 28 -206t76 -149.5t113.5 -90 t139.5 -29.5q70 0 121 21.5t87.5 53.5t61.5 69.5t43 70.5l285 -145q-41 -63 -87 -125t-132 -121q-188 -131 -418 -127l-31 -66q20 2 39.5 4.5t40.5 2.5q49 0 80 -15.5t48 -36t22.5 -44t5.5 -38.5q0 -35 -15.5 -65.5t-43 -53t-63.5 -35.5t-75 -13q-59 0 -111.5 29.5 t-91.5 76.5l58 47q16 -20 41.5 -42.5t66.5 -22.5q33 0 53.5 17t20.5 46q0 35 -32 58.5t-83 23.5q-14 0 -27.5 -2t-27.5 -4l-27 37l60 104q-174 29 -287 111t-179.5 189.5t-93 229t-26.5 230.5z" />
<glyph unicode="&#xc8;" horiz-adv-x="1323" d="M139 0v1446h1069v-281h-708v-262h661v-274h-661v-344h772v-285h-1133zM334 1839h377l129 -235h-207z" />
<glyph unicode="&#xc9;" horiz-adv-x="1323" d="M139 0v1446h1069v-281h-708v-262h661v-274h-661v-344h772v-285h-1133zM487 1602l125 235h369l-297 -235h-197z" />
<glyph unicode="&#xca;" horiz-adv-x="1323" d="M139 0v1446h1069v-281h-708v-262h661v-274h-661v-344h772v-285h-1133zM344 1595l184 236h271l180 -236h-238l-82 105l-77 -105h-238z" />
<glyph unicode="&#xcb;" horiz-adv-x="1323" d="M139 0v1446h1069v-281h-708v-262h661v-274h-661v-344h772v-285h-1133zM268 1599v240h328v-240h-328zM723 1602v237h330v-237h-330z" />
<glyph unicode="&#xcc;" horiz-adv-x="641" d="M-8 1839h377l129 -235h-207zM137 0v1446h361v-1446h-361z" />
<glyph unicode="&#xcd;" horiz-adv-x="641" d="M137 0v1446h361v-1446h-361zM145 1602l125 235h369l-297 -235h-197z" />
<glyph unicode="&#xce;" horiz-adv-x="641" d="M2 1595l184 236h271l180 -236h-238l-82 105l-77 -105h-238zM137 0v1446h361v-1446h-361z" />
<glyph unicode="&#xcf;" horiz-adv-x="641" d="M-74 1599v240h328v-240h-328zM137 0v1446h361v-1446h-361zM381 1602v237h330v-237h-330z" />
<glyph unicode="&#xd0;" horiz-adv-x="1492" d="M0 698v162h137v586h461q66 0 146.5 -4t163.5 -20.5t165 -50.5t152 -95q113 -102 160 -244.5t47 -296.5q0 -96 -11.5 -163.5t-25.5 -114.5q-33 -111 -86.5 -189t-118 -128t-134 -78.5t-134 -42t-122 -16.5t-93.5 -3h-570v698h-137zM502 291h110q72 2 153 10t148.5 50 t112.5 128t45 244q0 76 -13.5 148.5t-62.5 140.5q-37 49 -80 75.5t-89 38t-91 13.5t-88 2h-145v-281h356v-162h-356v-407z" />
<glyph unicode="&#xd1;" horiz-adv-x="1492" d="M137 0v1446h355l313 -533q43 -76 72.5 -129t53 -96t45 -83t46.5 -87l-16 928h346v-1446h-355l-270 457q-49 80 -81 134t-58.5 100t-52 96.5t-62.5 121.5l10 -909h-346zM397 1585q8 53 21.5 107.5t58.5 97.5q23 23 54.5 39t78.5 16t90 -15t66 -26q37 -16 58.5 -25.5 t34.5 -14.5t21.5 -6t18.5 -1q39 0 57.5 30t26.5 50h139q-4 -45 -13 -93t-38 -89q-16 -20 -52 -50t-93 -30q-23 0 -62 8t-121 45q-43 20 -73.5 31.5t-57.5 11.5q-23 0 -36 -9t-21 -22.5t-12 -28t-6 -26.5h-140z" />
<glyph unicode="&#xd2;" horiz-adv-x="1622" d="M86 729q0 147 46 284.5t136 243t223.5 170t307.5 64.5q66 0 132 -10.5t132 -32.5q111 -39 188.5 -101.5t130 -135t83 -150.5t46 -146.5t19.5 -122t4 -77.5q0 -94 -20.5 -182.5t-57.5 -166t-87 -142t-109 -113.5q-106 -88 -224 -120t-231 -32q-172 0 -306 61.5t-225.5 167 t-139.5 244.5t-48 297zM442 735q0 -129 33 -219t85 -145.5t116.5 -81t128.5 -25.5q63 0 127.5 23.5t116 76t85 132t37.5 194.5t-25.5 221.5t-90.5 171.5q-47 49 -114 78t-140 29q-82 0 -148.5 -34t-112.5 -95.5t-72 -144t-26 -181.5zM483 1839h377l129 -235h-207z" />
<glyph unicode="&#xd3;" horiz-adv-x="1622" d="M86 729q0 147 46 284.5t136 243t223.5 170t307.5 64.5q66 0 132 -10.5t132 -32.5q111 -39 188.5 -101.5t130 -135t83 -150.5t46 -146.5t19.5 -122t4 -77.5q0 -94 -20.5 -182.5t-57.5 -166t-87 -142t-109 -113.5q-106 -88 -224 -120t-231 -32q-172 0 -306 61.5t-225.5 167 t-139.5 244.5t-48 297zM442 735q0 -129 33 -219t85 -145.5t116.5 -81t128.5 -25.5q63 0 127.5 23.5t116 76t85 132t37.5 194.5t-25.5 221.5t-90.5 171.5q-47 49 -114 78t-140 29q-82 0 -148.5 -34t-112.5 -95.5t-72 -144t-26 -181.5zM637 1602l125 235h368l-296 -235h-197z " />
<glyph unicode="&#xd4;" horiz-adv-x="1622" d="M86 729q0 147 46 284.5t136 243t223.5 170t307.5 64.5q66 0 132 -10.5t132 -32.5q111 -39 188.5 -101.5t130 -135t83 -150.5t46 -146.5t19.5 -122t4 -77.5q0 -94 -20.5 -182.5t-57.5 -166t-87 -142t-109 -113.5q-106 -88 -224 -120t-231 -32q-172 0 -306 61.5t-225.5 167 t-139.5 244.5t-48 297zM442 735q0 -129 33 -219t85 -145.5t116.5 -81t128.5 -25.5q63 0 127.5 23.5t116 76t85 132t37.5 194.5t-25.5 221.5t-90.5 171.5q-47 49 -114 78t-140 29q-82 0 -148.5 -34t-112.5 -95.5t-72 -144t-26 -181.5zM494 1595l184 236h270l180 -236h-237 l-82 105l-78 -105h-237z" />
<glyph unicode="&#xd5;" horiz-adv-x="1622" d="M86 729q0 147 46 284.5t136 243t223.5 170t307.5 64.5q66 0 132 -10.5t132 -32.5q111 -39 188.5 -101.5t130 -135t83 -150.5t46 -146.5t19.5 -122t4 -77.5q0 -94 -20.5 -182.5t-57.5 -166t-87 -142t-109 -113.5q-106 -88 -224 -120t-231 -32q-172 0 -306 61.5t-225.5 167 t-139.5 244.5t-48 297zM442 735q0 -129 33 -219t85 -145.5t116.5 -81t128.5 -25.5q63 0 127.5 23.5t116 76t85 132t37.5 194.5t-25.5 221.5t-90.5 171.5q-47 49 -114 78t-140 29q-82 0 -148.5 -34t-112.5 -95.5t-72 -144t-26 -181.5zM461 1585q8 53 21.5 107.5t58.5 97.5 q23 23 54.5 39t78.5 16t90 -15t65 -26q37 -16 58.5 -25.5t35 -14.5t21.5 -6t19 -1q39 0 57 30t27 50h139q-4 -45 -13.5 -93t-37.5 -89q-16 -20 -52 -50t-94 -30q-23 0 -61.5 8t-120.5 45q-43 20 -74 31.5t-57 11.5q-23 0 -36 -9t-21.5 -22.5t-12.5 -28t-6 -26.5h-139z" />
<glyph unicode="&#xd6;" horiz-adv-x="1622" d="M86 729q0 147 46 284.5t136 243t223.5 170t307.5 64.5q66 0 132 -10.5t132 -32.5q111 -39 188.5 -101.5t130 -135t83 -150.5t46 -146.5t19.5 -122t4 -77.5q0 -94 -20.5 -182.5t-57.5 -166t-87 -142t-109 -113.5q-106 -88 -224 -120t-231 -32q-172 0 -306 61.5t-225.5 167 t-139.5 244.5t-48 297zM420 1595v240h328v-240h-328zM442 735q0 -129 33 -219t85 -145.5t116.5 -81t128.5 -25.5q63 0 127.5 23.5t116 76t85 132t37.5 194.5t-25.5 221.5t-90.5 171.5q-47 49 -114 78t-140 29q-82 0 -148.5 -34t-112.5 -95.5t-72 -144t-26 -181.5zM874 1597 v238h330v-238h-330z" />
<glyph unicode="&#xd7;" horiz-adv-x="1366" d="M125 225l373 371l-373 375l184 180l373 -369l375 369l182 -180l-371 -375l371 -371l-182 -186l-375 373l-373 -373z" />
<glyph unicode="&#xd8;" horiz-adv-x="1579" d="M-6 111l199 180q-16 27 -36 65.5t-37.5 92t-29.5 122t-12 156.5q0 47 6 104.5t22.5 121t45 128t73.5 127.5q72 96 152 152.5t157.5 85.5t147.5 36t121 7q160 0 272.5 -53.5t212.5 -149.5l180 164l111 -121l-193 -174q18 -33 38 -70.5t36.5 -89t26.5 -116t10 -150.5 q0 -137 -28.5 -238.5t-66.5 -173t-78 -115.5t-62 -65q-90 -84 -202 -131t-276 -47q-90 0 -162.5 17.5t-131 45t-105.5 64.5t-90 74l-191 -172zM426 731q0 -61 7 -106t18 -99l600 547q-55 61 -117 95t-139 34q-96 0 -151.5 -32.5t-88.5 -67.5q-43 -43 -68.5 -91t-39 -97.5 t-17.5 -96.5t-4 -86zM532 375q6 -8 13.5 -16.5t15.5 -16.5q49 -45 119 -66.5t125 -21.5q68 0 131 30.5t112.5 90t79 143.5t29.5 193q0 59 -9 106t-22 101z" />
<glyph unicode="&#xd9;" horiz-adv-x="1492" d="M127 639v807h365v-901q0 -55 4 -100.5t22 -79.5q35 -57 100.5 -78t133.5 -21q92 0 142 28t72.5 70t27.5 91t5 92v899h363v-807q0 -53 -2 -104.5t-10.5 -103.5t-24.5 -102t-47 -100q-59 -94 -141 -146t-163 -77.5t-146.5 -32t-88.5 -6.5q-82 0 -172 19.5t-164 58.5 q-104 53 -160.5 125t-83 151.5t-29.5 161.5t-3 156zM420 1839h377l129 -235h-207z" />
<glyph unicode="&#xda;" horiz-adv-x="1492" d="M127 639v807h365v-901q0 -55 4 -100.5t22 -79.5q35 -57 100.5 -78t133.5 -21q92 0 142 28t72.5 70t27.5 91t5 92v899h363v-807q0 -53 -2 -104.5t-10.5 -103.5t-24.5 -102t-47 -100q-59 -94 -141 -146t-163 -77.5t-146.5 -32t-88.5 -6.5q-82 0 -172 19.5t-164 58.5 q-104 53 -160.5 125t-83 151.5t-29.5 161.5t-3 156zM573 1602l125 235h369l-297 -235h-197z" />
<glyph unicode="&#xdb;" horiz-adv-x="1492" d="M127 639v807h365v-901q0 -55 4 -100.5t22 -79.5q35 -57 100.5 -78t133.5 -21q92 0 142 28t72.5 70t27.5 91t5 92v899h363v-807q0 -53 -2 -104.5t-10.5 -103.5t-24.5 -102t-47 -100q-59 -94 -141 -146t-163 -77.5t-146.5 -32t-88.5 -6.5q-82 0 -172 19.5t-164 58.5 q-104 53 -160.5 125t-83 151.5t-29.5 161.5t-3 156zM430 1595l184 236h271l180 -236h-238l-82 105l-77 -105h-238z" />
<glyph unicode="&#xdc;" horiz-adv-x="1492" d="M127 639v807h365v-901q0 -55 4 -100.5t22 -79.5q35 -57 100.5 -78t133.5 -21q92 0 142 28t72.5 70t27.5 91t5 92v899h363v-807q0 -53 -2 -104.5t-10.5 -103.5t-24.5 -102t-47 -100q-59 -94 -141 -146t-163 -77.5t-146.5 -32t-88.5 -6.5q-82 0 -172 19.5t-164 58.5 q-104 53 -160.5 125t-83 151.5t-29.5 161.5t-3 156zM352 1595v240h328v-240h-328zM807 1597v238h330v-238h-330z" />
<glyph unicode="&#xdd;" horiz-adv-x="1449" d="M4 1446h416l311 -496q6 14 11.5 25.5t11.5 22l14 24.5t23 37l247 387h412l-547 -762v-684h-356v674zM551 1602l125 235h368l-296 -235h-197z" />
<glyph unicode="&#xde;" horiz-adv-x="1409" d="M137 0v1446h363v-211h219q88 0 172 -3t157.5 -19.5t136 -54.5t109.5 -105q41 -61 61.5 -142.5t20.5 -154.5q0 -125 -49 -226q-47 -96 -116.5 -149t-149.5 -80t-164 -32t-158 -7h-239v-262h-363zM500 530h217q51 0 104 4.5t96.5 27t71 67.5t27.5 129q0 80 -30 122 t-74 62.5t-94 23.5t-89 3h-229v-439z" />
<glyph unicode="&#xdf;" d="M137 0v961q4 59 9.5 119.5t23.5 117.5q31 92 86 147.5t118.5 85t128 38t113.5 8.5q145 0 235.5 -40t141.5 -97.5t68.5 -123t17.5 -116.5q0 -49 -11 -86t-27.5 -64.5t-36 -45t-33.5 -25.5q-16 -10 -36 -16.5t-42 -12.5q12 -2 23.5 -2t21.5 -4q66 -12 110 -45t71.5 -83 t39.5 -113.5t12 -135.5q0 -68 -15 -153t-58 -159.5t-119 -126t-197 -51.5q-8 0 -27.5 1.5t-47 4.5t-60.5 10t-65 19v232q25 -12 47 -21.5t57 -9.5q49 0 84 19.5t55.5 53t29.5 78t9 91.5t-6 94t-29 88t-48 62.5t-53 31.5t-56.5 12t-57.5 2h-55v189h51q35 2 68 7t57.5 21.5 t38.5 47t14 86.5q0 47 -18 88t-59 63q-25 14 -50.5 16.5t-35.5 2.5q-49 0 -92.5 -22.5t-65.5 -78.5q-12 -33 -15 -73.5t-3 -124.5v-967h-312z" />
<glyph unicode="&#xe0;" horiz-adv-x="1193" d="M90 297q0 63 22.5 114.5t56.5 89.5t74 63.5t72 39.5q33 14 84.5 27.5t109.5 26t118.5 23.5t109.5 21v58q-2 18 -5 40.5t-14 43t-35 34t-67 13.5q-53 0 -83.5 -14.5t-48 -34t-24.5 -41t-9 -35.5h-316q4 55 22.5 117.5t90.5 120.5q74 59 165 76.5t185 17.5q49 0 125 -9.5 t148.5 -41t124 -92t51.5 -164.5v-623q0 -43 1 -69.5t5 -44t9 -29t15 -25.5h-309v98q-31 -23 -63.5 -45t-71.5 -40.5t-86 -30t-107 -11.5q-92 0 -158.5 30t-108.5 77t-62.5 105.5t-20.5 113.5zM266 1475h379l152 -273h-207zM399 311q0 -39 32 -73.5t87 -34.5q29 0 56.5 9 t52.5 26q39 25 60.5 55.5t32.5 65t14 73.5t3 80l-202 -68q-20 -8 -44 -18t-44.5 -25.5t-34 -37t-13.5 -52.5z" />
<glyph unicode="&#xe1;" horiz-adv-x="1193" d="M90 297q0 63 22.5 114.5t56.5 89.5t74 63.5t72 39.5q33 14 84.5 27.5t109.5 26t118.5 23.5t109.5 21v58q-2 18 -5 40.5t-14 43t-35 34t-67 13.5q-53 0 -83.5 -14.5t-48 -34t-24.5 -41t-9 -35.5h-316q4 55 22.5 117.5t90.5 120.5q74 59 165 76.5t185 17.5q49 0 125 -9.5 t148.5 -41t124 -92t51.5 -164.5v-623q0 -43 1 -69.5t5 -44t9 -29t15 -25.5h-309v98q-31 -23 -63.5 -45t-71.5 -40.5t-86 -30t-107 -11.5q-92 0 -158.5 30t-108.5 77t-62.5 105.5t-20.5 113.5zM399 311q0 -39 32 -73.5t87 -34.5q29 0 56.5 9t52.5 26q39 25 60.5 55.5t32.5 65 t14 73.5t3 80l-202 -68q-20 -8 -44 -18t-44.5 -25.5t-34 -37t-13.5 -52.5zM467 1200l150 273h373l-314 -273h-209z" />
<glyph unicode="&#xe2;" horiz-adv-x="1193" d="M90 297q0 63 22.5 114.5t56.5 89.5t74 63.5t72 39.5q33 14 84.5 27.5t109.5 26t118.5 23.5t109.5 21v58q-2 18 -5 40.5t-14 43t-35 34t-67 13.5q-53 0 -83.5 -14.5t-48 -34t-24.5 -41t-9 -35.5h-316q4 55 22.5 117.5t90.5 120.5q74 59 165 76.5t185 17.5q49 0 125 -9.5 t148.5 -41t124 -92t51.5 -164.5v-623q0 -43 1 -69.5t5 -44t9 -29t15 -25.5h-309v98q-31 -23 -63.5 -45t-71.5 -40.5t-86 -30t-107 -11.5q-92 0 -158.5 30t-108.5 77t-62.5 105.5t-20.5 113.5zM265 1204l206 271h261l210 -269h-241l-101 127l-94 -129h-241zM399 311 q0 -39 32 -73.5t87 -34.5q29 0 56.5 9t52.5 26q39 25 60.5 55.5t32.5 65t14 73.5t3 80l-202 -68q-20 -8 -44 -18t-44.5 -25.5t-34 -37t-13.5 -52.5z" />
<glyph unicode="&#xe3;" horiz-adv-x="1193" d="M90 297q0 63 22.5 114.5t56.5 89.5t74 63.5t72 39.5q33 14 84.5 27.5t109.5 26t118.5 23.5t109.5 21v58q-2 18 -5 40.5t-14 43t-35 34t-67 13.5q-53 0 -83.5 -14.5t-48 -34t-24.5 -41t-9 -35.5h-316q4 55 22.5 117.5t90.5 120.5q74 59 165 76.5t185 17.5q49 0 125 -9.5 t148.5 -41t124 -92t51.5 -164.5v-623q0 -43 1 -69.5t5 -44t9 -29t15 -25.5h-309v98q-31 -23 -63.5 -45t-71.5 -40.5t-86 -30t-107 -11.5q-92 0 -158.5 30t-108.5 77t-62.5 105.5t-20.5 113.5zM229 1192q12 135 57 213t148 78q53 0 127 -31q37 -16 72.5 -34.5t76.5 -24.5 l21 -2q25 0 40 9t24.5 23.5t12.5 27.5t5 24h141q-6 -45 -14.5 -94.5t-27.5 -91.5t-55 -69.5t-93 -27.5q-49 0 -94.5 17.5t-82.5 33.5q-35 16 -67.5 29.5t-63.5 13.5q-25 0 -40 -10t-23 -25.5t-11 -31t-6 -27.5h-147zM399 311q0 -39 32 -73.5t87 -34.5q29 0 56.5 9t52.5 26 q39 25 60.5 55.5t32.5 65t14 73.5t3 80l-202 -68q-20 -8 -44 -18t-44.5 -25.5t-34 -37t-13.5 -52.5z" />
<glyph unicode="&#xe4;" horiz-adv-x="1193" d="M90 297q0 63 22.5 114.5t56.5 89.5t74 63.5t72 39.5q33 14 84.5 27.5t109.5 26t118.5 23.5t109.5 21v58q-2 18 -5 40.5t-14 43t-35 34t-67 13.5q-53 0 -83.5 -14.5t-48 -34t-24.5 -41t-9 -35.5h-316q4 55 22.5 117.5t90.5 120.5q74 59 165 76.5t185 17.5q49 0 125 -9.5 t148.5 -41t124 -92t51.5 -164.5v-623q0 -43 1 -69.5t5 -44t9 -29t15 -25.5h-309v98q-31 -23 -63.5 -45t-71.5 -40.5t-86 -30t-107 -11.5q-92 0 -158.5 30t-108.5 77t-62.5 105.5t-20.5 113.5zM209 1223v254h321v-254h-321zM399 311q0 -39 32 -73.5t87 -34.5q29 0 56.5 9 t52.5 26q39 25 60.5 55.5t32.5 65t14 73.5t3 80l-202 -68q-20 -8 -44 -18t-44.5 -25.5t-34 -37t-13.5 -52.5zM723 1223v254h321v-254h-321z" />
<glyph unicode="&#xe5;" horiz-adv-x="1193" d="M90 297q0 63 22.5 114.5t56.5 89.5t74 63.5t72 39.5q33 14 84.5 27.5t109.5 26t118.5 23.5t109.5 21v58q-2 18 -5 40.5t-14 43t-35 34t-67 13.5q-53 0 -83.5 -14.5t-48 -34t-24.5 -41t-9 -35.5h-316q4 55 22.5 117.5t90.5 120.5q74 59 165 76.5t185 17.5q49 0 125 -9.5 t148.5 -41t124 -92t51.5 -164.5v-623q0 -43 1 -69.5t5 -44t9 -29t15 -25.5h-309v98q-31 -23 -63.5 -45t-71.5 -40.5t-86 -30t-107 -11.5q-92 0 -158.5 30t-108.5 77t-62.5 105.5t-20.5 113.5zM399 311q0 -39 32 -73.5t87 -34.5q29 0 56.5 9t52.5 26q39 25 60.5 55.5t32.5 65 t14 73.5t3 80l-202 -68q-20 -8 -44 -18t-44.5 -25.5t-34 -37t-13.5 -52.5zM426 1337q0 84 58.5 142.5t141.5 58.5q84 0 142.5 -58.5t58.5 -142.5t-58.5 -142t-142.5 -58t-142 58t-58 142zM545 1337q0 -35 23.5 -58t57.5 -23q35 0 58.5 23.5t23.5 57.5q0 35 -23.5 58.5 t-58.5 23.5t-58 -23.5t-23 -58.5z" />
<glyph unicode="&#xe6;" horiz-adv-x="1792" d="M51 317q0 16 3 43t14 62q20 66 58 108.5t86 71.5t105.5 45.5t118.5 26.5q12 2 47 7t75 10t76 10.5t50 7.5l35 8q0 27 -2 56.5t-16.5 54t-46 41t-91.5 16.5q-53 0 -81.5 -12.5t-43 -30t-17.5 -38t-5 -36.5h-322q4 37 11.5 74t22.5 72.5t44 68.5t78 61q59 35 127.5 47.5 t130.5 12.5q76 0 131 -9.5t99 -24.5t81 -36.5t74 -44.5q25 18 55.5 39t69.5 38t89 27.5t118 10.5q80 0 139 -15.5t101 -37t68 -44t40 -34.5q61 -59 95 -126t51.5 -132.5t21.5 -125t6 -104.5h-713q4 -47 14.5 -91t53.5 -91q23 -25 66.5 -52.5t103.5 -27.5q51 0 88 18.5 t64.5 45t47 57.5t33.5 55l244 -123q-25 -41 -47.5 -75.5t-61.5 -69.5q-68 -66 -167 -111t-220 -45q-41 0 -88 7.5t-97 26t-101.5 49t-98.5 79.5q-23 -18 -43 -35.5t-45 -33.5q-72 -47 -164 -71t-167 -24q-90 0 -163 26t-125 72t-81 109.5t-29 136.5zM362 330 q0 -43 18.5 -67.5t41 -36t45 -13.5t33.5 -2q63 0 108 31.5t70 74.5q31 53 35 108.5t4 104.5q-20 -8 -34.5 -12t-30 -9t-36 -9t-53.5 -13q-31 -6 -65.5 -17t-65.5 -28.5t-50.5 -45t-19.5 -66.5zM1034 680h387q-6 25 -15 59.5t-29.5 65.5t-55.5 52.5t-90 21.5 q-68 0 -126 -46.5t-71 -152.5z" />
<glyph unicode="&#xe7;" horiz-adv-x="1024" d="M68 526q0 117 33.5 220.5t100 182.5t167 125t235.5 46q55 0 116.5 -11.5t121 -41t115 -78.5t102.5 -125l-234 -133q-16 31 -33.5 58.5t-56.5 53.5q-20 14 -49 25.5t-68 11.5q-63 0 -107 -32.5t-70.5 -81t-38 -104.5t-11.5 -105q0 -53 13.5 -109.5t42 -104t73.5 -77 t109 -29.5q23 0 67.5 11.5t89.5 62.5q23 23 31 42t19 44l235 -125q-23 -33 -59.5 -83t-96 -96t-143.5 -78t-201 -28l-36 -76q20 2 39.5 4.5t39.5 2.5q49 0 80 -15.5t48.5 -36t22.5 -44t5 -38.5q0 -35 -15.5 -65.5t-43 -53t-63.5 -35.5t-75 -13q-59 0 -110 29.5t-92 76.5 l57 47q16 -20 42 -42.5t67 -22.5q33 0 53 17t20 46q0 35 -31.5 58.5t-80.5 23.5q-16 0 -29.5 -2t-28.5 -4l-24 37l65 119q-117 27 -195.5 82t-126.5 128.5t-69.5 159.5t-21.5 176z" />
<glyph unicode="&#xe8;" horiz-adv-x="1193" d="M66 514q0 96 26.5 200.5t90 190.5t169 142.5t262.5 56.5q25 0 68 -3t97.5 -18.5t111.5 -46t108 -86.5q51 -55 81 -120.5t45.5 -130t19.5 -124t6 -104.5h-764q0 -49 13.5 -97t44 -86t76.5 -60.5t110 -22.5q63 0 108 18.5t76 47t51.5 61.5t34.5 61l238 -121 q-29 -41 -58.5 -80.5t-70.5 -78.5q-70 -66 -172.5 -109t-231.5 -43q-119 0 -218 37t-171 107.5t-111.5 174t-39.5 234.5zM202 1475h379l152 -273h-207zM389 668h436q-4 35 -14 75.5t-45 75.5q-29 29 -71 44.5t-83 15.5q-57 0 -97 -22.5t-62 -47.5q-33 -35 -44.5 -71 t-19.5 -70z" />
<glyph unicode="&#xe9;" horiz-adv-x="1193" d="M66 514q0 96 26.5 200.5t90 190.5t169 142.5t262.5 56.5q25 0 68 -3t97.5 -18.5t111.5 -46t108 -86.5q51 -55 81 -120.5t45.5 -130t19.5 -124t6 -104.5h-764q0 -49 13.5 -97t44 -86t76.5 -60.5t110 -22.5q63 0 108 18.5t76 47t51.5 61.5t34.5 61l238 -121 q-29 -41 -58.5 -80.5t-70.5 -78.5q-70 -66 -172.5 -109t-231.5 -43q-119 0 -218 37t-171 107.5t-111.5 174t-39.5 234.5zM389 668h436q-4 35 -14 75.5t-45 75.5q-29 29 -71 44.5t-83 15.5q-57 0 -97 -22.5t-62 -47.5q-33 -35 -44.5 -71t-19.5 -70zM467 1200l150 273h373 l-314 -273h-209z" />
<glyph unicode="&#xea;" horiz-adv-x="1193" d="M66 514q0 96 26.5 200.5t90 190.5t169 142.5t262.5 56.5q25 0 68 -3t97.5 -18.5t111.5 -46t108 -86.5q51 -55 81 -120.5t45.5 -130t19.5 -124t6 -104.5h-764q0 -49 13.5 -97t44 -86t76.5 -60.5t110 -22.5q63 0 108 18.5t76 47t51.5 61.5t34.5 61l238 -121 q-29 -41 -58.5 -80.5t-70.5 -78.5q-70 -66 -172.5 -109t-231.5 -43q-119 0 -218 37t-171 107.5t-111.5 174t-39.5 234.5zM265 1204l206 271h261l210 -269h-241l-101 127l-94 -129h-241zM389 668h436q-4 35 -14 75.5t-45 75.5q-29 29 -71 44.5t-83 15.5q-57 0 -97 -22.5 t-62 -47.5q-33 -35 -44.5 -71t-19.5 -70z" />
<glyph unicode="&#xeb;" horiz-adv-x="1193" d="M66 514q0 96 26.5 200.5t90 190.5t169 142.5t262.5 56.5q25 0 68 -3t97.5 -18.5t111.5 -46t108 -86.5q51 -55 81 -120.5t45.5 -130t19.5 -124t6 -104.5h-764q0 -49 13.5 -97t44 -86t76.5 -60.5t110 -22.5q63 0 108 18.5t76 47t51.5 61.5t34.5 61l238 -121 q-29 -41 -58.5 -80.5t-70.5 -78.5q-70 -66 -172.5 -109t-231.5 -43q-119 0 -218 37t-171 107.5t-111.5 174t-39.5 234.5zM180 1223v254h321v-254h-321zM389 668h436q-4 35 -14 75.5t-45 75.5q-29 29 -71 44.5t-83 15.5q-57 0 -97 -22.5t-62 -47.5q-33 -35 -44.5 -71 t-19.5 -70zM694 1223v254h321v-254h-321z" />
<glyph unicode="&#xec;" horiz-adv-x="598" d="M-92 1475h379l152 -273h-207zM141 0v1069h312v-1069h-312z" />
<glyph unicode="&#xed;" horiz-adv-x="598" d="M141 0v1069h312v-1069h-312zM170 1200l150 273h373l-314 -273h-209z" />
<glyph unicode="&#xee;" horiz-adv-x="598" d="M-32 1204l206 271h261l210 -269h-241l-101 127l-94 -129h-241zM141 0v1069h312v-1069h-312z" />
<glyph unicode="&#xef;" horiz-adv-x="598" d="M-116 1223v254h321v-254h-321zM141 0v1069h312v-1069h-312zM398 1223v254h321v-254h-321z" />
<glyph unicode="&#xf0;" horiz-adv-x="1280" d="M63 532q0 145 46.5 252t120 177.5t165.5 105.5t185 35q51 0 89 -11.5t65.5 -26.5t47 -31.5t31.5 -28.5q-25 47 -51.5 94t-83.5 121l-322 -89l-37 105l279 76q-14 14 -22.5 22t-16.5 16.5t-18.5 17.5t-26.5 26l246 96l38 -38t25.5 -26.5t19.5 -21.5t19 -21l189 52l45 -101 l-156 -43q45 -59 94 -135t89 -168t65.5 -201.5t25.5 -238.5q0 -104 -29.5 -209t-98 -186.5t-178 -133t-269.5 -51.5q-145 0 -254 46t-180.5 124t-106.5 180.5t-35 214.5zM381 539q0 -66 16.5 -124.5t49 -102.5t80.5 -69.5t110 -25.5q66 0 114 24.5t80.5 65.5t48 97.5 t15.5 121.5q0 70 -18.5 142.5t-71.5 124.5q-25 23 -49.5 36t-49 18t-47 6t-38.5 -1q-61 -4 -106.5 -27.5t-80.5 -76.5q-27 -41 -40 -95.5t-13 -113.5z" />
<glyph unicode="&#xf1;" d="M143 0v1067h318v-94q23 25 44 44t62 40q37 16 87.5 27.5t107.5 11.5q47 0 98 -10.5t92 -32.5q84 -45 113 -121t29 -201v-731h-314v602q0 72 -2 104.5t-12 55.5q-18 43 -56 62.5t-85 19.5q-61 0 -95 -22.5t-49.5 -60.5t-18.5 -86t-3 -97v-578h-316zM252 1192 q12 135 57 213t148 78q53 0 127 -31q37 -16 72.5 -34.5t76.5 -24.5l21 -2q25 0 40 9t24.5 23.5t12.5 27.5t5 24h141q-6 -45 -14.5 -94.5t-27.5 -91.5t-55 -69.5t-93 -27.5q-49 0 -94.5 17.5t-82.5 33.5q-35 16 -67.5 29.5t-63.5 13.5q-25 0 -40 -10t-23 -25.5t-11 -31 t-6 -27.5h-147z" />
<glyph unicode="&#xf2;" horiz-adv-x="1280" d="M66 537q0 123 38.5 229t115.5 184t192.5 119t269.5 33q164 -10 267.5 -71.5t162.5 -147.5t80.5 -179.5t21.5 -166.5q0 -102 -30.5 -203t-99 -182.5t-178 -132t-265.5 -50.5q-113 0 -217.5 33t-184 102.5t-126.5 177t-47 255.5zM243 1475h379l152 -273h-207zM383 539 q0 -63 15.5 -122t47 -103t80.5 -69.5t115 -25.5q63 0 111.5 23.5t80 65.5t47 97.5t15.5 118.5q0 182 -88 269q-25 23 -50.5 36t-50 18t-46 6t-37.5 -1q-68 -4 -111 -28.5t-76 -75.5q-29 -47 -41 -100.5t-12 -108.5z" />
<glyph unicode="&#xf3;" horiz-adv-x="1280" d="M66 537q0 123 38.5 229t115.5 184t192.5 119t269.5 33q164 -10 267.5 -71.5t162.5 -147.5t80.5 -179.5t21.5 -166.5q0 -102 -30.5 -203t-99 -182.5t-178 -132t-265.5 -50.5q-113 0 -217.5 33t-184 102.5t-126.5 177t-47 255.5zM383 539q0 -63 15.5 -122t47 -103 t80.5 -69.5t115 -25.5q63 0 111.5 23.5t80 65.5t47 97.5t15.5 118.5q0 182 -88 269q-25 23 -50.5 36t-50 18t-46 6t-37.5 -1q-68 -4 -111 -28.5t-76 -75.5q-29 -47 -41 -100.5t-12 -108.5zM508 1200l150 273h373l-314 -273h-209z" />
<glyph unicode="&#xf4;" horiz-adv-x="1280" d="M66 537q0 123 38.5 229t115.5 184t192.5 119t269.5 33q164 -10 267.5 -71.5t162.5 -147.5t80.5 -179.5t21.5 -166.5q0 -102 -30.5 -203t-99 -182.5t-178 -132t-265.5 -50.5q-113 0 -217.5 33t-184 102.5t-126.5 177t-47 255.5zM306 1204l206 271h261l210 -269h-241 l-101 127l-94 -129h-241zM383 539q0 -63 15.5 -122t47 -103t80.5 -69.5t115 -25.5q63 0 111.5 23.5t80 65.5t47 97.5t15.5 118.5q0 182 -88 269q-25 23 -50.5 36t-50 18t-46 6t-37.5 -1q-68 -4 -111 -28.5t-76 -75.5q-29 -47 -41 -100.5t-12 -108.5z" />
<glyph unicode="&#xf5;" horiz-adv-x="1280" d="M66 537q0 123 38.5 229t115.5 184t192.5 119t269.5 33q164 -10 267.5 -71.5t162.5 -147.5t80.5 -179.5t21.5 -166.5q0 -102 -30.5 -203t-99 -182.5t-178 -132t-265.5 -50.5q-113 0 -217.5 33t-184 102.5t-126.5 177t-47 255.5zM270 1192q12 135 57 213t148 78 q53 0 127 -31q37 -16 72.5 -34.5t76.5 -24.5l21 -2q25 0 40 9t24.5 23.5t12.5 27.5t5 24h141q-6 -45 -14.5 -94.5t-27.5 -91.5t-55 -69.5t-93 -27.5q-49 0 -94.5 17.5t-82.5 33.5q-35 16 -67.5 29.5t-63.5 13.5q-25 0 -40 -10t-23 -25.5t-11 -31t-6 -27.5h-147zM383 539 q0 -63 15.5 -122t47 -103t80.5 -69.5t115 -25.5q63 0 111.5 23.5t80 65.5t47 97.5t15.5 118.5q0 182 -88 269q-25 23 -50.5 36t-50 18t-46 6t-37.5 -1q-68 -4 -111 -28.5t-76 -75.5q-29 -47 -41 -100.5t-12 -108.5z" />
<glyph unicode="&#xf6;" horiz-adv-x="1280" d="M66 537q0 123 38.5 229t115.5 184t192.5 119t269.5 33q164 -10 267.5 -71.5t162.5 -147.5t80.5 -179.5t21.5 -166.5q0 -102 -30.5 -203t-99 -182.5t-178 -132t-265.5 -50.5q-113 0 -217.5 33t-184 102.5t-126.5 177t-47 255.5zM228 1221v254h321v-254h-321zM383 539 q0 -63 15.5 -122t47 -103t80.5 -69.5t115 -25.5q63 0 111.5 23.5t80 65.5t47 97.5t15.5 118.5q0 182 -88 269q-25 23 -50.5 36t-50 18t-46 6t-37.5 -1q-68 -4 -111 -28.5t-76 -75.5q-29 -47 -41 -100.5t-12 -108.5zM742 1221v254h321v-254h-321z" />
<glyph unicode="&#xf7;" horiz-adv-x="1366" d="M2 465v260h1364v-260h-1364zM518 229q0 68 48 116t116 48t116 -48t48 -116t-48 -115.5t-116 -47.5t-116 47.5t-48 115.5zM518 961q0 68 48 115.5t116 47.5t116 -48t48 -115q0 -68 -48 -116t-116 -48t-116 48t-48 116z" />
<glyph unicode="&#xf8;" horiz-adv-x="1280" d="M23 61l153 142q-12 18 -31.5 47t-36 70.5t-28.5 97t-12 127.5q0 115 35.5 216t106.5 177t175 120t240 44q82 0 147.5 -15.5t112.5 -37t79.5 -44t51.5 -36.5l153 139l82 -94l-151 -137q12 -20 31.5 -51t38 -75t30.5 -99.5t12 -125.5q0 -129 -44 -231t-120.5 -174 t-182 -111t-226.5 -39q-80 0 -140.5 14.5t-104.5 35t-76.5 45t-57.5 45.5l-156 -144zM373 539q0 -53 6 -83t12 -57l426 389q-29 25 -68.5 49.5t-113.5 24.5q-37 0 -82 -12t-85 -47t-67.5 -98.5t-27.5 -165.5zM459 289q27 -27 64.5 -51.5t117.5 -24.5q70 0 119 26.5 t80.5 72.5t46 105.5t14.5 127.5q0 45 -5 71.5t-13 61.5z" />
<glyph unicode="&#xf9;" d="M131 397v672h318v-663q0 -35 3 -69t21 -58q14 -18 46 -36t79 -18q14 0 44 3t65 24q51 31 60 69.5t11 81.5v666h316v-1069h-316v102q-23 -27 -43 -44t-63 -40q-96 -49 -203 -49q-27 0 -61.5 3t-72.5 14.5t-75 34t-63 61.5q-20 29 -33.5 57.5t-21 64.5t-9.5 82t-2 111z M225 1475h379l152 -273h-207z" />
<glyph unicode="&#xfa;" d="M131 397v672h318v-663q0 -35 3 -69t21 -58q14 -18 46 -36t79 -18q14 0 44 3t65 24q51 31 60 69.5t11 81.5v666h316v-1069h-316v102q-23 -27 -43 -44t-63 -40q-96 -49 -203 -49q-27 0 -61.5 3t-72.5 14.5t-75 34t-63 61.5q-20 29 -33.5 57.5t-21 64.5t-9.5 82t-2 111z M489 1200l150 273h373l-314 -273h-209z" />
<glyph unicode="&#xfb;" d="M131 397v672h318v-663q0 -35 3 -69t21 -58q14 -18 46 -36t79 -18q14 0 44 3t65 24q51 31 60 69.5t11 81.5v666h316v-1069h-316v102q-23 -27 -43 -44t-63 -40q-96 -49 -203 -49q-27 0 -61.5 3t-72.5 14.5t-75 34t-63 61.5q-20 29 -33.5 57.5t-21 64.5t-9.5 82t-2 111z M287 1204l206 271h261l210 -269h-241l-101 127l-94 -129h-241z" />
<glyph unicode="&#xfc;" d="M131 397v672h318v-663q0 -35 3 -69t21 -58q14 -18 46 -36t79 -18q14 0 44 3t65 24q51 31 60 69.5t11 81.5v666h316v-1069h-316v102q-23 -27 -43 -44t-63 -40q-96 -49 -203 -49q-27 0 -61.5 3t-72.5 14.5t-75 34t-63 61.5q-20 29 -33.5 57.5t-21 64.5t-9.5 82t-2 111z M199 1223v254h321v-254h-321zM713 1223v254h321v-254h-321z" />
<glyph unicode="&#xfd;" horiz-adv-x="1024" d="M0 1069h336l176 -766l176 766h336l-377 -1155q-18 -53 -38.5 -101.5t-61.5 -93.5q-55 -59 -110.5 -71.5t-117.5 -14.5h-227v250h111q18 0 41.5 2t43 9.5t33 22.5t13.5 44q0 20 -5 39.5t-10 36.5zM383 1200l150 273h373l-314 -273h-209z" />
<glyph unicode="&#xfe;" d="M131 -371v1817h281v-481q8 10 16 18l16 16q39 39 109 67t158 28q98 0 183 -37t147.5 -107.5t98.5 -174t36 -236.5q0 -82 -20.5 -179.5t-73 -182.5t-142.5 -141t-227 -56q-45 0 -80 7t-65.5 19t-59.5 28.5t-59 35.5v-441h-318zM434 532q0 -98 21.5 -163.5t54.5 -100.5 q57 -61 141 -61q57 0 99.5 28.5t69 75.5t39.5 106.5t13 123.5q0 51 -7 103t-26.5 96t-52 78t-81.5 46q-23 6 -43 6q-43 0 -86.5 -20.5t-75.5 -65.5q-35 -47 -50.5 -113.5t-15.5 -138.5z" />
<glyph unicode="&#xff;" horiz-adv-x="1024" d="M0 1069h336l176 -766l176 766h336l-377 -1155q-18 -53 -38.5 -101.5t-61.5 -93.5q-55 -59 -110.5 -71.5t-117.5 -14.5h-227v250h111q18 0 41.5 2t43 9.5t33 22.5t13.5 44q0 20 -5 39.5t-10 36.5zM97 1223v254h321v-254h-321zM611 1223v254h321v-254h-321z" />
<glyph unicode="&#x152;" horiz-adv-x="2260" d="M86 725q0 76 11.5 156t37 156.5t68.5 148t106 131.5q51 49 108.5 81t116 50t113.5 25.5t101 7.5q57 0 102 -6.5t81 -16.5t66.5 -23.5t59.5 -27.5v39h1089v-283h-729v-264h686v-281h-686v-331h799v-287h-1163v31q-61 -23 -133 -41.5t-183 -18.5q-125 0 -242.5 45 t-207.5 137.5t-145.5 234.5t-55.5 337zM451 727q0 -49 9 -123t38 -141q18 -43 46.5 -81t68.5 -67.5t91.5 -47t114.5 -17.5q78 0 133.5 21.5t104.5 45.5v813q-35 23 -86 47.5t-146 24.5q-72 0 -132 -22.5t-101 -57.5q-84 -72 -112.5 -178t-28.5 -217z" />
<glyph unicode="&#x153;" horiz-adv-x="1921" d="M66 535q0 137 40.5 241.5t112.5 176t169 108.5t210 37q76 0 135.5 -14.5t103.5 -36t75.5 -47t54.5 -46.5q72 66 165 105t222 39q104 0 180 -29t123 -63q76 -55 120 -127t66.5 -147t29.5 -144.5t11 -118.5h-764q4 -33 12.5 -68.5t34.5 -76.5q25 -37 52.5 -57.5t55.5 -32 t54.5 -14.5t48.5 -3q70 0 115 20.5t73.5 48t44 57.5t23.5 50l244 -125q-27 -43 -54.5 -85t-74.5 -83q-53 -45 -110.5 -71.5t-110.5 -40t-96 -16.5t-66 -3q-41 0 -105.5 10.5t-150.5 51.5q-51 25 -78.5 47t-60.5 51q-29 -29 -55.5 -51.5t-75.5 -44.5q-55 -29 -120 -44.5 t-134 -15.5q-59 0 -123 14.5t-124 45t-113.5 79t-90.5 115.5q-29 53 -49 130t-20 178zM377 514.5q0 -20.5 3 -48.5t9 -57.5t19 -54.5q29 -63 81 -97t119 -34q96 0 154.5 86t58.5 228q0 16 -1 41.5t-6 56.5t-14 62.5t-24 60.5q-23 41 -64.5 71.5t-115.5 26.5 q-59 -2 -97 -26.5t-65 -67.5q-23 -37 -40 -95.5t-17 -127.5v-24.5zM1124 664h435q-12 92 -67.5 145t-154.5 53q-57 0 -96 -19.5t-63.5 -49t-37 -64.5t-16.5 -65z" />
<glyph unicode="&#x178;" horiz-adv-x="1449" d="M4 1446h416l311 -496q6 14 11.5 25.5t11.5 22l14 24.5t23 37l247 387h412l-547 -762v-684h-356v674zM332 1599v240h327v-240h-327zM786 1602v237h330v-237h-330z" />
<glyph unicode="&#x2c6;" horiz-adv-x="555" d="M-61 1204l206 271h261l210 -269h-241l-101 127l-94 -129h-241z" />
<glyph unicode="&#x2dc;" horiz-adv-x="555" d="M-84 1192q12 135 57 213t148 78q53 0 127 -31q37 -16 72.5 -34.5t76.5 -24.5l21 -2q25 0 40 9t24.5 23.5t12.5 27.5t5 24h141q-6 -45 -14.5 -94.5t-27.5 -91.5t-55 -69.5t-93 -27.5q-49 0 -94.5 17.5t-82.5 33.5q-35 16 -67.5 29.5t-63.5 13.5q-25 0 -40 -10t-23 -25.5 t-11 -31t-6 -27.5h-147z" />
<glyph unicode="&#x2000;" horiz-adv-x="949" />
<glyph unicode="&#x2001;" horiz-adv-x="1898" />
<glyph unicode="&#x2002;" horiz-adv-x="949" />
<glyph unicode="&#x2003;" horiz-adv-x="1898" />
<glyph unicode="&#x2004;" horiz-adv-x="632" />
<glyph unicode="&#x2005;" horiz-adv-x="474" />
<glyph unicode="&#x2006;" horiz-adv-x="316" />
<glyph unicode="&#x2007;" horiz-adv-x="316" />
<glyph unicode="&#x2008;" horiz-adv-x="237" />
<glyph unicode="&#x2009;" horiz-adv-x="379" />
<glyph unicode="&#x200a;" horiz-adv-x="105" />
<glyph unicode="&#x2010;" horiz-adv-x="724" d="M106 457v293h508v-293h-508z" />
<glyph unicode="&#x2011;" horiz-adv-x="724" d="M106 457v293h508v-293h-508z" />
<glyph unicode="&#x2012;" horiz-adv-x="724" d="M106 457v293h508v-293h-508z" />
<glyph unicode="&#x2013;" horiz-adv-x="1150" d="M106 453v292h936v-292h-936z" />
<glyph unicode="&#x2014;" d="M106 453v292h1020v-292h-1020z" />
<glyph unicode="&#x2018;" horiz-adv-x="512" d="M94 762v319q2 57 12.5 109.5t53.5 112.5q33 47 71.5 76.5t73.5 46t65.5 22.5t49.5 10v-141q-35 -14 -57.5 -32.5t-36 -43t-21.5 -57.5t-12 -78h127v-344h-326z" />
<glyph unicode="&#x2019;" horiz-adv-x="512" d="M92 754v145q35 10 59.5 25.5t40 40t22.5 60.5t9 85h-131v336h326v-295q-4 -78 -21.5 -146.5t-64.5 -127.5q-10 -12 -29.5 -31t-49.5 -37t-70 -33.5t-91 -21.5z" />
<glyph unicode="&#x201a;" horiz-adv-x="512" d="M92 0v344h328v-262q-2 -59 -7 -119.5t-34 -120.5q-27 -51 -62.5 -84.5t-74.5 -55t-78 -35t-70 -21.5v145q72 29 94.5 78t28.5 131h-125z" />
<glyph unicode="&#x201c;" horiz-adv-x="980" d="M94 760v305q2 76 19.5 144.5t66.5 127.5q10 12 29.5 30.5t48.5 37t69 34t91 21.5v-145q-70 -23 -98.5 -68t-30.5 -145h129v-342h-324zM565 760v303q2 78 19.5 146.5t66.5 127.5q10 12 29.5 30.5t48.5 37t69 34t91 21.5v-145q-70 -23 -98.5 -68t-30.5 -145h129v-342h-324z " />
<glyph unicode="&#x201d;" horiz-adv-x="980" d="M94 748v145q70 23 98.5 67t30.5 144h-129v342h324v-303q-2 -76 -19.5 -144.5t-66.5 -128.5q-10 -12 -29.5 -30.5t-48.5 -37t-69 -33.5t-91 -21zM565 748v145q70 23 98.5 67t30.5 144h-129v342h324v-303q-2 -76 -19.5 -144.5t-66.5 -128.5q-10 -12 -29.5 -30.5t-48.5 -37 t-69 -33.5t-91 -21z" />
<glyph unicode="&#x201e;" horiz-adv-x="980" d="M94 0v342h324v-303q-2 -76 -19.5 -144.5t-66.5 -127.5q-10 -12 -29.5 -31t-48.5 -37t-69 -33.5t-91 -21.5v143q70 23 98.5 68t30.5 145h-129zM565 0v342h324v-303q-2 -78 -19.5 -145.5t-66.5 -126.5q-10 -12 -29.5 -31t-48.5 -37t-69 -33.5t-91 -21.5v143q70 23 98.5 68 t30.5 145h-129z" />
<glyph unicode="&#x2022;" horiz-adv-x="681" d="M25 721q0 66 24.5 124t67.5 101t101 67.5t124 24.5t124 -24.5t101 -67.5t67.5 -101.5t24.5 -123.5q0 -66 -24.5 -124t-67.5 -101t-101 -68t-124 -25t-124 25t-101 68t-67.5 101t-24.5 124z" />
<glyph unicode="&#x2026;" horiz-adv-x="2048" d="M178 0v342h324v-342h-324zM862 0v342h324v-342h-324zM1546 0v342h324v-342h-324z" />
<glyph unicode="&#x202f;" horiz-adv-x="379" />
<glyph unicode="&#x2039;" horiz-adv-x="468" d="M66 471v256l323 274v-282l-137 -117l139 -117v-280z" />
<glyph unicode="&#x203a;" horiz-adv-x="468" d="M74 197v282l131 119l-131 117v278l325 -268v-252z" />
<glyph unicode="&#x205f;" horiz-adv-x="474" />
<glyph unicode="&#x2122;" horiz-adv-x="1406" d="M0 1309v137h588v-137h-207v-543h-172v543h-209zM643 766v680h217l156 -492l145 492h219v-680h-168l9 362q0 25 2 57t10 83q-10 -43 -15.5 -60.5t-13.5 -50.5l-114 -391h-154l-121 393l-29 105q4 -25 7.5 -53.5t7.5 -82.5l8 -362h-166z" />
<glyph unicode="&#x25fc;" horiz-adv-x="1064" d="M0 0v1065h1065v-1065h-1065z" />
<glyph unicode="&#xfb01;" horiz-adv-x="1323" d="M20 852v192h170v132q2 41 8.5 90t37.5 92q29 41 95 74.5t179 33.5q47 0 95 -6t95 -12v-236h-77q-45 0 -70 -6t-37 -24.5t-14 -51t-2 -86.5h211v-192h-209v-852h-314v852h-168zM868 0v1069h312v-1069h-312zM868 1202v246h312v-246h-312z" />
<glyph unicode="&#xfb02;" horiz-adv-x="1323" d="M20 852v192h170v132q2 41 8.5 90t37.5 92q29 41 95 74.5t179 33.5q47 0 95 -6t95 -12v-236h-77q-45 0 -70 -6t-37 -24.5t-14 -51t-2 -86.5h211v-192h-209v-852h-314v852h-168zM866 0v1446h316v-1446h-316z" />
</font>
</defs>
</svg>
