<?xml version="1.0" standalone="no"?>
<!DOCTYPE svg PUBLIC "-//W3C//DTD SVG 1.1//EN" "http://www.w3.org/Graphics/SVG/1.1/DTD/svg11.dtd" >
<svg xmlns="http://www.w3.org/2000/svg">
<metadata></metadata>
<defs>
<font id="gothamextra_light_italic" horiz-adv-x="1722" >
<font-face units-per-em="2048" ascent="1638" descent="-410" />
<missing-glyph horiz-adv-x="589" />
<glyph unicode="&#xfb01;" horiz-adv-x="1171" d="M102 0l260 973h-157l16 59h158l43 160q37 143 115 221q82 82 211 82q110 0 190 -47l-18 -59q-82 45 -175 45q-194 0 -258 -246l-43 -156h375l-14 -59h-377l-260 -973h-66zM758 0l278 1032h66l-277 -1032h-67zM1100 1317l35 125h88l-35 -125h-88z" />
<glyph unicode="&#xfb02;" horiz-adv-x="1169" d="M102 0l260 973h-157l16 59h158l43 160q37 143 115 221q82 82 211 82q110 0 190 -47l-18 -59q-82 45 -175 45q-194 0 -258 -246l-43 -156h375l-14 -59h-377l-260 -973h-66zM758 0l401 1495h68l-402 -1495h-67z" />
<glyph unicode="&#xfb03;" horiz-adv-x="1867" d="M102 0l260 973h-157l16 59h158l43 160q37 143 115 221q82 82 211 82q110 0 190 -47l-18 -59q-82 45 -175 45q-194 0 -258 -246l-43 -156h375l-14 -59h-377l-260 -973h-66zM797 0l260 973h-158l16 59h158l43 160q37 143 115 221q82 82 211 82q110 0 190 -47l-18 -59 q-82 45 -174 45q-194 0 -258 -246l-43 -156h374l-14 -59h-377l-260 -973h-65zM1454 0l279 1032h65l-276 -1032h-68zM1796 1317l35 125h88l-35 -125h-88z" />
<glyph unicode="&#xfb04;" horiz-adv-x="1865" d="M102 0l260 973h-157l16 59h158l43 160q37 143 115 221q82 82 211 82q110 0 190 -47l-18 -59q-82 45 -175 45q-194 0 -258 -246l-43 -156h375l-14 -59h-377l-260 -973h-66zM797 0l260 973h-158l16 59h158l43 160q37 143 115 221q82 82 211 82q110 0 190 -47l-18 -59 q-82 45 -174 45q-194 0 -258 -246l-43 -156h374l-14 -59h-377l-260 -973h-65zM1454 0l401 1495h68l-401 -1495h-68z" />
<glyph horiz-adv-x="2048" />
<glyph horiz-adv-x="2048" />
<glyph unicode="&#xd;" horiz-adv-x="2048" />
<glyph unicode=" "  horiz-adv-x="589" />
<glyph unicode="&#x09;" horiz-adv-x="589" />
<glyph unicode="&#xa0;" horiz-adv-x="589" />
<glyph unicode="!" horiz-adv-x="444" d="M35 0l35 133h98l-35 -133h-98zM166 375l215 868l51 191h74l-51 -191l-254 -868h-35z" />
<glyph unicode="&#x22;" horiz-adv-x="708" d="M197 913l202 521h82v-7l-245 -514h-39zM502 913l203 521h81v-7l-245 -514h-39z" />
<glyph unicode="#" horiz-adv-x="1366" d="M96 399l17 64h243l183 520h-265l17 61h268l137 390h64l-135 -390h462l136 390h63l-135 -390h240l-17 -61h-246l-180 -520h264l-16 -64h-270l-140 -399h-63l139 399h-463l-139 -399h-63l139 399h-240zM422 463h463l182 520h-465z" />
<glyph unicode="$" horiz-adv-x="1269" d="M27 254l51 45q149 -188 407 -229l172 639q-93 35 -155 65.5t-114.5 72.5t-77.5 95t-25 121q0 152 131.5 261.5t345.5 109.5q37 0 88 -7l35 125h63l-37 -133q210 -42 351 -186l-48 -47q-134 134 -323 172l-162 -604q91 -35 152 -66.5t113 -74.5t77 -99t25 -127 q0 -75 -33 -144t-94.5 -123.5t-158.5 -87t-214 -32.5q-47 0 -70 2l-53 -203h-63l55 211q-133 21 -246 85t-192 159zM354 1069q0 -57 20.5 -100.5t65.5 -78.5t97.5 -60.5t136.5 -57.5l160 596q-54 4 -80 4q-180 0 -290 -90.5t-110 -212.5zM543 63q20 -2 63 -2q194 0 306 96 t112 224q0 58 -19 103t-61 81.5t-96 64.5t-137 60z" />
<glyph unicode="%" horiz-adv-x="1685" d="M145 0l1418 1434h79l-708 -717l-707 -717h-82zM205 1008q0 93 36.5 180.5t100.5 152.5q109 109 248 109q122 0 199 -85t77 -214q0 -93 -37 -181t-102 -153q-108 -108 -246 -108q-123 0 -199.5 85t-76.5 214zM270 1014q0 -107 59 -176.5t156 -69.5q107 0 193 86 q56 56 88.5 133t32.5 158q0 108 -58.5 177t-156.5 69q-107 0 -193 -86q-56 -56 -88.5 -133t-32.5 -158zM922 283q0 93 37 180.5t102 152.5q109 109 246 109q123 0 200.5 -85t77.5 -214q0 -93 -37 -181t-102 -153q-108 -108 -246 -108q-123 0 -200.5 85t-77.5 214zM989 289 q0 -108 58.5 -177t156.5 -69q107 0 193 86q56 56 88.5 133t32.5 158q0 108 -58.5 177t-156.5 69q-107 0 -193 -86q-56 -56 -88.5 -133t-32.5 -158z" />
<glyph unicode="&#x26;" horiz-adv-x="1396" d="M68 334q0 349 524 483q-111 162 -111 289q0 151 109 251.5t266 100.5q140 0 227.5 -78t87.5 -202q0 -139 -121 -236t-360 -162l324 -454q124 141 250 354l55 -31q-147 -237 -268 -368l188 -269l-51 -35l-182 256q-128 -126 -257.5 -189.5t-279.5 -63.5q-109 0 -199 40.5 t-146 122.5t-56 191zM139 340q0 -137 95.5 -218t240.5 -81q255 0 494 242l-342 485q-488 -122 -488 -428zM551 1108q0 -125 104 -281q224 60 336.5 144.5t112.5 204.5q0 97 -69 159t-181 62q-127 0 -215 -82.5t-88 -206.5z" />
<glyph unicode="'" horiz-adv-x="405" d="M197 913l202 521h82v-7l-245 -514h-39z" />
<glyph unicode="(" horiz-adv-x="831" d="M190 449q0 191 77.5 373t230.5 335q203 203 506 316l22 -54q-286 -111 -479 -301q-143 -143 -215 -315t-72 -352q0 -115 26 -217t74 -186t104 -150t128 -129l-39 -43q-363 298 -363 723z" />
<glyph unicode=")" horiz-adv-x="831" d="M-152 -225q287 111 480 301q143 143 214.5 315t71.5 352q0 115 -26 217t-74 186t-103.5 150t-127.5 129l39 43q362 -297 362 -723q0 -191 -77.5 -373.5t-229.5 -334.5q-203 -203 -506 -316z" />
<glyph unicode="*" horiz-adv-x="882" d="M295 1085l274 58l-211 186l48 43l184 -207l57 271l60 -17l-86 -264l264 88l16 -59l-274 -58l211 -186l-47 -43l-185 207l-57 -270l-60 16l86 264l-264 -88z" />
<glyph unicode="+" horiz-adv-x="1245" d="M188 690l17 62h446l123 458h66l-123 -458h446l-16 -62h-447l-125 -459h-65l125 459h-447z" />
<glyph unicode="," horiz-adv-x="391" d="M-68 -150q93 27 119 150h-43l35 133h98l-30 -117q-26 -94 -63.5 -137.5t-104.5 -62.5z" />
<glyph unicode="-" horiz-adv-x="811" d="M156 573l20 72h524l-20 -72h-524z" />
<glyph unicode="." horiz-adv-x="391" d="M8 0l35 133h98l-35 -133h-98z" />
<glyph unicode="/" horiz-adv-x="1013" d="M-219 -262l1470 1896h74l-1470 -1896h-74z" />
<glyph unicode="0" horiz-adv-x="1449" d="M176 514q0 211 78 412.5t213 337.5q194 194 438 194q153 0 262.5 -71t162 -191t52.5 -276q0 -211 -78.5 -412t-213.5 -338q-195 -195 -439 -195q-153 0 -262 71.5t-161 191.5t-52 276zM246 516q0 -212 105 -344.5t304 -132.5q209 0 379 170q128 128 202.5 319t74.5 390 q0 212 -105.5 344.5t-304.5 132.5q-206 0 -379 -170q-127 -127 -201.5 -318t-74.5 -391z" />
<glyph unicode="1" horiz-adv-x="657" d="M201 0l366 1364l-301 -111l-6 62l342 129h55l-387 -1444h-69z" />
<glyph unicode="2" horiz-adv-x="1169" d="M-41 0l10 47l854 682q144 117 204 201.5t60 183.5q0 119 -90 198t-249 79q-230 0 -424 -215l-50 41q215 237 476 237q187 0 298 -96.5t111 -241.5q0 -115 -68 -210.5t-227 -223.5l-774 -616h868l-18 -66h-981z" />
<glyph unicode="3" horiz-adv-x="1177" d="M0 248l57 31q127 -240 428 -240q134 0 243.5 47.5t174 137t64.5 204.5q0 135 -113.5 213t-327.5 78h-53l-14 39l682 610h-797l21 66h892l-14 -50l-674 -608q215 -3 342 -95t127 -249q0 -167 -123 -293q-77 -77 -190 -119.5t-242 -42.5q-174 0 -297.5 72t-185.5 199z" />
<glyph unicode="4" horiz-adv-x="1288" d="M45 414l1120 1030h62l-271 -1018h234l-16 -61h-234l-98 -365h-68l98 365h-817zM147 426h742l241 907z" />
<glyph unicode="5" horiz-adv-x="1202" d="M31 236l57 34q140 -233 424 -233q140 0 253.5 58.5t176 156.5t62.5 213q0 157 -104 242.5t-275 85.5q-165 0 -346 -91l-41 33l229 699h758l-19 -66h-696l-193 -584q67 32 151.5 52t158.5 20q201 0 324.5 -103.5t123.5 -285.5q0 -91 -36.5 -175.5t-102.5 -150.5 q-78 -78 -188.5 -122t-239.5 -44q-167 0 -288.5 73t-188.5 188z" />
<glyph unicode="6" horiz-adv-x="1288" d="M168 455q0 244 81.5 456t221.5 351q193 196 449 196q247 0 403 -192l-51 -43q-146 172 -357 172q-221 0 -393 -172q-120 -120 -189 -282t-89 -343q56 117 185 201t296 84q106 0 193 -32.5t143 -87.5t86.5 -126.5t30.5 -151.5q0 -202 -148 -350q-163 -160 -399 -160 q-98 0 -185.5 33.5t-150.5 95.5q-127 127 -127 351zM242 412q0 -161 104 -265q110 -110 289 -110q102 0 190.5 37t151.5 102q61 61 95 140.5t34 166.5q0 142 -100.5 239t-284.5 97q-218 0 -361 -143q-118 -118 -118 -264z" />
<glyph unicode="7" horiz-adv-x="1126" d="M129 0l1008 1368h-856l18 66h938l-12 -48l-1016 -1386h-80z" />
<glyph unicode="8" horiz-adv-x="1292" d="M88 350q0 159 128 270t331 136q-109 38 -175.5 119t-66.5 188q0 166 144 278.5t358 112.5q194 0 325.5 -97.5t131.5 -248.5q0 -147 -111.5 -251.5t-284.5 -131.5q127 -38 207 -129t80 -209q0 -176 -153.5 -291.5t-397.5 -115.5q-228 0 -372 103.5t-144 266.5zM160 356 q0 -142 123.5 -227.5t322.5 -85.5q218 0 347.5 96t129.5 248q0 136 -122 230t-312 94q-213 0 -351 -105t-138 -250zM377 1061q0 -125 105.5 -211t262.5 -86q195 0 321 99t126 241q0 124 -111 205.5t-276 81.5q-186 0 -307 -94t-121 -236z" />
<glyph unicode="9" horiz-adv-x="1288" d="M57 182l52 43q152 -186 368 -186q219 0 391 172q120 119 190 279t91 339q-57 -119 -185.5 -205.5t-299.5 -86.5q-209 0 -330 117.5t-121 287.5q0 100 39.5 192t109.5 162q162 162 400 162q98 0 185 -33.5t149 -95.5q129 -129 129 -350q0 -243 -81.5 -455t-221.5 -352 q-197 -197 -449 -197q-122 0 -229.5 53t-186.5 154zM285 944q0 -147 100 -245.5t287 -98.5q105 0 197 39t159 106q56 56 88.5 129t32.5 146q0 161 -105 266q-111 111 -288 111q-99 0 -186 -36t-150 -99q-132 -132 -135 -318z" />
<glyph unicode=":" horiz-adv-x="403" d="M14 0l37 133h99l-37 -133h-99zM256 899l35 133h98l-35 -133h-98z" />
<glyph unicode=";" horiz-adv-x="403" d="M-55 -170q8 2 14.5 8.5t12 19.5t8 21t7.5 27.5t7 25.5q9 3 16 8t11 8.5t7 11.5t4 11.5t2.5 14t2.5 14.5l-6 63l63 70l39 -55q-15 -60 -40.5 -110t-49.5 -56q-11 -39 -31 -53.5t-67 -28.5zM256 899l35 133h98l-35 -133h-98z" />
<glyph unicode="&#x3c;" horiz-adv-x="1245" d="M170 698l12 45l1075 486l-20 -78l-973 -436l740 -436l-19 -66z" />
<glyph unicode="=" horiz-adv-x="1245" d="M162 453l18 65h881l-19 -65h-880zM291 926l16 65h881l-17 -65h-880z" />
<glyph unicode="&#x3e;" horiz-adv-x="1245" d="M92 213l21 78l972 436l-739 436l19 66l815 -486l-13 -45z" />
<glyph unicode="?" horiz-adv-x="1052" d="M207 1245q211 207 467 207q188 0 298.5 -99.5t110.5 -250.5q0 -99 -44 -179.5t-121 -134.5t-173 -88t-210 -49l-93 -276h-39l68 325l10 9q112 10 206 38.5t168 75.5t115.5 118t41.5 159q0 129 -93.5 209t-248.5 80q-227 0 -420 -189zM272 0l37 133h99l-37 -133h-99z" />
<glyph unicode="@" horiz-adv-x="1968" d="M141 438q0 208 82 398.5t218 326t317.5 215.5t374.5 80q173 0 317.5 -58t239 -155.5t146.5 -224.5t52 -268q0 -116 -25.5 -215.5t-67 -167.5t-95 -116t-108.5 -70.5t-107 -22.5q-61 0 -105 19.5t-67 53.5t-32 73t-7 85q-62 -102 -161 -167.5t-222 -65.5q-141 0 -228.5 92 t-87.5 239q0 128 62.5 246t172 192t234.5 74q139 0 218 -73.5t98 -184.5l67 222l62 -17l-133 -432q-25 -83 -25 -141q0 -77 40 -120.5t118 -43.5q57 0 115.5 33t111.5 96.5t86 171t33 240.5q0 131 -49 249.5t-137 209.5t-223 144.5t-296 53.5q-183 0 -354.5 -76t-299 -205 t-204.5 -309.5t-77 -378.5q0 -154 51.5 -286t147 -228t238 -150.5t316.5 -54.5q249 0 447 97l22 -45q-209 -101 -471 -101q-184 0 -336 57.5t-254.5 159t-158.5 242.5t-56 307zM649 494q0 -125 67 -199t185 -74q83 0 162.5 40.5t135.5 103t90 139t34 147.5q0 132 -71 209.5 t-205 77.5q-112 0 -205 -65t-143 -166.5t-50 -212.5z" />
<glyph unicode="A" horiz-adv-x="1564" d="M-59 0l1069 1444h63l291 -1444h-70l-82 418h-884l-308 -418h-79zM375 481h825l-174 881z" />
<glyph unicode="B" horiz-adv-x="1478" d="M76 0l385 1434h526q190 0 308 -85.5t118 -236.5q0 -84 -33 -154t-89 -117t-125.5 -77t-147.5 -41q135 -31 213 -106t78 -195q0 -184 -155.5 -303t-436.5 -119h-641zM162 63h561q245 0 380.5 99.5t135.5 261.5q0 128 -112.5 198t-295.5 70h-501zM348 756h486 q236 0 371.5 94t135.5 256q0 127 -98 195.5t-266 68.5h-465z" />
<glyph unicode="C" horiz-adv-x="1497" d="M190 553q0 184 73 355t202 300q119 119 266.5 184.5t312.5 65.5q180 0 315.5 -84t203.5 -227l-62 -29q-66 129 -181.5 203t-277.5 74q-150 0 -284.5 -59.5t-237.5 -164.5q-124 -122 -192 -283t-68 -333q0 -157 68 -275.5t183 -179.5t259 -61q163 0 288.5 59.5 t231.5 167.5l45 -43q-241 -248 -571 -248q-117 0 -221 40.5t-182.5 113t-124.5 182.5t-46 242z" />
<glyph unicode="D" horiz-adv-x="1568" d="M76 0l385 1434h299q177 0 325.5 -50t243.5 -145q158 -158 158 -408q0 -163 -58.5 -307t-166.5 -252q-130 -130 -319.5 -201t-410.5 -71h-456zM162 63h381q204 0 374.5 65t292.5 187q99 99 152 230.5t53 281.5q0 228 -139 367q-85 87 -216.5 131.5t-293.5 44.5h-254z" />
<glyph unicode="E" horiz-adv-x="1343" d="M76 0l385 1434h1003l-18 -64h-934l-166 -616h846l-16 -64h-846l-168 -627h944l-16 -63h-1014z" />
<glyph unicode="F" horiz-adv-x="1310" d="M76 0l385 1434h997l-18 -64h-928l-170 -635h840l-19 -63h-837l-181 -672h-69z" />
<glyph unicode="G" horiz-adv-x="1601" d="M197 575q0 175 70 340t194 289q120 120 274.5 187t329.5 67q345 0 516 -258l-55 -37q-74 109 -184 170.5t-281 61.5q-157 0 -298.5 -61.5t-248.5 -168.5q-116 -116 -181 -270t-65 -317q0 -241 147 -391t392 -150q240 0 444 131l142 494h-494l16 67h564l-170 -600 q-238 -154 -506 -154q-272 0 -439 167t-167 433z" />
<glyph unicode="H" horiz-adv-x="1544" d="M76 0l385 1434h69l-184 -680h977l184 680h70l-385 -1434h-70l185 690h-977l-185 -690h-69z" />
<glyph unicode="I" horiz-adv-x="524" d="M88 0l385 1434h70l-385 -1434h-70z" />
<glyph unicode="J" horiz-adv-x="1093" d="M-10 301l61 21q38 -129 120.5 -205t211.5 -76q159 0 270 111q103 104 162 321l258 961h70l-262 -975q-60 -229 -179 -348q-134 -134 -317 -134q-159 0 -258.5 90.5t-136.5 233.5z" />
<glyph unicode="K" horiz-adv-x="1452" d="M76 0l385 1434h69l-256 -955l1207 955h104l-790 -621l428 -813h-78l-406 772l-491 -387l-103 -385h-69z" />
<glyph unicode="L" horiz-adv-x="1208" d="M76 0l385 1434h69l-368 -1371h864l-16 -63h-934z" />
<glyph unicode="M" horiz-adv-x="1769" d="M76 0l385 1434h57l371 -871l837 871h74l-385 -1434h-69l352 1313l-830 -860h-4l-368 860l-353 -1313h-67z" />
<glyph unicode="N" horiz-adv-x="1605" d="M76 0l385 1434h63l690 -1325l357 1325h67l-385 -1434h-57l-696 1335l-359 -1335h-65z" />
<glyph unicode="O" d="M199 594q0 173 69.5 337.5t192.5 287.5q112 112 255 175.5t300 63.5q134 0 249.5 -48t195.5 -131t125.5 -196.5t45.5 -242.5q0 -175 -70.5 -339.5t-193.5 -287.5q-111 -111 -254.5 -174.5t-300.5 -63.5q-177 0 -318.5 82.5t-218.5 223.5t-77 313zM268 594 q0 -155 68 -281.5t194 -201t285 -74.5q285 0 502 217q115 115 179.5 268t64.5 316q0 238 -152.5 397.5t-394.5 159.5q-143 0 -271 -56.5t-229 -158.5q-116 -115 -181 -268t-65 -318z" />
<glyph unicode="P" horiz-adv-x="1363" d="M76 0l385 1434h440q268 0 397 -129q97 -94 97 -254q0 -192 -127 -316q-87 -87 -230.5 -134.5t-330.5 -47.5h-414l-148 -553h-69zM309 616h402q343 0 503 160q111 111 111 271q0 133 -80 213q-110 110 -346 110h-387z" />
<glyph unicode="Q" d="M199 594q0 173 69.5 337.5t192.5 287.5q112 112 255 175.5t300 63.5q134 0 249.5 -48t195.5 -131t125.5 -196.5t45.5 -242.5q0 -174 -70.5 -339t-191.5 -286l-43 -41l148 -162l-50 -43l-147 166q-215 -160 -465 -160q-177 0 -318.5 82.5t-218.5 223.5t-77 313zM268 594 q0 -155 68 -281.5t194 -201t285 -74.5q229 0 422 145l-256 285l51 43l250 -287l35 31q116 116 180 268.5t64 315.5q0 238 -152.5 397.5t-394.5 159.5q-143 0 -271 -56.5t-229 -158.5q-116 -115 -181 -268t-65 -318z" />
<glyph unicode="R" horiz-adv-x="1474" d="M76 0l385 1434h512q255 0 381 -123q90 -90 90 -236q0 -174 -119 -293q-143 -143 -440 -166l321 -616h-80l-317 612h-41h-459l-164 -612h-69zM326 676h467q336 0 481 145q100 100 100 248q0 121 -71 195q-106 106 -334 106h-457z" />
<glyph unicode="S" horiz-adv-x="1308" d="M45 250l53 39q91 -119 226 -182.5t301 -63.5q197 0 317.5 100t120.5 236q0 49 -17 90t-44 71.5t-75.5 60t-96.5 51.5t-121 50q-79 30 -131.5 54t-106.5 57.5t-85.5 68t-51 81t-19.5 102.5q0 139 105 244q145 145 399 145q151 0 277.5 -56.5t214.5 -154.5l-54 -45 q-81 92 -194.5 142.5t-249.5 50.5q-98 0 -180.5 -27t-135.5 -72t-82.5 -102.5t-29.5 -118.5q0 -46 18.5 -85.5t46.5 -68t78 -57.5t96 -49t117 -47q79 -30 133 -55t106.5 -58.5t83.5 -70.5t50 -86t19 -109q0 -147 -111 -258q-147 -147 -406 -147q-179 0 -328 72t-243 198z " />
<glyph unicode="T" horiz-adv-x="1218" d="M283 1370l16 64h1092l-17 -64h-512l-366 -1370h-70l367 1370h-510z" />
<glyph unicode="U" horiz-adv-x="1544" d="M199 432q0 113 34 240l203 762h70l-209 -787q-29 -104 -29 -209q0 -189 119 -293t326 -104q227 0 381 158q140 140 217 422l217 813h69l-223 -830q-78 -295 -231 -448q-179 -179 -434 -179q-234 0 -372 119.5t-138 335.5z" />
<glyph unicode="V" horiz-adv-x="1462" d="M307 1434h72l219 -1358l952 1358h80l-1022 -1444h-57z" />
<glyph unicode="W" horiz-adv-x="2166" d="M319 1434h70l109 -1342l792 1346h53l89 -1346l813 1342h75l-884 -1444h-58l-90 1325l-788 -1325h-58z" />
<glyph unicode="X" horiz-adv-x="1392" d="M-45 0l756 737l-389 697h73l365 -658l672 658h88l-729 -709l403 -725h-76l-375 684l-700 -684h-88z" />
<glyph unicode="Y" horiz-adv-x="1363" d="M281 1434h73l348 -787l773 787h92l-846 -856l-156 -578h-69l159 594z" />
<glyph unicode="Z" horiz-adv-x="1363" d="M-23 0l11 39l1360 1331h-969l18 64h1078l-13 -39l-1360 -1332h1002l-17 -63h-1110z" />
<glyph unicode="[" horiz-adv-x="856" d="M18 -266l457 1700h547l-14 -52h-482l-428 -1597h482l-15 -51h-547z" />
<glyph unicode="\" horiz-adv-x="989" d="M315 1634h62l452 -1896h-61z" />
<glyph unicode="]" horiz-adv-x="856" d="M-131 -266l14 51h482l428 1597h-482l15 52h546l-456 -1700h-547z" />
<glyph unicode="^" horiz-adv-x="1024" d="M293 1012l436 428h51l207 -428h-57l-187 360l-378 -360h-72z" />
<glyph unicode="_" horiz-adv-x="1165" d="M-229 -313l16 59h1176l-17 -59h-1175z" />
<glyph unicode="`" horiz-adv-x="1024" d="M621 1427l81 39l113 -247h-45z" />
<glyph unicode="a" horiz-adv-x="1163" d="M51 260q0 143 94 240q127 127 371 127q209 0 420 -62l12 39q17 66 17 117q0 128 -93 197t-254 69q-142 0 -292 -53l-17 59q155 56 316 56q186 0 294.5 -83.5t108.5 -238.5q0 -63 -18 -133l-160 -594h-66l60 219q-73 -111 -189 -177.5t-270 -66.5q-135 0 -234.5 77 t-99.5 208zM121 270q0 -110 80.5 -172.5t195.5 -62.5q179 0 318 109t182 274l25 92q-198 55 -416 55q-206 0 -307 -104q-78 -75 -78 -191z" />
<glyph unicode="b" horiz-adv-x="1335" d="M51 0l402 1495h65l-188 -700q31 47 76 91t104 83.5t134.5 63.5t154.5 24q185 0 303.5 -125t118.5 -314q0 -134 -52 -260t-145 -219q-164 -164 -385 -164q-94 0 -173 29.5t-131 79t-85 108t-47 123.5l-86 -315h-66zM242 438q0 -173 109 -287t286 -114q196 0 336 143 q85 84 131.5 197t46.5 233q0 168 -100 276.5t-258 108.5q-205 0 -371 -166q-85 -83 -132.5 -187t-47.5 -204z" />
<glyph unicode="c" horiz-adv-x="1138" d="M100 422q0 128 51 246t142 209q85 85 192.5 132.5t223.5 47.5q147 0 249.5 -70t155.5 -176l-55 -31q-118 215 -354 215q-100 0 -194 -42t-169 -117q-80 -80 -126 -187.5t-46 -224.5q0 -119 56 -209t142.5 -134t186.5 -44q189 0 356 153l45 -40q-186 -175 -403 -175 q-85 0 -165.5 30.5t-145 85.5t-103.5 141.5t-39 189.5z" />
<glyph unicode="d" horiz-adv-x="1335" d="M109 412q0 135 52 261.5t144 217.5q163 166 385 166q94 0 173 -29.5t131 -79.5t85 -108.5t47 -122.5l211 778h66l-402 -1495h-65l63 236q-30 -47 -75 -91t-104 -83t-135 -63t-155 -24q-183 0 -302 125t-119 312zM178 422q0 -168 100.5 -276.5t258.5 -108.5q104 0 200 44 t172 120q83 85 130.5 189t47.5 204q0 173 -108.5 287t-284.5 114q-195 0 -338 -143q-84 -84 -131 -197.5t-47 -232.5z" />
<glyph unicode="e" horiz-adv-x="1198" d="M100 406q0 133 53.5 258t147.5 219q82 82 184 128t213 46q101 0 179.5 -33.5t125 -90.5t70 -127.5t23.5 -150.5q-3 -92 -25 -159h-893q-6 -44 -6 -86q0 -169 104.5 -271t280.5 -102q196 0 371 143l39 -47q-187 -158 -410 -158q-205 0 -331 118.5t-126 312.5zM188 555h830 q10 73 10 100q0 68 -19 127t-57.5 107.5t-104.5 77t-151 28.5q-192 0 -344 -149q-122 -122 -164 -291z" />
<glyph unicode="f" horiz-adv-x="696" d="M102 0l260 973h-157l16 59h158l43 160q37 143 115 221q82 82 211 82q110 0 190 -47l-18 -59q-82 45 -175 45q-194 0 -258 -246l-43 -156h375l-14 -59h-377l-260 -973h-66z" />
<glyph unicode="g" horiz-adv-x="1331" d="M-2 -137l47 47q83 -83 199 -129.5t245 -46.5q211 0 336 125q94 94 148 288l45 168q-80 -107 -198.5 -173t-266.5 -66q-114 0 -212 49t-159 142t-61 210q0 116 45 222.5t125 187.5q82 80 187 125t222 45q93 0 170 -29t128 -78t83 -104.5t47 -116.5l82 303h66l-242 -901 q-30 -110 -68.5 -183t-93.5 -130q-151 -148 -387 -148q-136 0 -265.5 52t-221.5 141zM190 483q0 -153 108.5 -248.5t264.5 -95.5q110 0 208 43t173 117q71 72 110.5 157.5t39.5 166.5q0 71 -28.5 138t-79 118.5t-126 82.5t-162.5 31q-207 0 -354 -147q-73 -73 -113.5 -167 t-40.5 -196z" />
<glyph unicode="h" horiz-adv-x="1243" d="M51 0l402 1495h65l-188 -698q166 260 430 260q164 0 255 -91t91 -243q0 -70 -27 -166l-147 -557h-66l150 559q20 76 20 158q0 129 -73.5 203.5t-217.5 74.5q-153 0 -288.5 -115.5t-186.5 -304.5l-153 -575h-66z" />
<glyph unicode="i" horiz-adv-x="475" d="M63 0l279 1032h66l-277 -1032h-68zM406 1317l34 125h88l-34 -125h-88z" />
<glyph unicode="j" horiz-adv-x="475" d="M-252 -322l19 60q42 -14 79 -14q143 0 189 170l307 1138h66l-310 -1147q-30 -113 -94 -168t-151 -55q-55 0 -105 16zM406 1317l34 125h88l-34 -125h-88z" />
<glyph unicode="k" horiz-adv-x="1126" d="M51 0l402 1495h65l-305 -1139l856 676h94l-583 -457l321 -575h-74l-299 537l-338 -265l-73 -272h-66z" />
<glyph unicode="l" horiz-adv-x="473" d="M63 0l402 1495h67l-401 -1495h-68z" />
<glyph unicode="m" horiz-adv-x="1912" d="M51 0l277 1032h65l-63 -235q164 260 391 260q140 0 220.5 -82t88.5 -213q71 130 181.5 212.5t250.5 82.5q144 0 230 -89.5t86 -232.5q0 -58 -29 -178l-150 -557h-65l149 559q25 92 25 172q0 121 -67.5 192.5t-192.5 71.5q-139 0 -265 -123t-173 -305l-152 -567h-65 l149 559q27 100 27 172q0 121 -68 192.5t-194 71.5q-139 0 -264 -123t-175 -305l-151 -567h-66z" />
<glyph unicode="n" horiz-adv-x="1243" d="M51 0l277 1032h65l-63 -235q166 260 430 260q164 0 255 -91t91 -243q0 -70 -27 -166l-147 -557h-66l150 559q20 76 20 158q0 129 -73.5 203.5t-217.5 74.5q-153 0 -288.5 -115.5t-186.5 -304.5l-153 -575h-66z" />
<glyph unicode="o" horiz-adv-x="1282" d="M102 434q0 122 49.5 238.5t139.5 206.5q83 83 191 130.5t229 47.5q205 0 337 -130t132 -329q0 -122 -49.5 -238t-141.5 -206q-81 -82 -190 -130.5t-230 -48.5q-205 0 -336 130t-131 329zM172 438q0 -178 111 -289.5t292 -111.5q103 0 197.5 42.5t167.5 115.5 q79 79 123.5 184t44.5 215q0 178 -111 289.5t-290 111.5q-104 0 -199 -42t-166 -115q-79 -79 -124.5 -185t-45.5 -215z" />
<glyph unicode="p" horiz-adv-x="1335" d="M-37 -328l365 1360h65l-63 -237q31 47 76 91t104 83.5t134.5 63.5t154.5 24q185 0 303.5 -125t118.5 -314q0 -134 -52 -260t-145 -219q-164 -164 -385 -164q-94 0 -173 29.5t-131 79t-85 108t-47 123.5l-174 -643h-66zM242 438q0 -173 109 -287t286 -114q196 0 336 143 q85 84 131.5 197t46.5 233q0 168 -100 276.5t-258 108.5q-205 0 -371 -166q-85 -83 -132.5 -187t-47.5 -204z" />
<glyph unicode="q" horiz-adv-x="1335" d="M109 412q0 135 52 261.5t144 217.5q163 166 385 166q94 0 173 -29.5t131 -79.5t85 -108.5t47 -122.5l86 315h66l-365 -1360h-65l151 564q-30 -47 -75 -91t-104 -83t-135 -63t-155 -24q-183 0 -302 125t-119 312zM178 422q0 -168 100.5 -276.5t258.5 -108.5q104 0 200 44 t172 120q83 85 130.5 189t47.5 204q0 173 -108.5 287t-284.5 114q-195 0 -338 -143q-84 -84 -131 -197.5t-47 -232.5z" />
<glyph unicode="r" horiz-adv-x="741" d="M51 0l277 1032h65l-82 -311q101 158 240 247q133 85 271 85h12l-19 -68h-4q-78 0 -164.5 -37.5t-165 -101.5t-142.5 -159.5t-93 -203.5l-129 -483h-66z" />
<glyph unicode="s" horiz-adv-x="1007" d="M4 150l47 47q167 -156 389 -156q134 0 222 67t88 156q0 81 -57 129.5t-197 102.5q-72 27 -120 51.5t-89.5 56.5t-61.5 72t-20 90q0 118 103.5 202.5t271.5 84.5q93 0 194 -36t174 -99l-43 -50q-70 58 -158 90.5t-172 32.5q-140 0 -220.5 -64.5t-80.5 -150.5q0 -40 15 -71 t51 -57.5t78 -47t112 -47.5q150 -59 219.5 -120.5t69.5 -160.5q0 -118 -108.5 -205t-276.5 -87q-118 0 -232.5 44t-197.5 126z" />
<glyph unicode="t" horiz-adv-x="782" d="M168 178q0 42 14 103l185 692h-158l16 59h158l92 346h68l-94 -346h372l-16 -59h-371l-186 -694q-15 -62 -15 -95q0 -141 181 -141q75 0 149 31l-18 -68q-65 -24 -144 -24q-111 0 -172 49.5t-61 146.5z" />
<glyph unicode="u" horiz-adv-x="1243" d="M137 309q0 64 25 166l149 557h66l-150 -559q-22 -83 -22 -158q0 -128 74.5 -203t218.5 -75q152 0 287.5 116t185.5 304l153 575h68l-277 -1032h-65l63 236q-170 -261 -430 -261q-164 0 -255 91t-91 243z" />
<glyph unicode="v" horiz-adv-x="1144" d="M201 1032h69l164 -958l674 958h78l-744 -1040h-53z" />
<glyph unicode="w" horiz-adv-x="1681" d="M215 1032h68l75 -942l578 948h55l68 -948l575 942h74l-643 -1040h-57l-72 938l-574 -938h-55z" />
<glyph unicode="x" horiz-adv-x="1103" d="M-61 0l579 532l-280 500h73l252 -461l496 461h88l-553 -508l293 -524h-74l-266 483l-520 -483h-88z" />
<glyph unicode="y" horiz-adv-x="1169" d="M-154 -272l37 53q75 -55 174 -55q84 0 166.5 58t192.5 214l-221 1034h69l201 -969l668 969h77l-733 -1052q-88 -126 -163 -196.5t-133 -94t-128 -23.5q-117 0 -207 62z" />
<glyph unicode="z" horiz-adv-x="1046" d="M-53 0l10 37l1012 938h-736l17 57h840l-11 -37l-1011 -938h766l-17 -57h-870z" />
<glyph unicode="{" horiz-adv-x="933" d="M123 559l14 55h60q144 0 217 76q27 27 47.5 62.5t37 87t22.5 76t20 83.5q23 111 54 189.5t89 136.5q126 126 385 137l-4 -55q-223 -14 -328 -119q-51 -51 -79.5 -123.5t-51.5 -177.5q-13 -60 -21 -90.5t-24 -81.5t-38 -88t-50 -65q-66 -63 -176 -78q139 -33 139 -154 q0 -50 -26 -143q-43 -138 -43 -234q0 -114 62 -185.5t200 -107.5l-21 -49q-309 75 -309 338q0 89 43 242q25 86 25 141q0 57 -44.5 92t-142.5 35h-57z" />
<glyph unicode="|" horiz-adv-x="550" d="M37 -262l508 1896h59l-510 -1896h-57z" />
<glyph unicode="}" horiz-adv-x="933" d="M-100 -287l4 56q223 14 327 118q51 51 79.5 123.5t51.5 177.5q17 78 28.5 121t40 105.5t65.5 99.5q66 63 176 78q-140 34 -140 153q0 48 27 144q43 138 43 233q0 114 -62 185.5t-200 107.5l20 49q310 -76 310 -338q0 -88 -43 -241q-25 -86 -25 -142q0 -57 44 -92t142 -35 h58l-15 -55h-59q-144 0 -217 -76q-27 -27 -47.5 -62.5t-37 -87t-22.5 -76t-20 -83.5q-23 -111 -54 -189.5t-89 -136.5q-126 -126 -385 -137z" />
<glyph unicode="~" horiz-adv-x="917" d="M180 530q42 94 87 138.5t102 44.5q35 0 65.5 -19.5t67.5 -56.5q33 -33 56.5 -48.5t47.5 -15.5q35 0 66.5 31t68.5 103l45 -19q-39 -95 -85 -138.5t-103 -43.5q-35 0 -65 19t-68 55q-62 65 -105 65q-35 0 -66.5 -31t-68.5 -102z" />
<glyph unicode="&#xa1;" horiz-adv-x="444" d="M45 0l51 190l254 869h35l-215 -869l-51 -190h-74zM383 1300l35 134h98l-35 -134h-98z" />
<glyph unicode="&#xa2;" horiz-adv-x="1146" d="M164 627q0 131 51 249.5t141 208.5q85 85 193.5 133t226.5 48q24 0 70 -4l74 184h65l-80 -197q189 -48 283 -229l-55 -31q-94 166 -252 203l-367 -934q50 -12 104 -12q206 0 369 153l43 -41q-181 -174 -416 -174q-62 0 -120 15l-84 -211h-66l92 229q-122 49 -197 157 t-75 253zM233 629q0 -127 62.5 -219.5t165.5 -135.5l362 928q-16 2 -49 2q-103 0 -197.5 -41.5t-168.5 -115.5q-82 -82 -128.5 -190.5t-46.5 -227.5z" />
<glyph unicode="&#xa3;" horiz-adv-x="1247" d="M-12 0l8 37l190 26l156 578h-182l16 66h182l72 264q65 233 178 346q132 135 318 135q127 0 220 -62t148 -169l-59 -33q-110 201 -315 201q-150 0 -261 -111q-103 -103 -163 -322l-68 -249h614l-16 -66h-616l-154 -578h766l-16 -63h-1018z" />
<glyph unicode="&#xa5;" horiz-adv-x="1417" d="M168 250l16 61h426l72 264h-426l18 62h394l-353 797h76l346 -785l762 785h90l-778 -797h385l-18 -62h-426l-72 -264h426l-16 -61h-426l-66 -250h-70l66 250h-426z" />
<glyph unicode="&#xa7;" horiz-adv-x="1267" d="M139 145l45 50q72 -67 178.5 -110.5t233.5 -43.5q120 0 196 50.5t76 129.5q0 42 -22.5 77.5t-69 64.5t-97.5 51t-128 49q-70 24 -119 44t-98.5 47t-79 54.5t-48 64.5t-18.5 79q0 109 105.5 177t281.5 68q23 0 37 -2q-178 81 -178 215q0 108 98 176t250 68 q137 0 257.5 -48.5t193.5 -117.5l-47 -49q-70 66 -177 110t-233 44q-120 0 -196 -50.5t-76 -130.5t79 -133t238 -108q69 -24 118 -44t98 -47t78.5 -54.5t48 -64.5t18.5 -79q0 -109 -104.5 -177.5t-280.5 -68.5h-39q180 -79 180 -213q0 -108 -98.5 -175.5t-251.5 -67.5 q-136 0 -256.5 48t-192.5 117zM258 758q0 -67 65 -120t230 -110q125 -43 240 -43q147 0 233 56.5t86 134.5q0 67 -64.5 119.5t-228.5 109.5q-125 43 -239 43q-147 0 -234.5 -56t-87.5 -134z" />
<glyph unicode="&#xa8;" horiz-adv-x="1024" d="M498 1241l34 127h101l-35 -127h-100zM791 1241l34 127h101l-35 -127h-100z" />
<glyph unicode="&#xa9;" horiz-adv-x="1699" d="M166 629q0 164 64 320t180 272q237 237 571 237q195 0 346 -86.5t231 -234.5t80 -332q0 -164 -63.5 -320t-179.5 -272q-238 -238 -572 -238q-195 0 -346 86.5t-231 235t-80 332.5zM215 625q0 -124 41.5 -234t118 -193t193.5 -131.5t259 -48.5q309 0 531 222 q111 111 171 257.5t60 311.5q0 124 -42 234t-118.5 193t-193.5 131t-258 48q-310 0 -531 -221q-111 -111 -171 -257.5t-60 -311.5zM547 641q0 97 37.5 186.5t105.5 157.5q131 131 299 131q96 0 168.5 -44.5t108.5 -119.5l-52 -26q-73 135 -227 135q-143 0 -252 -109 q-127 -127 -127 -307q0 -119 69.5 -186.5t176.5 -67.5q135 0 254 115l39 -39q-135 -131 -299 -131q-128 0 -214.5 83t-86.5 222z" />
<glyph unicode="&#xaa;" horiz-adv-x="835" d="M156 631l12 51h504l-13 -51h-503zM262 999q0 94 72 150.5t188 56.5q107 0 219 -32l7 18q8 36 8 59q0 69 -47 103.5t-134 34.5q-70 0 -161 -31l-11 49q93 33 181 33q104 0 165.5 -47.5t61.5 -132.5q0 -31 -10 -76l-88 -328h-56l31 119q-94 -131 -248 -131 q-73 0 -125.5 42.5t-52.5 112.5zM319 1006q0 -55 38 -85t96 -30q92 0 167.5 57.5t100.5 143.5l10 38q-108 31 -213 31q-91 0 -145 -41.5t-54 -113.5z" />
<glyph unicode="&#xab;" horiz-adv-x="989" d="M88 516l4 12l457 422l45 -35l-426 -403l205 -391l-51 -29zM465 516l2 12l459 422l45 -35l-426 -403l203 -391l-52 -29z" />
<glyph unicode="&#xad;" horiz-adv-x="811" d="M156 573l20 72h524l-20 -72h-524z" />
<glyph unicode="&#xae;" horiz-adv-x="851" d="M225 1051q0 169 117 286t276 117q142 0 230 -90t88 -223q0 -170 -117 -287t-276 -117q-142 0 -230 90.5t-88 223.5zM262 1053q0 -120 76 -200.5t207 -80.5q144 0 246 102q108 108 108 265q0 120 -76 200t-207 80q-143 0 -245 -102q-109 -109 -109 -264zM401 922l97 358 h129q63 0 96 -27t33 -73q0 -45 -31 -77.5t-90 -41.5l65 -139h-49l-63 137h-105l-34 -137h-48zM496 1098h94q70 0 98 28q21 21 21 52q0 61 -88 61h-89z" />
<glyph unicode="&#xaf;" horiz-adv-x="1024" d="M428 1272l16 61h570l-17 -61h-569z" />
<glyph unicode="&#xb0;" horiz-adv-x="827" d="M225 1098q0 138 105 248q98 98 229 98q110 0 181 -72t71 -180q0 -147 -104 -246q-100 -100 -230 -100q-109 0 -180.5 72.5t-71.5 179.5zM289 1102q0 -87 53 -142t139 -55q105 0 181 76q88 88 88 207q0 88 -54.5 143t-140.5 55q-103 0 -180 -77q-39 -39 -62.5 -94.5 t-23.5 -112.5z" />
<glyph unicode="&#xb1;" horiz-adv-x="1245" d="M14 0l17 61h940l-15 -61h-942zM215 752l14 61h441l112 428h66l-113 -428h439l-17 -61h-438l-117 -428h-65l116 428h-438z" />
<glyph unicode="&#xb2;" horiz-adv-x="819" d="M223 872l13 50l454 335q85 62 123.5 115t38.5 115q0 64 -47.5 104.5t-126.5 40.5q-129 0 -244 -131l-41 31q127 151 291 151q100 0 161.5 -54t63.5 -138q0 -74 -43.5 -135.5t-144.5 -134.5l-399 -295h475l-17 -54h-557z" />
<glyph unicode="&#xb3;" horiz-adv-x="819" d="M248 1001l47 29q74 -127 227 -127q104 0 179 59.5t75 143.5q0 74 -57 115t-156 41h-45l-16 32l372 316h-438l17 53h514l-15 -49l-364 -307q111 -2 178.5 -53.5t67.5 -141.5q0 -108 -93.5 -184t-220.5 -76q-191 0 -272 149z" />
<glyph unicode="&#xb4;" horiz-adv-x="1024" d="M535 1219l243 247l82 -39l-264 -208h-61z" />
<glyph unicode="&#xb6;" horiz-adv-x="960" d="M221 934q0 197 129 326q174 174 524 174h119l-385 -1434h-71l149 555q-248 6 -369 127q-96 96 -96 252z" />
<glyph unicode="&#xb7;" horiz-adv-x="391" d="M152 537l34 133h99l-35 -133h-98z" />
<glyph unicode="&#xb8;" horiz-adv-x="1024" d="M160 -258l254 272h53l-242 -309z" />
<glyph unicode="&#xb9;" horiz-adv-x="665" d="M424 1593l248 84h47l-215 -805h-58l197 742l-217 -72z" />
<glyph unicode="&#xba;" horiz-adv-x="835" d="M158 631l12 51h561l-14 -51h-559zM274 1100q0 135 103 243q104 101 239 101q112 0 184 -72.5t72 -185.5q0 -67 -27 -130.5t-75 -111.5q-102 -102 -240 -102q-112 0 -184 72.5t-72 185.5zM332 1104q0 -95 57 -152t148 -57q108 0 190 82q88 88 88 207q0 93 -57 150t-148 57 q-108 0 -190 -82q-41 -41 -64.5 -95t-23.5 -110z" />
<glyph unicode="&#xbb;" horiz-adv-x="989" d="M16 125l426 403l-202 392l51 28l231 -424l-2 -12l-459 -422zM393 125l426 403l-205 392l52 28l233 -424l-4 -12l-457 -422z" />
<glyph unicode="&#xbc;" horiz-adv-x="1689" d="M104 0l695 727l663 707h72l-694 -727l-664 -707h-72zM301 1313v51l246 84h47l-215 -805h-57l198 741zM858 240l561 563h70l-150 -561h121l-12 -49h-123l-51 -197h-53l51 197h-406zM928 242h356l131 487z" />
<glyph unicode="&#xbd;" horiz-adv-x="1689" d="M84 0l694 727l664 707h71l-694 -727l-663 -707h-72zM301 1313v51l246 84h47l-215 -805h-57l198 741zM829 0l13 49l454 336q85 63 123.5 115t38.5 114q0 64 -48 105t-126 41q-129 0 -244 -131l-41 30q128 152 291 152q100 0 162 -54.5t64 -138.5q0 -74 -44 -135.5 t-145 -134.5l-399 -295h475l-17 -53h-557z" />
<glyph unicode="&#xbe;" horiz-adv-x="1843" d="M131 772l49 29q74 -127 226 -127q103 0 178 59.5t75 143.5q0 74 -56 114.5t-157 40.5h-45l-14 33l373 315h-438l16 54h512l-12 -50l-367 -307q113 -2 180.5 -53t67.5 -141q0 -108 -93.5 -184t-219.5 -76q-194 0 -275 149zM248 0l694 727l664 707h71l-694 -727l-664 -707 h-71zM1012 240l561 563h69l-149 -561h121l-12 -49h-123l-52 -197h-53l51 197h-405zM1081 242h357l131 487z" />
<glyph unicode="&#xbf;" horiz-adv-x="1052" d="M76 332q0 99 44 179t121.5 134t173.5 88t210 49l92 277h39l-68 -326l-10 -8q-112 -10 -206 -38.5t-168 -75.5t-115.5 -118t-41.5 -159q0 -129 93.5 -209t248.5 -80q228 0 420 188l43 -45q-210 -206 -467 -206q-188 0 -298.5 99.5t-110.5 250.5zM752 1300l36 134h99 l-37 -134h-98z" />
<glyph unicode="&#xc0;" horiz-adv-x="1564" d="M-59 0l1069 1444h63l291 -1444h-70l-82 418h-884l-308 -418h-79zM375 481h825l-174 881zM856 1761l76 39l139 -219h-49z" />
<glyph unicode="&#xc1;" horiz-adv-x="1564" d="M-59 0l1069 1444h63l291 -1444h-70l-82 418h-884l-308 -418h-79zM375 481h825l-174 881zM1036 1581l256 219l78 -39l-266 -180h-68z" />
<glyph unicode="&#xc2;" horiz-adv-x="1564" d="M-59 0l1069 1444h63l291 -1444h-70l-82 418h-884l-308 -418h-79zM375 481h825l-174 881zM821 1575l271 207h59l160 -207h-64l-137 141l-215 -141h-74z" />
<glyph unicode="&#xc3;" horiz-adv-x="1564" d="M-59 0l1069 1444h63l291 -1444h-70l-82 418h-884l-308 -418h-79zM375 481h825l-174 881zM801 1593q71 162 182 162q43 0 131 -47q77 -47 117 -47q38 0 68 24t63 84l43 -12q-68 -162 -180 -162q-47 0 -131 47q-83 48 -117 48q-38 0 -68 -24.5t-63 -84.5z" />
<glyph unicode="&#xc4;" horiz-adv-x="1564" d="M-59 0l1069 1444h63l291 -1444h-70l-82 418h-884l-308 -418h-79zM375 481h825l-174 881zM877 1604l32 125h109l-33 -125h-108zM1194 1604l33 125h106l-33 -125h-106z" />
<glyph unicode="&#xc5;" horiz-adv-x="1564" d="M-59 0l1024 1382q-52 19 -81.5 59t-29.5 93q0 88 72.5 148.5t167.5 60.5q87 0 138.5 -46t51.5 -118q0 -79 -58 -136t-141 -71l279 -1372h-70l-82 418h-884l-308 -418h-79zM375 481h825l-174 881zM909 1538q0 -55 37.5 -88t104.5 -33q69 0 123.5 45.5t54.5 112.5 q0 54 -37.5 88.5t-104.5 34.5q-69 0 -123.5 -46t-54.5 -114z" />
<glyph unicode="&#xc6;" horiz-adv-x="2119" d="M-98 0l1282 1434h1057l-19 -64h-907l-166 -616h817l-16 -64h-820l-167 -627h919l-16 -63h-989l112 418h-629l-374 -418h-84zM416 481h590l239 889h-37z" />
<glyph unicode="&#xc7;" horiz-adv-x="1497" d="M190 553q0 184 73 355t202 300q119 119 266.5 184.5t312.5 65.5q180 0 315.5 -84t203.5 -227l-62 -29q-66 129 -181.5 203t-277.5 74q-150 0 -284.5 -59.5t-237.5 -164.5q-124 -122 -192 -283t-68 -333q0 -157 68 -275.5t183 -179.5t259 -61q163 0 288.5 59.5 t231.5 167.5l45 -43q-241 -248 -571 -248h-12l-211 -270l-66 37l221 238q-142 15 -255.5 86t-182 198t-68.5 289z" />
<glyph unicode="&#xc8;" horiz-adv-x="1343" d="M76 0l385 1434h1003l-18 -64h-934l-166 -616h846l-16 -64h-846l-168 -627h944l-16 -63h-1014zM760 1747l76 39l139 -219h-49z" />
<glyph unicode="&#xc9;" horiz-adv-x="1343" d="M76 0l385 1434h1003l-18 -64h-934l-166 -616h846l-16 -64h-846l-168 -627h944l-16 -63h-1014zM940 1567l256 219l78 -39l-266 -180h-68z" />
<glyph unicode="&#xca;" horiz-adv-x="1343" d="M76 0l385 1434h1003l-18 -64h-934l-166 -616h846l-16 -64h-846l-168 -627h944l-16 -63h-1014zM725 1567l270 207h60l159 -207h-63l-137 141l-215 -141h-74z" />
<glyph unicode="&#xcb;" horiz-adv-x="1343" d="M76 0l385 1434h1003l-18 -64h-934l-166 -616h846l-16 -64h-846l-168 -627h944l-16 -63h-1014zM778 1589l33 125h109l-33 -125h-109zM1096 1589l32 125h107l-33 -125h-106z" />
<glyph unicode="&#xcc;" horiz-adv-x="524" d="M88 0l385 1434h70l-385 -1434h-70zM319 1747l76 39l140 -219h-50z" />
<glyph unicode="&#xcd;" horiz-adv-x="524" d="M88 0l385 1434h70l-385 -1434h-70zM500 1567l256 219l78 -39l-267 -180h-67z" />
<glyph unicode="&#xce;" horiz-adv-x="524" d="M88 0l385 1434h70l-385 -1434h-70zM285 1567l270 207h59l160 -207h-63l-138 141l-215 -141h-73z" />
<glyph unicode="&#xcf;" horiz-adv-x="524" d="M88 0l385 1434h70l-385 -1434h-70zM338 1589l33 125h108l-33 -125h-108zM655 1589l33 125h107l-33 -125h-107z" />
<glyph unicode="&#xd0;" horiz-adv-x="1593" d="M100 0l185 688h-156l16 66h156l184 680h299q178 0 326.5 -50t243.5 -145q157 -157 157 -408q0 -163 -58.5 -307t-166.5 -252q-130 -130 -319 -201t-410 -71h-457zM186 63h381q204 0 375 65t293 187q99 99 152 230.5t53 281.5q0 227 -140 367q-85 87 -216 131.5t-293 44.5 h-254l-166 -616h497l-16 -66h-498z" />
<glyph unicode="&#xd1;" horiz-adv-x="1605" d="M76 0l385 1434h63l690 -1325l357 1325h67l-385 -1434h-57l-696 1335l-359 -1335h-65zM803 1569q71 162 182 162q41 0 131 -48q77 -47 117 -47q38 0 68 24.5t63 84.5l43 -12q-68 -162 -180 -162q-47 0 -131 47q-81 47 -117 47q-38 0 -68 -24.5t-63 -84.5z" />
<glyph unicode="&#xd2;" d="M199 594q0 173 69.5 337.5t192.5 287.5q112 112 255 175.5t300 63.5q134 0 249.5 -48t195.5 -131t125.5 -196.5t45.5 -242.5q0 -175 -70.5 -339.5t-193.5 -287.5q-111 -111 -254.5 -174.5t-300.5 -63.5q-177 0 -318.5 82.5t-218.5 223.5t-77 313zM268 594 q0 -155 68 -281.5t194 -201t285 -74.5q285 0 502 217q115 115 179.5 268t64.5 316q0 238 -152.5 397.5t-394.5 159.5q-143 0 -271 -56.5t-229 -158.5q-116 -115 -181 -268t-65 -318zM901 1761l76 39l139 -219h-49z" />
<glyph unicode="&#xd3;" d="M199 594q0 173 69.5 337.5t192.5 287.5q112 112 255 175.5t300 63.5q134 0 249.5 -48t195.5 -131t125.5 -196.5t45.5 -242.5q0 -175 -70.5 -339.5t-193.5 -287.5q-111 -111 -254.5 -174.5t-300.5 -63.5q-177 0 -318.5 82.5t-218.5 223.5t-77 313zM268 594 q0 -155 68 -281.5t194 -201t285 -74.5q285 0 502 217q115 115 179.5 268t64.5 316q0 238 -152.5 397.5t-394.5 159.5q-143 0 -271 -56.5t-229 -158.5q-116 -115 -181 -268t-65 -318zM1079 1581l256 219l78 -39l-266 -180h-68z" />
<glyph unicode="&#xd4;" d="M199 594q0 173 69.5 337.5t192.5 287.5q112 112 255 175.5t300 63.5q134 0 249.5 -48t195.5 -131t125.5 -196.5t45.5 -242.5q0 -175 -70.5 -339.5t-193.5 -287.5q-111 -111 -254.5 -174.5t-300.5 -63.5q-177 0 -318.5 82.5t-218.5 223.5t-77 313zM268 594 q0 -155 68 -281.5t194 -201t285 -74.5q285 0 502 217q115 115 179.5 268t64.5 316q0 238 -152.5 397.5t-394.5 159.5q-143 0 -271 -56.5t-229 -158.5q-116 -115 -181 -268t-65 -318zM868 1581l271 207h59l160 -207h-64l-137 141l-215 -141h-74z" />
<glyph unicode="&#xd5;" d="M199 594q0 173 69.5 337.5t192.5 287.5q112 112 255 175.5t300 63.5q134 0 249.5 -48t195.5 -131t125.5 -196.5t45.5 -242.5q0 -175 -70.5 -339.5t-193.5 -287.5q-111 -111 -254.5 -174.5t-300.5 -63.5q-177 0 -318.5 82.5t-218.5 223.5t-77 313zM268 594 q0 -155 68 -281.5t194 -201t285 -74.5q285 0 502 217q115 115 179.5 268t64.5 316q0 238 -152.5 397.5t-394.5 159.5q-143 0 -271 -56.5t-229 -158.5q-116 -115 -181 -268t-65 -318zM844 1593q71 162 182 162q43 0 131 -47q77 -47 117 -47q38 0 68 24t63 84l43 -12 q-68 -162 -180 -162q-47 0 -131 47q-83 48 -117 48q-38 0 -68 -24.5t-63 -84.5z" />
<glyph unicode="&#xd6;" d="M199 594q0 173 69.5 337.5t192.5 287.5q112 112 255 175.5t300 63.5q134 0 249.5 -48t195.5 -131t125.5 -196.5t45.5 -242.5q0 -175 -70.5 -339.5t-193.5 -287.5q-111 -111 -254.5 -174.5t-300.5 -63.5q-177 0 -318.5 82.5t-218.5 223.5t-77 313zM268 594 q0 -155 68 -281.5t194 -201t285 -74.5q285 0 502 217q115 115 179.5 268t64.5 316q0 238 -152.5 397.5t-394.5 159.5q-143 0 -271 -56.5t-229 -158.5q-116 -115 -181 -268t-65 -318zM920 1604l32 125h109l-33 -125h-108zM1237 1604l33 125h106l-33 -125h-106z" />
<glyph unicode="&#xd7;" horiz-adv-x="1245" d="M141 340l490 387l-283 381l55 43l279 -385l489 387l37 -51l-489 -385l280 -383l-55 -41l-276 385l-490 -387z" />
<glyph unicode="&#xd8;" d="M0 -10l301 250q-102 155 -102 354q0 173 69.5 337.5t192.5 287.5q112 112 255 175.5t300 63.5q149 0 271.5 -57.5t207.5 -161.5l244 205h90l-299 -252q102 -151 102 -352q0 -175 -70.5 -339.5t-193.5 -287.5q-111 -111 -254.5 -174.5t-300.5 -63.5q-148 0 -271 57.5 t-206 160.5l-244 -203h-92zM268 594q0 -177 84 -311l1092 913q-74 94 -183.5 146.5t-246.5 52.5q-143 0 -271 -56.5t-229 -158.5q-116 -115 -181 -268t-65 -318zM385 233q74 -93 183.5 -144.5t246.5 -51.5q285 0 502 217q115 115 179.5 268t64.5 316q0 172 -84 311z" />
<glyph unicode="&#xd9;" horiz-adv-x="1544" d="M199 432q0 113 34 240l203 762h70l-209 -787q-29 -104 -29 -209q0 -189 119 -293t326 -104q227 0 381 158q140 140 217 422l217 813h69l-223 -830q-78 -295 -231 -448q-179 -179 -434 -179q-234 0 -372 119.5t-138 335.5zM809 1737l76 39l139 -220h-49z" />
<glyph unicode="&#xda;" horiz-adv-x="1544" d="M199 432q0 113 34 240l203 762h70l-209 -787q-29 -104 -29 -209q0 -189 119 -293t326 -104q227 0 381 158q140 140 217 422l217 813h69l-223 -830q-78 -295 -231 -448q-179 -179 -434 -179q-234 0 -372 119.5t-138 335.5zM989 1556l256 220l78 -39l-266 -181h-68z" />
<glyph unicode="&#xdb;" horiz-adv-x="1544" d="M199 432q0 113 34 240l203 762h70l-209 -787q-29 -104 -29 -209q0 -189 119 -293t326 -104q227 0 381 158q140 140 217 422l217 813h69l-223 -830q-78 -295 -231 -448q-179 -179 -434 -179q-234 0 -372 119.5t-138 335.5zM776 1556l271 207h59l160 -207h-64l-137 142 l-215 -142h-74z" />
<glyph unicode="&#xdc;" horiz-adv-x="1544" d="M199 432q0 113 34 240l203 762h70l-209 -787q-29 -104 -29 -209q0 -189 119 -293t326 -104q227 0 381 158q140 140 217 422l217 813h69l-223 -830q-78 -295 -231 -448q-179 -179 -434 -179q-234 0 -372 119.5t-138 335.5zM829 1579l33 125h109l-33 -125h-109zM1147 1579 l33 125h106l-33 -125h-106z" />
<glyph unicode="&#xdd;" horiz-adv-x="1363" d="M281 1434h73l348 -787l773 787h92l-846 -856l-156 -578h-69l159 594zM887 1556l256 220l78 -39l-267 -181h-67z" />
<glyph unicode="&#xde;" horiz-adv-x="1370" d="M76 0l385 1434h67l-71 -271h370q271 0 400 -129q96 -93 96 -254q0 -188 -127 -315q-87 -87 -230.5 -134.5t-330.5 -47.5h-414l-76 -283h-69zM238 346h401q345 0 504 162q110 110 110 268q0 134 -79 213q-111 111 -349 111h-385z" />
<glyph unicode="&#xdf;" horiz-adv-x="1210" d="M51 0l279 1042q61 218 176 332q133 133 309 133q158 0 259.5 -90.5t101.5 -232.5q0 -73 -24 -136t-64 -109t-97.5 -83t-120 -61.5t-135.5 -42.5q69 -17 125.5 -44t104 -67t74 -98.5t26.5 -130.5q0 -184 -175 -301.5t-466 -114.5l16 61q258 0 406.5 100.5t148.5 254.5 q0 126 -97 202t-282 111l17 57q230 46 350.5 143.5t120.5 258.5q0 113 -78 188.5t-213 75.5q-150 0 -260 -114t-162 -310l-274 -1024h-66z" />
<glyph unicode="&#xe0;" horiz-adv-x="1163" d="M51 260q0 143 94 240q127 127 371 127q209 0 420 -62l12 39q17 66 17 117q0 128 -93 197t-254 69q-142 0 -292 -53l-17 59q155 56 316 56q186 0 294.5 -83.5t108.5 -238.5q0 -63 -18 -133l-160 -594h-66l60 219q-73 -111 -189 -177.5t-270 -66.5q-135 0 -234.5 77 t-99.5 208zM121 270q0 -110 80.5 -172.5t195.5 -62.5q179 0 318 109t182 274l25 92q-198 55 -416 55q-206 0 -307 -104q-78 -75 -78 -191zM547 1427l82 39l112 -247h-45z" />
<glyph unicode="&#xe1;" horiz-adv-x="1163" d="M51 260q0 143 94 240q127 127 371 127q209 0 420 -62l12 39q17 66 17 117q0 128 -93 197t-254 69q-142 0 -292 -53l-17 59q155 56 316 56q186 0 294.5 -83.5t108.5 -238.5q0 -63 -18 -133l-160 -594h-66l60 219q-73 -111 -189 -177.5t-270 -66.5q-135 0 -234.5 77 t-99.5 208zM121 270q0 -110 80.5 -172.5t195.5 -62.5q179 0 318 109t182 274l25 92q-198 55 -416 55q-206 0 -307 -104q-78 -75 -78 -191zM698 1219l244 247l82 -39l-264 -208h-62z" />
<glyph unicode="&#xe2;" horiz-adv-x="1163" d="M51 260q0 143 94 240q127 127 371 127q209 0 420 -62l12 39q17 66 17 117q0 128 -93 197t-254 69q-142 0 -292 -53l-17 59q155 56 316 56q186 0 294.5 -83.5t108.5 -238.5q0 -63 -18 -133l-160 -594h-66l60 219q-73 -111 -189 -177.5t-270 -66.5q-135 0 -234.5 77 t-99.5 208zM121 270q0 -110 80.5 -172.5t195.5 -62.5q179 0 318 109t182 274l25 92q-198 55 -416 55q-206 0 -307 -104q-78 -75 -78 -191zM496 1219l276 237h47l148 -237h-54l-131 161l-223 -161h-63z" />
<glyph unicode="&#xe3;" horiz-adv-x="1163" d="M51 260q0 143 94 240q127 127 371 127q209 0 420 -62l12 39q17 66 17 117q0 128 -93 197t-254 69q-142 0 -292 -53l-17 59q155 56 316 56q186 0 294.5 -83.5t108.5 -238.5q0 -63 -18 -133l-160 -594h-66l60 219q-73 -111 -189 -177.5t-270 -66.5q-135 0 -234.5 77 t-99.5 208zM121 270q0 -110 80.5 -172.5t195.5 -62.5q179 0 318 109t182 274l25 92q-198 55 -416 55q-206 0 -307 -104q-78 -75 -78 -191zM457 1229q39 95 82.5 135.5t99.5 40.5q46 0 135 -55q81 -52 117 -52q37 0 66.5 26.5t64.5 92.5l43 -10q-38 -95 -82 -134.5 t-100 -39.5q-44 0 -133 55q-87 49 -117 49q-38 0 -68 -25.5t-63 -92.5z" />
<glyph unicode="&#xe4;" horiz-adv-x="1163" d="M51 260q0 143 94 240q127 127 371 127q209 0 420 -62l12 39q17 66 17 117q0 128 -93 197t-254 69q-142 0 -292 -53l-17 59q155 56 316 56q186 0 294.5 -83.5t108.5 -238.5q0 -63 -18 -133l-160 -594h-66l60 219q-73 -111 -189 -177.5t-270 -66.5q-135 0 -234.5 77 t-99.5 208zM121 270q0 -110 80.5 -172.5t195.5 -62.5q179 0 318 109t182 274l25 92q-198 55 -416 55q-206 0 -307 -104q-78 -75 -78 -191zM547 1241l35 127h100l-35 -127h-100zM840 1241l34 127h101l-35 -127h-100z" />
<glyph unicode="&#xe5;" horiz-adv-x="1163" d="M51 260q0 143 94 240q127 127 371 127q209 0 420 -62l12 39q17 66 17 117q0 128 -93 197t-254 69q-142 0 -292 -53l-17 59q155 56 316 56q186 0 294.5 -83.5t108.5 -238.5q0 -63 -18 -133l-160 -594h-66l60 219q-73 -111 -189 -177.5t-270 -66.5q-135 0 -234.5 77 t-99.5 208zM121 270q0 -110 80.5 -172.5t195.5 -62.5q179 0 318 109t182 274l25 92q-198 55 -416 55q-206 0 -307 -104q-78 -75 -78 -191zM584 1395q0 88 68.5 150.5t156.5 62.5q84 0 137 -50.5t53 -127.5q0 -88 -68.5 -150.5t-156.5 -62.5q-84 0 -137 50.5t-53 127.5z M635 1397q0 -60 38 -97.5t103 -37.5q68 0 120 48t52 117q0 60 -38 98t-103 38q-67 0 -119.5 -49t-52.5 -117z" />
<glyph unicode="&#xe6;" horiz-adv-x="2007" d="M51 260q0 143 94 240q127 127 371 127q209 0 420 -62l12 39q17 66 17 117q0 128 -93 197t-254 69q-142 0 -292 -53l-17 59q155 56 316 56q174 0 280.5 -74.5t116.5 -214.5q81 133 209.5 215t275.5 82q100 0 178 -33.5t125 -90.5t71 -127.5t24 -150.5q0 -71 -25 -159h-893 q-6 -44 -6 -86q0 -169 104.5 -271t280.5 -102q197 0 369 143l41 -47q-187 -158 -408 -158q-162 0 -273 73.5t-155 201.5q-109 -131 -248.5 -203t-296.5 -72q-90 0 -167 32t-127 98.5t-50 154.5zM121 270q0 -111 82.5 -173t202.5 -62q145 0 280.5 73.5t237.5 204.5 q-17 89 0 195q-191 57 -418 57q-206 0 -307 -104q-78 -75 -78 -191zM997 555h828q12 58 12 100q0 68 -19 127t-57.5 107.5t-104.5 77t-151 28.5q-195 0 -344 -149q-122 -122 -164 -291z" />
<glyph unicode="&#xe7;" horiz-adv-x="1138" d="M100 422q0 128 51 246t142 209q85 85 192.5 132.5t223.5 47.5q147 0 249.5 -70t155.5 -176l-55 -31q-118 215 -354 215q-100 0 -194 -42t-169 -117q-80 -80 -126 -187.5t-46 -224.5q0 -119 56 -209t142.5 -134t186.5 -44q189 0 356 153l45 -40q-186 -175 -403 -175h-21 l-210 -270l-66 37l223 240q-159 25 -269 142t-110 298z" />
<glyph unicode="&#xe8;" horiz-adv-x="1198" d="M100 406q0 133 53.5 258t147.5 219q82 82 184 128t213 46q101 0 179.5 -33.5t125 -90.5t70 -127.5t23.5 -150.5q-3 -92 -25 -159h-893q-6 -44 -6 -86q0 -169 104.5 -271t280.5 -102q196 0 371 143l39 -47q-187 -158 -410 -158q-205 0 -331 118.5t-126 312.5zM188 555h830 q10 73 10 100q0 68 -19 127t-57.5 107.5t-104.5 77t-151 28.5q-192 0 -344 -149q-122 -122 -164 -291zM594 1427l82 39l112 -247h-45z" />
<glyph unicode="&#xe9;" horiz-adv-x="1198" d="M100 406q0 133 53.5 258t147.5 219q82 82 184 128t213 46q101 0 179.5 -33.5t125 -90.5t70 -127.5t23.5 -150.5q-3 -92 -25 -159h-893q-6 -44 -6 -86q0 -169 104.5 -271t280.5 -102q196 0 371 143l39 -47q-187 -158 -410 -158q-205 0 -331 118.5t-126 312.5zM188 555h830 q10 73 10 100q0 68 -19 127t-57.5 107.5t-104.5 77t-151 28.5q-192 0 -344 -149q-122 -122 -164 -291zM745 1219l244 247l82 -39l-264 -208h-62z" />
<glyph unicode="&#xea;" horiz-adv-x="1198" d="M100 406q0 133 53.5 258t147.5 219q82 82 184 128t213 46q101 0 179.5 -33.5t125 -90.5t70 -127.5t23.5 -150.5q-3 -92 -25 -159h-893q-6 -44 -6 -86q0 -169 104.5 -271t280.5 -102q196 0 371 143l39 -47q-187 -158 -410 -158q-205 0 -331 118.5t-126 312.5zM188 555h830 q10 73 10 100q0 68 -19 127t-57.5 107.5t-104.5 77t-151 28.5q-192 0 -344 -149q-122 -122 -164 -291zM543 1219l276 237h47l148 -237h-53l-132 161l-223 -161h-63z" />
<glyph unicode="&#xeb;" horiz-adv-x="1198" d="M100 406q0 133 53.5 258t147.5 219q82 82 184 128t213 46q101 0 179.5 -33.5t125 -90.5t70 -127.5t23.5 -150.5q-3 -92 -25 -159h-893q-6 -44 -6 -86q0 -169 104.5 -271t280.5 -102q196 0 371 143l39 -47q-187 -158 -410 -158q-205 0 -331 118.5t-126 312.5zM188 555h830 q10 73 10 100q0 68 -19 127t-57.5 107.5t-104.5 77t-151 28.5q-192 0 -344 -149q-122 -122 -164 -291zM596 1241l35 127h100l-35 -127h-100zM889 1241l35 127h100l-35 -127h-100z" />
<glyph unicode="&#xec;" horiz-adv-x="475" d="M63 0l279 1032h66l-277 -1032h-68zM231 1427l82 39l113 -247h-45z" />
<glyph unicode="&#xed;" horiz-adv-x="475" d="M63 0l279 1032h66l-277 -1032h-68zM385 1219l244 247l82 -39l-265 -208h-61z" />
<glyph unicode="&#xee;" horiz-adv-x="475" d="M63 0l279 1032h66l-277 -1032h-68zM182 1219l277 237h47l147 -237h-53l-131 161l-223 -161h-64z" />
<glyph unicode="&#xef;" horiz-adv-x="475" d="M63 0l279 1032h66l-277 -1032h-68zM233 1241l35 127h101l-35 -127h-101zM526 1241l35 127h101l-35 -127h-101z" />
<glyph unicode="&#xf0;" horiz-adv-x="1265" d="M104 438q0 122 49 237t136 202q79 80 181 125t216 45q144 0 248 -67.5t164 -184.5q-52 252 -256 526l-295 -137l-27 53l285 131q-54 66 -109 127h86q26 -30 82 -98l238 110l26 -53l-227 -106q264 -359 264 -707q0 -304 -190 -494q-81 -81 -186.5 -126.5t-225.5 -45.5 q-209 0 -334 130.5t-125 332.5zM174 444q0 -183 105.5 -295t287.5 -112q103 0 196.5 41.5t166.5 114.5q77 77 121.5 180t44.5 211q0 173 -113.5 287t-298.5 114q-200 0 -344 -147q-78 -77 -122 -180.5t-44 -213.5z" />
<glyph unicode="&#xf1;" horiz-adv-x="1243" d="M51 0l277 1032h65l-63 -235q166 260 430 260q164 0 255 -91t91 -243q0 -70 -27 -166l-147 -557h-66l150 559q20 76 20 158q0 129 -73.5 203.5t-217.5 74.5q-153 0 -288.5 -115.5t-186.5 -304.5l-153 -575h-66zM520 1229q39 95 82.5 135.5t99.5 40.5q47 0 136 -55 q81 -52 116 -52q37 0 66.5 26.5t64.5 92.5l43 -10q-38 -95 -82 -134.5t-100 -39.5q-44 0 -133 55q-87 49 -117 49q-38 0 -68 -25.5t-63 -92.5z" />
<glyph unicode="&#xf2;" horiz-adv-x="1282" d="M102 434q0 122 49.5 238.5t139.5 206.5q83 83 191 130.5t229 47.5q205 0 337 -130t132 -329q0 -122 -49.5 -238t-141.5 -206q-81 -82 -190 -130.5t-230 -48.5q-205 0 -336 130t-131 329zM172 438q0 -178 111 -289.5t292 -111.5q103 0 197.5 42.5t167.5 115.5 q79 79 123.5 184t44.5 215q0 178 -111 289.5t-290 111.5q-104 0 -199 -42t-166 -115q-79 -79 -124.5 -185t-45.5 -215zM621 1427l81 39l113 -247h-45z" />
<glyph unicode="&#xf3;" horiz-adv-x="1282" d="M102 434q0 122 49.5 238.5t139.5 206.5q83 83 191 130.5t229 47.5q205 0 337 -130t132 -329q0 -122 -49.5 -238t-141.5 -206q-81 -82 -190 -130.5t-230 -48.5q-205 0 -336 130t-131 329zM172 438q0 -178 111 -289.5t292 -111.5q103 0 197.5 42.5t167.5 115.5 q79 79 123.5 184t44.5 215q0 178 -111 289.5t-290 111.5q-104 0 -199 -42t-166 -115q-79 -79 -124.5 -185t-45.5 -215zM774 1219l244 247l82 -39l-264 -208h-62z" />
<glyph unicode="&#xf4;" horiz-adv-x="1282" d="M102 434q0 122 49.5 238.5t139.5 206.5q83 83 191 130.5t229 47.5q205 0 337 -130t132 -329q0 -122 -49.5 -238t-141.5 -206q-81 -82 -190 -130.5t-230 -48.5q-205 0 -336 130t-131 329zM172 438q0 -178 111 -289.5t292 -111.5q103 0 197.5 42.5t167.5 115.5 q79 79 123.5 184t44.5 215q0 178 -111 289.5t-290 111.5q-104 0 -199 -42t-166 -115q-79 -79 -124.5 -185t-45.5 -215zM571 1219l277 237h47l147 -237h-53l-131 161l-223 -161h-64z" />
<glyph unicode="&#xf5;" horiz-adv-x="1282" d="M102 434q0 122 49.5 238.5t139.5 206.5q83 83 191 130.5t229 47.5q205 0 337 -130t132 -329q0 -122 -49.5 -238t-141.5 -206q-81 -82 -190 -130.5t-230 -48.5q-205 0 -336 130t-131 329zM172 438q0 -178 111 -289.5t292 -111.5q103 0 197.5 42.5t167.5 115.5 q79 79 123.5 184t44.5 215q0 178 -111 289.5t-290 111.5q-104 0 -199 -42t-166 -115q-79 -79 -124.5 -185t-45.5 -215zM532 1229q38 95 82.5 135.5t100.5 40.5q46 0 135 -55q81 -52 117 -52q37 0 66.5 26.5t64.5 92.5l43 -10q-38 -95 -82 -134.5t-101 -39.5q-44 0 -133 55 q-4 2 -15 8.5t-16 9t-15 8t-15.5 8t-14 6t-14.5 5t-13 3t-13 1.5q-38 0 -68 -25.5t-63 -92.5z" />
<glyph unicode="&#xf6;" horiz-adv-x="1282" d="M102 434q0 122 49.5 238.5t139.5 206.5q83 83 191 130.5t229 47.5q205 0 337 -130t132 -329q0 -122 -49.5 -238t-141.5 -206q-81 -82 -190 -130.5t-230 -48.5q-205 0 -336 130t-131 329zM172 438q0 -178 111 -289.5t292 -111.5q103 0 197.5 42.5t167.5 115.5 q79 79 123.5 184t44.5 215q0 178 -111 289.5t-290 111.5q-104 0 -199 -42t-166 -115q-79 -79 -124.5 -185t-45.5 -215zM623 1241l34 127h101l-35 -127h-100zM915 1241l35 127h101l-35 -127h-101z" />
<glyph unicode="&#xf7;" horiz-adv-x="1245" d="M188 690l17 62h960l-16 -62h-961zM492 236l36 137h111l-37 -137h-110zM715 1069l37 137h110l-37 -137h-110z" />
<glyph unicode="&#xf8;" horiz-adv-x="1282" d="M-45 -10l223 182q-76 112 -76 262q0 122 49.5 238.5t139.5 206.5q83 83 191 130.5t229 47.5q223 0 358 -154l168 139h88l-223 -182q78 -118 78 -262q0 -122 -49.5 -238t-141.5 -206q-81 -82 -190 -130.5t-230 -48.5q-222 0 -358 152l-168 -137h-88zM172 438 q0 -131 57 -225l789 649q-111 133 -311 133q-104 0 -199 -42t-166 -115q-79 -79 -124.5 -185t-45.5 -215zM262 168q109 -131 313 -131q103 0 197.5 42.5t167.5 115.5q79 79 123.5 184t44.5 215q0 129 -57 223z" />
<glyph unicode="&#xf9;" horiz-adv-x="1243" d="M137 309q0 64 25 166l149 557h66l-150 -559q-22 -83 -22 -158q0 -128 74.5 -203t218.5 -75q152 0 287.5 116t185.5 304l153 575h68l-277 -1032h-65l63 236q-170 -261 -430 -261q-164 0 -255 91t-91 243zM590 1421l82 39l112 -248h-45z" />
<glyph unicode="&#xfa;" horiz-adv-x="1243" d="M137 309q0 64 25 166l149 557h66l-150 -559q-22 -83 -22 -158q0 -128 74.5 -203t218.5 -75q152 0 287.5 116t185.5 304l153 575h68l-277 -1032h-65l63 236q-170 -261 -430 -261q-164 0 -255 91t-91 243zM741 1212l244 248l82 -39l-264 -209h-62z" />
<glyph unicode="&#xfb;" horiz-adv-x="1243" d="M137 309q0 64 25 166l149 557h66l-150 -559q-22 -83 -22 -158q0 -128 74.5 -203t218.5 -75q152 0 287.5 116t185.5 304l153 575h68l-277 -1032h-65l63 236q-170 -261 -430 -261q-164 0 -255 91t-91 243zM541 1212l276 238h47l148 -238h-54l-131 162l-223 -162h-63z" />
<glyph unicode="&#xfc;" horiz-adv-x="1243" d="M137 309q0 64 25 166l149 557h66l-150 -559q-22 -83 -22 -158q0 -128 74.5 -203t218.5 -75q152 0 287.5 116t185.5 304l153 575h68l-277 -1032h-65l63 236q-170 -261 -430 -261q-164 0 -255 91t-91 243zM592 1235l35 127h100l-35 -127h-100zM885 1235l35 127h100 l-35 -127h-100z" />
<glyph unicode="&#xfd;" horiz-adv-x="1169" d="M-154 -272l37 53q75 -55 174 -55q84 0 166.5 58t192.5 214l-221 1034h69l201 -969l668 969h77l-733 -1052q-88 -126 -163 -196.5t-133 -94t-128 -23.5q-117 0 -207 62zM684 1212l244 248l82 -39l-265 -209h-61z" />
<glyph unicode="&#xfe;" horiz-adv-x="1335" d="M-37 -328l490 1823h65l-188 -700q31 47 76 91t104 83.5t134.5 63.5t154.5 24q185 0 303.5 -125t118.5 -314q0 -134 -52 -260t-145 -219q-164 -164 -385 -164q-94 0 -173 29.5t-131 79t-85 108t-47 123.5l-174 -643h-66zM242 438q0 -173 109 -287t286 -114q196 0 336 143 q85 84 131.5 197t46.5 233q0 168 -100 276.5t-258 108.5q-205 0 -371 -166q-85 -83 -132.5 -187t-47.5 -204z" />
<glyph unicode="&#xff;" horiz-adv-x="1169" d="M-154 -272l37 53q75 -55 174 -55q84 0 166.5 58t192.5 214l-221 1034h69l201 -969l668 969h77l-733 -1052q-88 -126 -163 -196.5t-133 -94t-128 -23.5q-117 0 -207 62zM532 1235l35 127h101l-35 -127h-101zM825 1235l35 127h101l-35 -127h-101z" />
<glyph unicode="&#x152;" horiz-adv-x="2363" d="M190 602q0 163 58 307t166 252q130 130 319.5 201.5t411.5 71.5h1339l-18 -64h-905l-166 -616h817l-17 -64h-819l-168 -627h918l-17 -63h-1194q-176 0 -324 50t-245 145q-156 159 -156 407zM260 606q0 -225 141 -366q85 -87 217 -132t293 -45h230l350 1307h-356 q-205 0 -376.5 -65t-293.5 -187q-98 -100 -151.5 -231.5t-53.5 -280.5z" />
<glyph unicode="&#x153;" horiz-adv-x="2181" d="M102 434q0 122 49.5 238.5t139.5 206.5q83 83 191 130.5t229 47.5q181 0 302 -103.5t146 -265.5q73 161 211 265t311 104q101 0 179.5 -33.5t125.5 -90.5t71 -127.5t24 -150.5q-3 -85 -27 -159h-893q-6 -43 -6 -86q0 -169 105 -271t282 -102q197 0 369 143l41 -47 q-187 -158 -408 -158q-183 0 -301 96t-141 257q-75 -154 -218 -253.5t-323 -99.5q-201 0 -330 130t-129 329zM172 438q0 -179 109 -290t290 -111q103 0 198 43t169 117q79 79 124.5 183.5t45.5 211.5q0 179 -111 291t-290 112q-104 0 -199 -42t-166 -115 q-79 -79 -124.5 -185t-45.5 -215zM1171 555h830q10 48 10 100q0 68 -19 127t-57 107.5t-103.5 77t-150.5 28.5q-195 0 -344 -149q-121 -121 -166 -291z" />
<glyph unicode="&#x178;" horiz-adv-x="1363" d="M281 1434h73l348 -787l773 787h92l-846 -856l-156 -578h-69l159 594zM727 1579l33 125h108l-32 -125h-109zM1044 1579l33 125h107l-33 -125h-107z" />
<glyph unicode="&#x2c6;" horiz-adv-x="1024" d="M465 1219l276 237h47l148 -237h-53l-131 161l-224 -161h-63z" />
<glyph unicode="&#x2dc;" horiz-adv-x="1024" d="M418 1229q39 95 82.5 135.5t99.5 40.5q46 0 135 -55q81 -52 117 -52q37 0 66.5 26.5t64.5 92.5l43 -10q-38 -95 -82 -134.5t-100 -39.5q-44 0 -133 55q-87 49 -117 49q-38 0 -68 -25.5t-63 -92.5z" />
<glyph unicode="&#x2000;" horiz-adv-x="900" />
<glyph unicode="&#x2001;" horiz-adv-x="1800" />
<glyph unicode="&#x2002;" horiz-adv-x="900" />
<glyph unicode="&#x2003;" horiz-adv-x="1800" />
<glyph unicode="&#x2004;" horiz-adv-x="600" />
<glyph unicode="&#x2005;" horiz-adv-x="450" />
<glyph unicode="&#x2006;" horiz-adv-x="300" />
<glyph unicode="&#x2007;" horiz-adv-x="300" />
<glyph unicode="&#x2008;" horiz-adv-x="225" />
<glyph unicode="&#x2009;" horiz-adv-x="360" />
<glyph unicode="&#x200a;" horiz-adv-x="100" />
<glyph unicode="&#x2010;" horiz-adv-x="811" d="M156 573l20 72h524l-20 -72h-524z" />
<glyph unicode="&#x2011;" horiz-adv-x="811" d="M156 573l20 72h524l-20 -72h-524z" />
<glyph unicode="&#x2012;" horiz-adv-x="811" d="M156 573l20 72h524l-20 -72h-524z" />
<glyph unicode="&#x2013;" horiz-adv-x="1093" d="M156 575l18 66h807l-18 -66h-807z" />
<glyph unicode="&#x2014;" horiz-adv-x="1835" d="M156 575l18 66h1548l-18 -66h-1548z" />
<glyph unicode="&#x2018;" horiz-adv-x="391" d="M301 1120l31 117q26 95 63 138.5t105 62.5l10 -35q-93 -27 -119 -150h45l-37 -133h-98z" />
<glyph unicode="&#x2019;" horiz-adv-x="391" d="M276 1151q93 27 119 149h-43l35 134h98l-30 -117q-26 -94 -63.5 -138t-104.5 -63z" />
<glyph unicode="&#x201a;" horiz-adv-x="391" d="M-68 -150q93 27 119 150h-43l35 133h98l-30 -117q-26 -94 -63.5 -137.5t-104.5 -62.5z" />
<glyph unicode="&#x201c;" horiz-adv-x="649" d="M301 1120l31 117q24 94 62 138t106 63l10 -35q-93 -27 -119 -150h43l-35 -133h-98zM559 1120l31 117q24 94 62 138t106 63l10 -35q-93 -27 -119 -150h43l-35 -133h-98z" />
<glyph unicode="&#x201d;" horiz-adv-x="649" d="M274 1151q95 27 121 149h-45l37 134h98l-30 -117q-26 -94 -63.5 -138t-104.5 -63zM532 1151q95 27 121 149h-45l37 134h98l-30 -117q-26 -94 -63.5 -138t-104.5 -63z" />
<glyph unicode="&#x201e;" horiz-adv-x="649" d="M-68 -150q93 27 119 150h-43l35 133h98l-30 -117q-26 -94 -63.5 -137.5t-104.5 -62.5zM190 -150q95 27 121 150h-45l37 133h98l-30 -117q-26 -94 -63.5 -137.5t-104.5 -62.5z" />
<glyph unicode="&#x2022;" horiz-adv-x="915" d="M272 682q0 120 84 201q78 78 181 78q86 0 140 -54.5t54 -146.5q0 -120 -84 -201q-78 -78 -180 -78q-86 0 -140.5 54.5t-54.5 146.5z" />
<glyph unicode="&#x2026;" horiz-adv-x="1155" d="M8 0l35 133h98l-35 -133h-98zM389 0l37 133h98l-37 -133h-98zM772 0l35 133h98l-35 -133h-98z" />
<glyph unicode="&#x202f;" horiz-adv-x="360" />
<glyph unicode="&#x2039;" horiz-adv-x="614" d="M88 516l4 12l457 422l45 -35l-426 -403l205 -391l-51 -29z" />
<glyph unicode="&#x203a;" horiz-adv-x="614" d="M16 125l426 403l-204 392l51 28l233 -424l-4 -12l-457 -422z" />
<glyph unicode="&#x205f;" horiz-adv-x="450" />
<glyph unicode="&#x20ac;" horiz-adv-x="1433" d="M98 520l17 64h176q6 147 47 284h-148l17 66h153q76 197 207 328q196 196 455 196q168 0 284 -91.5t162 -231.5l-61 -25q-46 128 -145.5 206.5t-247.5 78.5q-224 0 -396 -172q-123 -123 -186 -289h653l-16 -66h-659q-46 -144 -52 -284h635l-16 -64h-619 q5 -218 119.5 -349.5t302.5 -131.5q125 0 227.5 51.5t200.5 161.5l47 -41q-204 -236 -477 -236q-211 0 -347 148t-140 397h-193z" />
<glyph unicode="&#x2122;" horiz-adv-x="1372" d="M258 1386l12 48h484l-15 -48h-217l-168 -583h-47l168 583h-217zM715 803l180 631h41l151 -379l363 379h53l-180 -631h-47l156 545l-361 -371h-4l-149 371l-156 -545h-47z" />
<glyph unicode="&#x25fc;" horiz-adv-x="1034" d="M0 0v1034h1034v-1034h-1034z" />
</font>
</defs>
</svg>
