<?xml version="1.0" standalone="no"?>
<!DOCTYPE svg PUBLIC "-//W3C//DTD SVG 1.1//EN" "http://www.w3.org/Graphics/SVG/1.1/DTD/svg11.dtd" >
<svg xmlns="http://www.w3.org/2000/svg">
<metadata>
This is a custom SVG webfont generated by Font Squirrel.
Copyright   : Copyright c 2003 by This Font is designed by Ralph Oliver du Carrois All rights reserved
Foundry     : This Font is designed by Ralph Oliver du Carrois
</metadata>
<defs>
<font id="webfontR2xcGGVv" horiz-adv-x="999" >
<font-face units-per-em="2048" ascent="1638" descent="-410" />
<missing-glyph horiz-adv-x="499" />
<glyph unicode=" "  horiz-adv-x="499" />
<glyph unicode="&#x09;" horiz-adv-x="499" />
<glyph unicode="&#xa0;" horiz-adv-x="499" />
<glyph unicode="!" horiz-adv-x="499" d="M168 0v172h164v-172h-164zM182 348v977h135v-977h-135z" />
<glyph unicode="&#x22;" horiz-adv-x="737" d="M160 1325h137l-16 -444h-105zM442 1325h136l-17 -444h-102z" />
<glyph unicode="#" d="M27 391v107h198l54 313h-173v107h193l72 407h125l-72 -407h227l72 407h125l-72 -407h197v-107h-217l-56 -313h193v-107h-211l-68 -391h-125l68 391h-227l-68 -391h-125l68 391h-178zM350 498h225l56 313h-228z" />
<glyph unicode="$" d="M90 1001q0 156 93 240t249 102v185h121v-180q152 -6 287 -54l-52 -131q-141 59 -235 66v-488q78 -29 127 -55.5t104.5 -71.5t83 -112.5t27.5 -157.5q0 -324 -342 -371v-174h-121v166q-119 0 -340 60l51 131l59 -23l55.5 -19.5t54 -16.5t57 -11t63.5 -4v547 q-80 31 -127 54.5t-104.5 66.5t-84 105t-26.5 146zM242 1001q0 -80 50 -128t142 -85v435q-192 -34 -192 -222zM553 98q190 51 190 242q0 90 -50 144.5t-140 95.5v-482z" />
<glyph unicode="%" horiz-adv-x="1511" d="M111 997q0 350 258 351q82 0 135 -28t79.5 -81t36 -108.5t9.5 -133t-9.5 -135t-36 -114t-80.5 -86t-136 -29.5q-80 0 -134.5 29.5t-79 86t-33.5 113.5t-9 135zM213 997q0 -66 5 -110.5t19.5 -88.5t47 -66.5t82.5 -22.5q53 0 86.5 21.5t49 66.5t20.5 89t5 111q0 66 -4 108 t-19.5 84t-49 62.5t-86.5 20.5q-49 0 -82 -23.5t-48.5 -67.5t-20.5 -86.5t-5 -97.5zM322 0l741 1288h131l-743 -1288h-129zM883 342q0 350 258 350q82 0 135 -27.5t79.5 -81t36 -108.5t9.5 -133t-9.5 -135t-36 -113.5t-80.5 -86.5t-136 -30q-80 0 -134.5 30t-79 86.5 t-33.5 113.5t-9 135zM985 342q0 -66 5 -111t19.5 -89t47.5 -66.5t82 -22.5q53 0 87 21.5t49 66.5t20 89t5 112q0 66 -4 108t-19 83.5t-49 62t-87 20.5q-49 0 -82 -23.5t-48.5 -67.5t-20.5 -86t-5 -97z" />
<glyph unicode="&#x26;" d="M94 354q0 266 244 383q-39 33 -84 61.5t-82 87t-37 128.5q0 154 78 247t248 93q326 0 325 -322q0 -117 -76.5 -193.5t-230.5 -142.5q-123 -53 -184.5 -127.5t-61.5 -210.5q0 -111 68 -196.5t209 -85.5q68 0 131.5 45t106.5 115v249h-211v101h344v-299q0 -49 5 -106.5 t11 -109.5l8 -71h-119l-28 111q-96 -139 -256 -140q-180 0 -294 97.5t-114 285.5zM274 1016q0 -51 31 -99.5t68 -73t67 -50.5q94 39 151.5 93t57.5 148q0 104 -43 159.5t-149 55.5q-183 0 -183 -233z" />
<glyph unicode="'" horiz-adv-x="499" d="M182 1325h135l-16 -444h-102z" />
<glyph unicode="(" horiz-adv-x="563" d="M117 520q0 266 46 432t161 373h122q-109 -199 -147.5 -371t-38.5 -434q0 -229 39 -398t158 -384h-123q-129 223 -173 386t-44 396z" />
<glyph unicode=")" horiz-adv-x="563" d="M109 -262q119 215 157.5 384t38.5 398q0 262 -39 434t-147 371h123q115 -207 161 -373t46 -432q0 -233 -44.5 -396t-173.5 -386h-122z" />
<glyph unicode="*" horiz-adv-x="798" d="M27 1014l39 112l282 -106l12 10l-14 297h115l-17 -301l13 -8l280 106l35 -112l-293 -72l-2 -12l191 -244l-93 -66l-163 254h-15l-170 -254l-92 68l193 242l-6 12z" />
<glyph unicode="+" d="M74 383v113h360v372h129v-372h363v-113h-363v-383h-129v383h-360z" />
<glyph unicode="," horiz-adv-x="499" d="M57 -211l115 365h158l-166 -365h-107z" />
<glyph unicode="-" horiz-adv-x="669" d="M59 438v119h551v-119h-551z" />
<glyph unicode="." horiz-adv-x="499" d="M170 0v170h160v-170h-160z" />
<glyph unicode="/" horiz-adv-x="520" d="M-23 -20l439 1368h125l-437 -1368h-127z" />
<glyph unicode="0" d="M76 631q0 637 422 637q109 0 187.5 -36t123.5 -91.5t70.5 -143.5t34 -171t8.5 -195.5t-7.5 -197.5t-34 -177t-71.5 -151.5t-124 -97.5t-189 -38q-109 0 -188 39t-123 97.5t-69.5 151.5t-32.5 177t-7 197zM229 631q0 -102 4.5 -170t18.5 -145.5t42 -124t79 -77t123 -30.5 q63 0 111 19.5t77 62.5t47.5 87t25.5 115.5t9 124t2 138.5q0 100 -3 164.5t-18.5 140.5t-44 118t-80 70.5t-124.5 28.5q-86 0 -143.5 -45t-83 -128t-34 -163t-8.5 -186z" />
<glyph unicode="1" d="M229 997l295 246h142v-1245h-150v1081l-235 -202z" />
<glyph unicode="2" d="M78 125q31 29 135 120t174 158.5t155 158.5t129 175t44 156q0 139 -64.5 200.5t-191.5 61.5q-72 0 -134.5 -21.5t-166.5 -72.5l-52 129q197 80 357 80q182 0 292.5 -89t110.5 -280q0 -70 -33.5 -150.5t-72.5 -140t-121 -146.5t-123 -125l-137 -123l-109 -97h625v-119 h-768z" />
<glyph unicode="3" d="M72 18l51 129l59.5 -21t64.5 -20.5t76 -15.5t91 -6q121 0 199.5 59.5t78.5 182.5q0 160 -100 216t-291 56v111q178 0 269.5 48t91.5 185q0 213 -230 213q-102 0 -287 -90l-51 129q152 76 340 76q180 0 280.5 -81t100.5 -243q0 -133 -76.5 -204.5t-197.5 -86.5 q129 -20 217 -99t88 -232q0 -129 -65.5 -211t-159 -113t-213.5 -31q-193 0 -336 49z" />
<glyph unicode="4" d="M61 467l551 776h148v-784h196v-115h-196v-344h-150v344h-495zM184 459h426v606z" />
<glyph unicode="5" d="M111 14l49 129q147 -59 294.5 -59t220.5 82t73 229q0 139 -63.5 212t-174.5 73q-100 0 -256 -80l-113 45v598h705v-115h-555v-376q35 12 97.5 27.5t125.5 15.5q184 0 283.5 -105.5t99.5 -298.5q0 -199 -121 -310.5t-323 -111.5q-205 0 -342 45z" />
<glyph unicode="6" d="M92 580q0 174 49 325.5t165 258t280 106.5q129 0 258 -35l-49 -129q-125 49 -199 49q-170 0 -267.5 -151.5t-97.5 -393.5q43 92 123 148.5t168 56.5q186 0 285.5 -113.5t99.5 -308.5q0 -176 -110.5 -300t-282.5 -124q-102 0 -179 35t-123 91.5t-73.5 139t-37 164 t-9.5 181.5zM250 498q0 -229 65.5 -321.5t200.5 -92.5q106 0 172 83t66 226q0 309 -236 309q-188 1 -268 -204z" />
<glyph unicode="7" d="M90 1126v117h727l53 -113l-467 -1130h-165l497 1126h-645z" />
<glyph unicode="8" d="M76 303q0 133 80 222t219 130q-23 4 -65 30l-85 54q-43 29 -74.5 85.5t-31.5 123.5q0 158 101.5 240t283.5 82q190 0 289.5 -76t99.5 -244q0 -68 -32 -124t-78 -91t-88 -54t-74 -28q303 -96 303 -350q0 -334 -430 -334q-80 0 -147.5 14.5t-132 49.5t-101.5 103.5 t-37 166.5zM223 305q0 -109 72 -166t199 -57t203.5 55.5t76.5 167.5q0 207 -274 293q-123 -37 -200 -102.5t-77 -190.5zM264 944q0 -90 72 -150.5t160 -86.5q90 20 169.5 84.5t79.5 154.5q0 111 -60 161t-181 50q-240 0 -240 -213z" />
<glyph unicode="9" d="M92 846q0 176 110.5 300t280.5 124q102 0 180 -35t123 -91.5t73 -139t37 -163.5t9 -182q0 -174 -49 -325.5t-165 -258t-279 -106.5q-129 0 -258 35l51 129q125 -49 196 -49q170 0 267.5 151.5t97.5 393.5q-43 -92 -123 -148.5t-168 -56.5q-186 0 -284.5 113.5 t-98.5 308.5zM244 846q0 -309 235 -309q188 0 269 204q0 229 -66 321.5t-201 92.5q-106 0 -171.5 -83t-65.5 -226z" />
<glyph unicode=":" horiz-adv-x="499" d="M170 0v170h160v-170h-160zM170 756v170h160v-170h-160z" />
<glyph unicode=";" horiz-adv-x="499" d="M57 -211l107 365h166l-166 -365h-107zM164 756v170h160v-170h-160z" />
<glyph unicode="&#x3c;" d="M72 387v162l854 346v-143l-717 -285l717 -283v-141z" />
<glyph unicode="=" d="M72 199v118h854v-118h-854zM72 553v119h854v-119h-854z" />
<glyph unicode="&#x3e;" d="M72 43v141l716 287l-716 281v143l854 -346v-162z" />
<glyph unicode="?" horiz-adv-x="839" d="M104 1284q176 61 308 62q367 0 366 -316q0 -68 -33.5 -124t-82.5 -97l-99 -81q-49 -40 -83 -92t-34 -112v-188h-141v199q0 78 34 139t82 101l95 76q47 36 81 81t34 98q0 106 -52.5 152.5t-166.5 46.5q-127 0 -271 -72zM295 0v172h164v-172h-164z" />
<glyph unicode="@" horiz-adv-x="1722" d="M168 655q0 330 211 511.5t543 181.5q117 0 226 -34t201.5 -100.5t148.5 -178t56 -253.5q0 -266 -168.5 -396t-439.5 -130q-197 0 -316.5 104.5t-119.5 294.5q0 166 107.5 280t291.5 114q98 0 176 -31v-395l72 10l41 -107l-233 -28v436q-31 10 -60 10q-115 0 -186.5 -72.5 t-71.5 -212.5q0 -156 86 -228.5t217 -72.5q465 0 465 422q0 236 -142.5 349.5t-350.5 113.5q-119 0 -225.5 -32.5t-196.5 -99.5t-142.5 -184.5t-52.5 -271.5q0 -156 52.5 -273.5t142.5 -183t195.5 -97t224.5 -31.5q213 0 434 73l49 -112q-215 -66 -490 -66 q-342 0 -543.5 181t-201.5 509z" />
<glyph unicode="A" horiz-adv-x="1294" d="M68 0l538 1325h123l500 -1325h-168l-141 395h-545l-150 -395h-157zM418 508h463l-222 629z" />
<glyph unicode="B" horiz-adv-x="1187" d="M201 0v1325h360q217 0 332 -73.5t115 -272.5q0 -102 -58.5 -177t-152.5 -108q272 -55 272 -317q0 -211 -117.5 -294t-322.5 -83h-428zM350 117h266q147 0 222 54t75 206q0 143 -85 195.5t-234 52.5h-244v-508zM350 739h240q117 0 190.5 59.5t73.5 178.5q0 133 -67.5 182 t-225.5 49h-211v-469z" />
<glyph unicode="C" horiz-adv-x="1112" d="M129 662q0 145 28.5 263.5t91 216t176.5 152t269 54.5q170 0 322 -50l-51 -131q-147 63 -271 64q-410 0 -409 -567q0 -582 397 -582q115 0 297 74l51 -131q-170 -59 -348 -60q-289 0 -421 186.5t-132 510.5z" />
<glyph unicode="D" horiz-adv-x="1286" d="M201 0v1325h323q344 0 488.5 -149.5t144.5 -508t-147.5 -513t-485.5 -154.5h-323zM350 117h193q236 0 347 132t111 417q0 305 -107.5 423.5t-369.5 118.5h-174v-1091z" />
<glyph unicode="E" horiz-adv-x="1097" d="M201 0v1325h733v-117h-584v-465h541v-116h-541v-510h602v-117h-751z" />
<glyph unicode="F" horiz-adv-x="1048" d="M201 0v1325h733v-119h-584v-471h559v-114h-559v-621h-149z" />
<glyph unicode="G" horiz-adv-x="1220" d="M129 664q0 322 139.5 503t436.5 181q117 0 305 -50l-52 -131q-145 63 -251 64q-215 0 -318.5 -139.5t-103.5 -427.5q0 -102 10 -184.5t38.5 -158t74 -127t117 -82t167.5 -30.5q117 0 264 82v373h-292v118h428v-575q-119 -61 -205 -88t-201 -27q-557 1 -557 699z" />
<glyph unicode="H" horiz-adv-x="1325" d="M201 0v1325h149v-582h625v582h149v-1325h-149v625h-625v-625h-149z" />
<glyph unicode="I" horiz-adv-x="501" d="M176 0v1325h150v-1325h-150z" />
<glyph unicode="J" horiz-adv-x="815" d="M37 0q57 14 115.5 22.5t115 34t100.5 61.5t70.5 107.5t26.5 171.5v928h149v-907q0 -121 -34.5 -214t-80.5 -145.5t-127 -93.5t-134.5 -56t-141.5 -36q-12 -2 -18 -4z" />
<glyph unicode="K" horiz-adv-x="1206" d="M201 0v1325h149v-602l588 602h164l-610 -629l682 -696h-197l-627 639v-639h-149z" />
<glyph unicode="L" horiz-adv-x="972" d="M201 0v1325h149v-1202h606v-123h-755z" />
<glyph unicode="M" horiz-adv-x="1716" d="M201 0v1325h229l432 -1116l436 1116h218v-1325h-146v1163l-452 -1163h-123l-457 1163v-1163h-137z" />
<glyph unicode="N" horiz-adv-x="1380" d="M201 0v1325h213l620 -1149v1149h146v-1325h-217l-625 1149v-1149h-137z" />
<glyph unicode="O" horiz-adv-x="1392" d="M129 657q0 205 53.5 354.5t184.5 243t335 93.5q158 0 269.5 -51.5t174 -146.5t90.5 -216t28 -277q0 -319 -133.5 -505.5t-430.5 -186.5q-129 0 -228 35t-163.5 95.5t-105.5 148.5t-57.5 189t-16.5 224zM285 657.5q0 -280.5 95 -428t320.5 -147.5t316.5 148.5t91 426.5 q0 283 -92 428.5t-316 145.5q-225 0 -320 -146.5t-95 -427z" />
<glyph unicode="P" horiz-adv-x="1136" d="M201 0v1325h383q213 0 327.5 -88t114.5 -289q0 -389 -420 -389h-256v-559h-149zM350 676h240q143 0 212.5 60.5t69.5 211.5q0 150 -72.5 205t-219.5 55h-230v-532z" />
<glyph unicode="Q" horiz-adv-x="1392" d="M129 657q0 317 136 504t437 187q158 0 269.5 -51.5t174 -146.5t90.5 -216t28 -277q0 -319 -133.5 -505.5t-430.5 -186.5q-129 0 -228 35t-163.5 95.5t-105.5 148.5t-57.5 189t-16.5 224zM285 657.5q0 -280.5 95 -428t320.5 -147.5t316.5 148.5t91 426.5q0 283 -92 428.5 t-316 145.5q-225 0 -320 -146.5t-95 -427zM649 -170l56 90l434 -37l-54 -116z" />
<glyph unicode="R" horiz-adv-x="1202" d="M201 0v1325h413q182 0 302 -83t120 -273q0 -356 -372 -373l446 -596h-184l-437 592h-139v-592h-149zM350 709h277q256 0 256 260q0 117 -66.5 178t-191.5 61h-275v-499z" />
<glyph unicode="S" horiz-adv-x="1124" d="M139 25l51 131q197 -74 308 -74q88 0 156.5 20.5t119.5 81t51 156.5q0 43 -10 78t-41 64.5l-49 46t-75 39.5l-72 31q-16 7 -86 32q-82 29 -132.5 53.5t-107.5 67.5t-85 105.5t-28 143.5q0 176 133.5 261.5t333.5 85.5q170 0 328 -54l-51 -131q-156 68 -279 68 q-145 0 -228 -57.5t-83 -172.5q0 -88 64.5 -137t195.5 -96l66.5 -23.5t66.5 -25.5l65 -29q32 -14 60.5 -33.5t54 -41t47 -50t36 -60.5t22.5 -73t8 -88q0 -379 -483 -379q-140 1 -357 60z" />
<glyph unicode="T" horiz-adv-x="1040" d="M53 1206v119h934v-119h-393v-1206h-150v1206h-391z" />
<glyph unicode="U" horiz-adv-x="1388" d="M201 489v836h149v-815q0 -244 84 -336t275 -92q174 0 251.5 97t77.5 331v815h150v-840q0 -264 -118 -392t-361 -128q-266 0 -387 128t-121 396z" />
<glyph unicode="V" horiz-adv-x="1236" d="M61 1325h166l406 -1122l385 1122h160l-484 -1325h-131z" />
<glyph unicode="W" horiz-adv-x="1800" d="M74 1325h157l283 -1126l311 1071h174l293 -1073l291 1128h143l-352 -1325h-174l-299 1053l-315 -1053h-178z" />
<glyph unicode="X" horiz-adv-x="1185" d="M66 0l442 684l-387 641h174l303 -510l320 510h161l-405 -629l434 -696h-182l-338 569l-361 -569h-161z" />
<glyph unicode="Y" horiz-adv-x="1150" d="M33 1325h170l387 -598l371 598h157l-461 -729v-596h-149v588z" />
<glyph unicode="Z" horiz-adv-x="1103" d="M92 127l756 1079h-680v119h795l49 -127l-758 -1079h741v-119h-856z" />
<glyph unicode="[" horiz-adv-x="557" d="M172 -260v1644h291v-102h-162v-1434h162v-108h-291z" />
<glyph unicode="\" horiz-adv-x="520" d="M-23 1348h127l437 -1368h-127z" />
<glyph unicode="]" horiz-adv-x="557" d="M102 -150h162v1436h-162v100h291v-1644h-291v108z" />
<glyph unicode="^" d="M72 551l370 774h109l379 -774h-142l-290 612l-291 -612h-135z" />
<glyph unicode="_" horiz-adv-x="1024" d="M-2 -104h1028v-105h-1028v105z" />
<glyph unicode="`" horiz-adv-x="425" d="M39 1325h151l197 -240h-106z" />
<glyph unicode="a" horiz-adv-x="980" d="M96 246q0 156 110.5 239.5t391.5 83.5h90v72q0 213 -186 213q-152 0 -320 -82l-47 115q190 72 369 71q150 0 234.5 -75.5t84.5 -225.5v-370q0 -18 29 -287h-119q0 6 -16.5 52t-18.5 59q-39 -55 -108.5 -94.5t-153.5 -39.5q-152 0 -246 67t-94 202zM238 250q0 -78 56 -123 t157 -45q168 0 239 125v262h-63q-217 0 -303 -51t-86 -168z" />
<glyph unicode="b" horiz-adv-x="1005" d="M125 0q18 176 18 287v1059h133v-549q37 61 113 111t160 50q186 0 273 -136t87 -349q0 -217 -98 -356.5t-297 -139.5q-156 0 -244 134l-28 -111h-117zM272 225q82 -143 230 -143q268 0 268 387q0 199 -66.5 292t-179.5 93q-158 0 -252 -201v-428z" />
<glyph unicode="c" horiz-adv-x="886" d="M96 461q0 236 102.5 366.5t317.5 130.5q133 0 289 -61l-47 -113q-139 70 -244 70q-279 0 -278 -393q0 -379 276 -379q115 0 250 70l47 -113q-51 -25 -146.5 -43.5t-152.5 -18.5q-207 0 -310.5 129.5t-103.5 354.5z" />
<glyph unicode="d" horiz-adv-x="1005" d="M96 473q0 207 99.5 346t275.5 139q86 0 152.5 -47t105.5 -110v545h133v-1059q0 -92 21 -287h-117l-31 111q-88 -133 -243 -134q-207 0 -301.5 137.5t-94.5 358.5zM236 469q0 -387 268 -387q147 0 229 143v428q-16 37 -30.5 61.5t-45 61.5t-72.5 57.5t-96 20.5 q-111 0 -182 -95t-71 -290z" />
<glyph unicode="e" horiz-adv-x="985" d="M96 459q0 88 19.5 171t61.5 159.5t122 122.5t188 46q219 0 308.5 -139t89.5 -397h-645q10 -342 272 -342q141 0 291 80l41 -111q-152 -72 -348 -72q-201 0 -300.5 135.5t-99.5 346.5zM238 526h514q-4 168 -67.5 248t-195.5 80q-111 0 -177 -84t-74 -244z" />
<glyph unicode="f" horiz-adv-x="571" d="M31 831v105h141v98q0 150 111.5 239t253.5 99l34 -115q-127 -8 -196.5 -62t-69.5 -148v-111h213v-105h-213v-831h-133v831h-141z" />
<glyph unicode="g" horiz-adv-x="1015" d="M80 -147q0 72 59.5 125t124.5 69q-125 53 -125 158q0 74 90 151q-102 117 -102 256q0 47 16.5 100.5t55.5 112t117.5 96t185.5 37.5q88 0 155 -24q266 23 289 22l-41 -102h-133q43 -35 77 -99.5t34 -138.5q0 -147 -94.5 -252.5t-282.5 -105.5q-41 0 -104.5 13.5 t-92.5 29.5q-18 -20 -33.5 -42.5t-15.5 -45.5q0 -41 56.5 -65.5t222.5 -38.5q240 -20 324.5 -80t84.5 -168q0 -131 -123 -199t-307 -68q-236 0 -337 67t-101 192zM219 -145q0 -74 76 -116t223 -42q291 0 291 164q0 61 -97.5 93t-342.5 54q-70 -16 -110 -62t-40 -91zM266 608 q0 -113 61.5 -179.5t180.5 -66.5q121 0 178 74t57 178q0 115 -60 177.5t-177 62.5t-178.5 -68.5t-61.5 -177.5z" />
<glyph unicode="h" horiz-adv-x="1001" d="M143 0v1346h133v-549q35 61 106 111t159 50q317 0 317 -358v-600h-133v573q0 137 -42 209t-163 72q-88 0 -153.5 -63.5t-90.5 -135.5v-655h-133z" />
<glyph unicode="i" horiz-adv-x="425" d="M139 1165v160h148v-160h-148zM147 0v936h134v-936h-134z" />
<glyph unicode="j" horiz-adv-x="417" d="M-53 -211q106 23 148 68t42 137v942h133v-924q0 -137 -68.5 -217t-211.5 -121zM129 1165v160h150v-160h-150z" />
<glyph unicode="k" horiz-adv-x="903" d="M143 0v1346h133v-795l398 385h149l-424 -406l473 -530h-161l-435 489v-489h-133z" />
<glyph unicode="l" horiz-adv-x="419" d="M143 0v1346h133v-1346h-133z" />
<glyph unicode="m" horiz-adv-x="1576" d="M125 936h117l30 -139q41 59 111 110t152 51q117 0 181 -47t105 -139q47 76 122 131t167 55q164 0 244 -87t80 -273v-598h-134v594q0 121 -43 190.5t-161 69.5q-82 0 -149.5 -63.5t-96.5 -145.5v-645h-133v594q0 260 -203 260q-78 0 -144.5 -62.5t-93.5 -134.5v-657h-133 v721q0 6 -18 215z" />
<glyph unicode="n" horiz-adv-x="1001" d="M125 936h117l28 -139q10 16 37 43.5t55.5 53.5t75.5 45t99 19q176 0 248.5 -96t72.5 -272v-590h-133v582q0 61 -7 104t-27.5 84t-63.5 62.5t-109 21.5q-84 0 -148.5 -61.5t-93.5 -137.5v-655h-133v737q0 45 -8 114z" />
<glyph unicode="o" horiz-adv-x="1017" d="M96 473q0 215 98.5 350t315.5 135q412 0 412 -485q0 -223 -96.5 -359.5t-315.5 -136.5t-316.5 135.5t-97.5 360.5zM236 473q0 -391 274 -391q150 0 211 101.5t61 289.5q0 184 -61.5 282.5t-210.5 98.5q-274 0 -274 -381z" />
<glyph unicode="p" horiz-adv-x="1005" d="M125 936h117l32 -141q41 63 111 113t150 50q199 0 286.5 -137t87.5 -358q0 -211 -95 -348.5t-282 -137.5q-162 0 -256 129v-475h-133v1024q0 131 -18 281zM274 223q33 -45 54.5 -67.5t75 -48t120.5 -25.5q113 0 179.5 94t66.5 291q0 387 -262 387q-78 0 -141.5 -60.5 t-92.5 -138.5v-432z" />
<glyph unicode="q" horiz-adv-x="1005" d="M96 463q0 217 94.5 356t288.5 139q80 0 145.5 -49t106.5 -114l35 141h117q-20 -168 -21 -281v-1024h-133v475q-94 -129 -256 -129q-188 0 -282.5 136.5t-94.5 349.5zM236 467q0 -197 67.5 -291t179.5 -94q68 0 120 25.5t73.5 48t54.5 67.5v432q-29 78 -91 138.5 t-140 60.5q-131 0 -197.5 -101.5t-66.5 -285.5z" />
<glyph unicode="r" horiz-adv-x="702" d="M125 936h117l28 -191q111 213 238 213q96 0 168 -45l-47 -112q-61 53 -148 53q-51 0 -97 -50t-66.5 -105.5t-41.5 -90.5v-608h-133v727q0 41 -3 81t-8 77z" />
<glyph unicode="s" horiz-adv-x="849" d="M88 37l47 113q98 -41 149.5 -54.5t129.5 -13.5q98 0 150 44t52 124q0 29 -13 53.5t-28.5 39.5t-52.5 31.5t-56 22.5l-69 23q-72 23 -111.5 40t-92 49t-77 78t-24.5 107q0 137 99.5 200.5t244.5 63.5q119 0 291 -63l-47 -113l-81 38q-32 15 -72 24.5t-89 9.5 q-205 0 -205 -154q0 -55 49.5 -84.5t149.5 -60.5q63 -18 93 -28.5t83.5 -37t80 -54t48 -76t21.5 -107.5q0 -135 -100.5 -205t-247.5 -70q-187 1 -322 60z" />
<glyph unicode="t" horiz-adv-x="520" d="M31 831v105h141v240h133v-240h215v-105h-215v-606q0 -104 60.5 -155.5t191.5 -69.5l-43 -121q-168 33 -255 123t-87 225v604h-141z" />
<glyph unicode="u" horiz-adv-x="989" d="M143 346v590h133v-582q0 -84 12.5 -137t58.5 -94t130 -41t143.5 60.5t90.5 138.5v655h133v-737q0 -45 9 -110.5t11 -88.5h-116l-31 139q-25 -25 -50.5 -60.5t-83 -68.5t-124.5 -33q-316 0 -316 369z" />
<glyph unicode="v" horiz-adv-x="1001" d="M82 936h143l283 -762l276 762h138l-361 -936h-117z" />
<glyph unicode="w" horiz-adv-x="1458" d="M78 936h141l234 -766l219 676h123l204 -672l248 762h133l-319 -936h-133l-201 659l-217 -659h-137z" />
<glyph unicode="x" horiz-adv-x="921" d="M51 0l336 473l-313 463h159l236 -358l244 358h141l-317 -449l333 -487h-161l-248 381l-264 -381h-146z" />
<glyph unicode="y" horiz-adv-x="995" d="M82 936h143l299 -743l254 743h135l-391 -1086q-41 -113 -101.5 -174t-182.5 -104l-43 117q145 39 180 133l82 217z" />
<glyph unicode="z" horiz-adv-x="839" d="M76 113l538 718h-489v105h592l47 -113l-537 -719h512v-104h-616z" />
<glyph unicode="{" horiz-adv-x="731" d="M98 487v113q55 2 88 34t44.5 82t19.5 113.5t12 130t24.5 131t54.5 114.5t105.5 83t174.5 37v-111q-115 0 -171.5 -57t-66.5 -144t-14 -179.5t-36 -175.5t-108 -117q66 -25 100.5 -86.5t40 -135t14.5 -153.5t22.5 -145.5t68.5 -108.5t150 -43v-111q-133 4 -212 57.5 t-102.5 132.5t-38 172t-18.5 172t-41 134t-111 61z" />
<glyph unicode="|" horiz-adv-x="499" d="M188 -340v1778h121v-1778h-121z" />
<glyph unicode="}" horiz-adv-x="731" d="M111 -131q94 0 149 43t68.5 108.5t22.5 145.5t14.5 153.5t40 135t100.5 86.5q-76 35 -107.5 117.5t-36 175t-14.5 179.5t-66.5 144t-170.5 57v111q102 -4 173.5 -37t105.5 -83t54.5 -114.5t24.5 -131t12 -130t19.5 -113.5t44.5 -82t88 -34v-113q-74 -6 -111 -61t-41 -134 t-18 -172t-38 -172t-102.5 -132.5t-211.5 -57.5v111z" />
<glyph unicode="~" d="M53 379q0 100 65.5 157.5t172.5 57.5q88 0 219 -79t178 -79q143 0 143 146l115 -58q0 -98 -69.5 -156.5t-174.5 -58.5q-70 0 -147.5 40t-143 80t-106.5 40q-137 0 -137 -147z" />
<glyph unicode="&#xa1;" horiz-adv-x="499" d="M168 1153v172h164v-172h-164zM184 0v977h133v-977h-133z" />
<glyph unicode="&#xa2;" horiz-adv-x="866" d="M96 461q0 451 346 493v189h117v-187q100 -10 225 -59l-47 -113q-88 45 -178 62v-758q88 12 182 64l47 -113q-86 -41 -229 -57v-185h-117v185q-174 20 -260 147t-86 332zM236 461q0 -328 206 -369v754q-206 -41 -206 -385z" />
<glyph unicode="&#xa3;" d="M96 678v113h148v53q0 90 18.5 163.5t45 124t74.5 90.5t86 62.5t102.5 43t103.5 27.5l106 19l41 -131q-49 -4 -100 -14t-99.5 -21.5t-89 -38t-72.5 -64.5t-49.5 -101.5t-17.5 -147.5v-65h357v-113h-357v-555h555v-123h-844v123h140v555h-148z" />
<glyph unicode="&#xa4;" d="M0 481l35 117h158q0 10 -1.5 31.5t-1.5 32.5q0 53 3 79h-193l35 119h170q76 487 518 488q162 0 324 -56l-39 -131q-152 70 -285 70q-166 0 -250 -98.5t-113 -272.5h568l-37 -119h-543q-2 -27 -2 -77q0 -12 1 -34t1 -32h504l-35 -117h-459q25 -188 106 -293.5t247 -105.5 q47 0 103 13.5t84 24.5l106 42v-150q-156 -47 -293 -47q-438 0 -508 516h-203z" />
<glyph unicode="&#xa5;" d="M12 1325h168l332 -594l319 594h154l-381 -690h277v-113h-299v-145h299v-113h-299v-264h-150v264h-297v113h297v145h-297v113h271z" />
<glyph unicode="&#xa6;" horiz-adv-x="499" d="M184 -160v479h129v-479h-129zM184 735v479h129v-479h-129z" />
<glyph unicode="&#xa7;" horiz-adv-x="935" d="M121 678q0 162 139 223q-106 63 -106 182q0 137 99 201t247 64q121 0 270 -64l-47 -117q-49 27 -71.5 38.5t-63.5 22.5t-86 11q-205 0 -205 -149q0 -53 53 -86t130 -54.5t153 -50.5t129 -91.5t53 -158.5q0 -145 -137 -207q100 -68 100 -200q0 -135 -98 -205t-246 -70 q-164 0 -301 60l49 118l85 -35q36 -15 78 -24.5t93 -9.5q197 0 197 164q0 66 -53.5 105.5t-129 61t-150.5 47t-128 81t-53 143.5zM264 682q0 -39 30 -67.5t60.5 -41t100 -34t98.5 -31.5q119 39 119 139q0 59 -40 96t-101.5 53.5t-133.5 41.5q-133 -23 -133 -156z" />
<glyph unicode="&#xa8;" horiz-adv-x="573" d="M-8 1176v149h133v-149h-133zM301 1176v149h133v-149h-133z" />
<glyph unicode="&#xa9;" horiz-adv-x="1474" d="M51 663.5q0 288.5 199 486.5t487 198q293 0 489.5 -197t196.5 -487q0 -289 -198.5 -486.5t-487 -197.5t-487.5 197.5t-199 486zM152 664q0 -244 171 -420t414.5 -176t414.5 176t171 420q0 248 -170 422t-416 174q-248 0 -416.5 -174t-168.5 -422zM381 659q0 184 84 298 t270 114q102 0 205 -33l-33 -88q-100 41 -172 41q-252 0 -252 -329q0 -340 246 -340q70 0 189 47l30 -88q-117 -39 -219 -39q-178 0 -263 112t-85 305z" />
<glyph unicode="&#xaa;" d="M268 936q0 86 66.5 134t234.5 48h54v33q0 55 -25 80.5t-86 25.5q-98 0 -193 -43l-28 74q113 39 221 39q90 0 146.5 -41t56.5 -123v-205q0 -14 18 -157h-84q0 4 -10 28.5t-10 30.5q-55 -72 -156 -72q-90 0 -147.5 37t-57.5 111zM362 938q0 -82 119 -82q94 0 144 78v117 h-39q-125 0 -174.5 -25t-49.5 -88z" />
<glyph unicode="&#xab;" horiz-adv-x="745" d="M68 553l190 373h131l-199 -369l197 -369h-129zM360 553l191 373h131l-199 -369l197 -369h-129z" />
<glyph unicode="&#xac;" d="M41 586v112h905v-477h-129v365h-776z" />
<glyph unicode="&#xad;" horiz-adv-x="669" d="M59 438v119h551v-119h-551z" />
<glyph unicode="&#xae;" horiz-adv-x="1474" d="M51 663.5q0 288.5 199 486.5t487 198q293 0 489.5 -197t196.5 -487q0 -289 -198.5 -486.5t-487 -197.5t-487.5 197.5t-199 486zM152 664q0 -244 171 -420t414.5 -176t414.5 176t171 420q0 248 -170 422t-416 174q-248 0 -416.5 -174t-168.5 -422zM483 264v797h260 q115 0 191 -51.5t76 -163.5q0 -94 -56.5 -157.5t-181.5 -70.5l283 -354h-121l-277 354h-75v-354h-99zM582 696h170q156 0 155 150q0 135 -157 135h-168v-285z" />
<glyph unicode="&#xaf;" horiz-adv-x="425" d="M-25 1159v121h476v-121h-476z" />
<glyph unicode="&#xb0;" horiz-adv-x="798" d="M98 958q0 127 88 213t213 86t213 -86t88 -213t-89 -208.5t-214 -81.5t-212 81.5t-87 208.5zM211 958q0 -76 56.5 -131t129.5 -55q76 0 133.5 55.5t57.5 130.5q0 84 -53.5 139.5t-135.5 55.5t-135 -55.5t-53 -139.5z" />
<glyph unicode="&#xb1;" d="M72 2v119h854v-119h-854zM74 506v112h360v250h129v-250h363v-112h-363v-260h-129v260h-360z" />
<glyph unicode="&#xb2;" horiz-adv-x="679" d="M94 723q18 16 103.5 85t135.5 113t98 108.5t48 111.5q0 74 -38 102.5t-117.5 28.5t-182.5 -51l-28 82q117 45 213 45q111 0 183.5 -51.5t72.5 -155.5q0 -45 -25 -93.5t-71 -95.5t-85 -80.5t-99 -80.5l-81 -64h367v-78h-465z" />
<glyph unicode="&#xb3;" horiz-adv-x="679" d="M102 659l29 82q100 -35 176 -34q170 0 170 120q0 86 -60.5 116t-176.5 30v71q109 0 164 25t55 98q0 63 -36 84t-106 21q-61 0 -172 -49l-28 82q92 43 202.5 43t176 -45.5t65.5 -133.5q0 -74 -46 -112.5t-120 -46.5q184 -27 185 -183q0 -102 -80 -148t-197 -46.5 t-201 26.5z" />
<glyph unicode="&#xb4;" horiz-adv-x="425" d="M39 1085l197 240h151l-242 -240h-106z" />
<glyph unicode="&#xb5;" d="M147 -369v1305h136v-582q0 -84 12 -137t58 -94t130 -41q82 0 140.5 66.5t91.5 152.5v635h135v-737q0 -45 8 -114l10 -85h-116l-31 139q-25 -25 -49.5 -60.5t-80.5 -68.5t-124 -33q-121 0 -184 64v-410h-136z" />
<glyph unicode="&#x3bc;" d="M147 -369v1305h136v-582q0 -84 12 -137t58 -94t130 -41q82 0 140.5 66.5t91.5 152.5v635h135v-737q0 -45 8 -114l10 -85h-116l-31 139q-25 -25 -49.5 -60.5t-80.5 -68.5t-124 -33q-121 0 -184 64v-410h-136z" />
<glyph unicode="&#xb6;" horiz-adv-x="1105" d="M164 977q0 47 8 91t32.5 92t64.5 83t111 58.5t163 23.5h448v-1710h-129v1597h-207q-98 0 -159.5 -60t-61.5 -177q0 -88 60.5 -148.5t140.5 -81.5v-1130h-129v1022q-180 14 -261 112.5t-81 227.5z" />
<glyph unicode="&#xb7;" horiz-adv-x="499" d="M164 492v178h172v-178h-172z" />
<glyph unicode="&#xb8;" horiz-adv-x="425" d="M6 -358l37 104q115 -14 139 -14q41 0 70 17.5t29 51.5q0 37 -31 52.5t-133 15.5l43 162h114l-20 -92q70 0 108.5 -41t38.5 -93q0 -84 -56 -132t-152 -48q-68 1 -187 17z" />
<glyph unicode="&#xb9;" horiz-adv-x="679" d="M162 1190l176 135h94v-684h-102v582l-137 -111z" />
<glyph unicode="&#xba;" d="M250 1079q0 117 60.5 193t191.5 76q248 0 248 -269q0 -272 -248 -272q-131 0 -191.5 74.5t-60.5 197.5zM342 1079q0 -203 160 -202q156 0 155 202q0 100 -35.5 149.5t-119.5 49.5q-160 0 -160 -199z" />
<glyph unicode="&#xbb;" horiz-adv-x="745" d="M63 926h132l190 -373l-190 -365h-129l196 369zM356 926h131l191 -373l-191 -365h-129l197 369z" />
<glyph unicode="&#xbc;" horiz-adv-x="1511" d="M133 1190l174 135h94v-684h-100v582l-139 -111zM236 0l743 1288h129l-750 -1288h-122zM758 258l332 426h98v-426h108v-76h-108v-182h-101v182h-296zM844 258h243v315z" />
<glyph unicode="&#xbd;" horiz-adv-x="1511" d="M129 1190l176 135h94v-684h-102v582l-137 -111zM231 0l742 1288h131l-742 -1288h-131zM870 80q23 20 105 85l134 108q52 44 100 107.5t48 111.5q0 74 -37.5 102.5t-117.5 28.5q-82 0 -184 -52l-29 84q111 43 215 43q111 0 182.5 -51t71.5 -155q0 -45 -23.5 -93.5 t-70.5 -95.5t-85 -81t-99.5 -81t-80.5 -63h365v-78h-463z" />
<glyph unicode="&#xbe;" horiz-adv-x="1511" d="M94 659l31 82q100 -35 176 -34q168 0 168 120q0 86 -59.5 116t-176.5 30v71q109 0 163.5 25t54.5 98q0 63 -36 84t-104 21q-61 0 -172 -49l-30 82q94 43 204.5 43t175 -45.5t64.5 -133.5q0 -141 -164 -159q182 -27 182 -183q0 -102 -79.5 -148t-194.5 -46 q-119 -1 -203 26zM293 0l741 1288h129l-743 -1288h-127zM805 258l332 426h98v-426h108v-76h-108v-182h-100v182h-297zM891 258h244v315z" />
<glyph unicode="&#xbf;" horiz-adv-x="839" d="M104 295q0 68 34 124t83 97l98 81q49 40 83 92t34 112v188h139v-198q0 -78 -33.5 -139.5t-80.5 -101.5t-94.5 -76t-81 -81t-33.5 -98q0 -106 52 -152.5t167 -46.5q127 0 270 72l37 -127q-176 -61 -307 -61q-367 0 -367 315zM424 1153v172h162v-172h-162z" />
<glyph unicode="&#xc0;" horiz-adv-x="1294" d="M68 0l538 1325h123l500 -1325h-168l-141 395h-545l-150 -395h-157zM418 508h463l-222 629zM502 1640h157l191 -239h-107z" />
<glyph unicode="&#xc1;" horiz-adv-x="1294" d="M68 0l538 1325h123l500 -1325h-168l-141 395h-545l-150 -395h-157zM418 508h463l-222 629zM489 1397l197 239h152l-242 -239h-107z" />
<glyph unicode="&#xc2;" horiz-adv-x="1294" d="M68 0l538 1325h123l500 -1325h-168l-141 395h-545l-150 -395h-157zM418 508h463l-222 629zM422 1432l182 225h119l178 -225h-110l-127 143l-132 -143h-110z" />
<glyph unicode="&#xc3;" horiz-adv-x="1294" d="M68 0l538 1325h123l500 -1325h-168l-141 395h-545l-150 -395h-157zM391 1442q33 78 74 107.5t113 29.5q37 0 100 -38t90 -38q61 0 90 84l90 -41q-47 -135 -176 -135q-39 0 -102.5 40t-94.5 40q-66 0 -94 -88zM418 508h463l-222 629z" />
<glyph unicode="&#xc4;" horiz-adv-x="1294" d="M68 0l538 1325h123l500 -1325h-168l-141 395h-545l-150 -395h-157zM418 508h463l-222 629zM442 1411v150h133v-150h-133zM752 1411v150h133v-150h-133z" />
<glyph unicode="&#xc5;" horiz-adv-x="1294" d="M68 0l538 1325h123l500 -1325h-168l-141 395h-545l-150 -395h-157zM418 508h463l-222 629zM518 1542.5q0 69.5 49 118.5t121 49t121 -48t49 -120q0 -70 -49 -119t-121 -49q-70 0 -120 49.5t-50 119zM588 1544q0 -37 28.5 -68.5t71.5 -31.5q47 0 72.5 29.5t25.5 70.5 q0 43 -26.5 72t-71.5 29q-43 0 -71.5 -31t-28.5 -70z" />
<glyph unicode="&#xc6;" horiz-adv-x="1843" d="M68 0l751 1325h860v-117h-696l84 -465h569v-116h-546l92 -510h516v-117h-649l-68 395h-526l-219 -395h-168zM514 508h447l-107 622z" />
<glyph unicode="&#xc7;" horiz-adv-x="1112" d="M129 662q0 145 28.5 263.5t91 216t176.5 152t269 54.5q170 0 322 -50l-51 -131q-147 63 -271 64q-410 0 -409 -567q0 -582 397 -582q115 0 297 74l51 -131q-164 -57 -317 -60l-4 -26q70 0 109.5 -41t39.5 -93q0 -84 -56.5 -132t-154.5 -48q-68 0 -186 17l35 106 q131 -16 141 -16q41 0 69.5 17.5t28.5 51.5q0 37 -30.5 52.5t-133.5 15.5l27 102q-469 52 -469 691z" />
<glyph unicode="&#xc8;" horiz-adv-x="1097" d="M201 0v1325h733v-117h-584v-465h541v-116h-541v-510h602v-117h-751zM367 1642h151l197 -239h-107z" />
<glyph unicode="&#xc9;" horiz-adv-x="1097" d="M201 0v1325h733v-117h-584v-465h541v-116h-541v-510h602v-117h-751zM424 1386l197 240h151l-242 -240h-106z" />
<glyph unicode="&#xca;" horiz-adv-x="1097" d="M201 0v1325h733v-117h-584v-465h541v-116h-541v-510h602v-117h-751zM332 1411l182 225h119l178 -225h-111l-127 143l-131 -143h-110z" />
<glyph unicode="&#xcb;" horiz-adv-x="1097" d="M201 0v1325h733v-117h-584v-465h541v-116h-541v-510h602v-117h-751zM354 1411v150h133v-150h-133zM664 1411v150h133v-150h-133z" />
<glyph unicode="&#xcc;" horiz-adv-x="501" d="M61 1657h119l230 -240h-107zM180 0v1325h150v-1325h-150z" />
<glyph unicode="&#xcd;" horiz-adv-x="501" d="M84 1417l197 240h151l-242 -240h-106zM176 0v1325h150v-1325h-150z" />
<glyph unicode="&#xce;" horiz-adv-x="501" d="M12 1427l183 226h118l179 -226h-111l-127 144l-131 -144h-111zM176 0v1325h150v-1325h-150z" />
<glyph unicode="&#xcf;" horiz-adv-x="501" d="M31 1440v149h133v-149h-133zM178 0v1325h150v-1325h-150zM340 1440v149h133v-149h-133z" />
<glyph unicode="&#xd0;" horiz-adv-x="1286" d="M59 694v111h142v520h323q344 0 488.5 -149.5t144.5 -508t-147.5 -513t-485.5 -154.5h-323v694h-142zM350 117h193q236 0 347 132t111 417q0 305 -107.5 423.5t-369.5 118.5h-174v-403h307v-111h-307v-577z" />
<glyph unicode="&#xd1;" horiz-adv-x="1380" d="M201 0v1325h213l620 -1149v1149h146v-1325h-217l-625 1149v-1149h-137zM389 1438q33 78 74 107.5t112 29.5q37 0 100.5 -38t90.5 -38q61 0 90 84l90 -41q-47 -135 -176 -135q-39 0 -102.5 40t-94.5 40q-66 0 -94 -88z" />
<glyph unicode="&#xd2;" horiz-adv-x="1392" d="M129 657q0 205 53.5 354.5t184.5 243t335 93.5q158 0 269.5 -51.5t174 -146.5t90.5 -216t28 -277q0 -319 -133.5 -505.5t-430.5 -186.5q-129 0 -228 35t-163.5 95.5t-105.5 148.5t-57.5 189t-16.5 224zM285 657.5q0 -280.5 95 -428t320.5 -147.5t316.5 148.5t91 426.5 q0 283 -92 428.5t-316 145.5q-225 0 -320 -146.5t-95 -427zM467 1642h151l197 -239h-106z" />
<glyph unicode="&#xd3;" horiz-adv-x="1392" d="M129 657q0 205 53.5 354.5t184.5 243t335 93.5q158 0 269.5 -51.5t174 -146.5t90.5 -216t28 -277q0 -319 -133.5 -505.5t-430.5 -186.5q-129 0 -228 35t-163.5 95.5t-105.5 148.5t-57.5 189t-16.5 224zM285 657.5q0 -280.5 95 -428t320.5 -147.5t316.5 148.5t91 426.5 q0 283 -92 428.5t-316 145.5q-225 0 -320 -146.5t-95 -427zM575 1397l197 239h152l-242 -239h-107z" />
<glyph unicode="&#xd4;" horiz-adv-x="1392" d="M129 657q0 205 53.5 354.5t184.5 243t335 93.5q158 0 269.5 -51.5t174 -146.5t90.5 -216t28 -277q0 -319 -133.5 -505.5t-430.5 -186.5q-129 0 -228 35t-163.5 95.5t-105.5 148.5t-57.5 189t-16.5 224zM285 657.5q0 -280.5 95 -428t320.5 -147.5t316.5 148.5t91 426.5 q0 283 -92 428.5t-316 145.5q-225 0 -320 -146.5t-95 -427zM459 1411l182 225h119l178 -225h-111l-127 143l-131 -143h-110z" />
<glyph unicode="&#xd5;" horiz-adv-x="1392" d="M129 657q0 205 53.5 354.5t184.5 243t335 93.5q158 0 269.5 -51.5t174 -146.5t90.5 -216t28 -277q0 -319 -133.5 -505.5t-430.5 -186.5q-129 0 -228 35t-163.5 95.5t-105.5 148.5t-57.5 189t-16.5 224zM285 657.5q0 -280.5 95 -428t320.5 -147.5t316.5 148.5t91 426.5 q0 283 -92 428.5t-316 145.5q-225 0 -320 -146.5t-95 -427zM420 1438q33 78 74 107.5t112 29.5q37 0 100.5 -38t90.5 -38q61 0 90 84l90 -41q-47 -135 -176 -135q-39 0 -102.5 40t-94.5 40q-66 0 -94 -88z" />
<glyph unicode="&#xd6;" horiz-adv-x="1392" d="M129 657q0 205 53.5 354.5t184.5 243t335 93.5q158 0 269.5 -51.5t174 -146.5t90.5 -216t28 -277q0 -319 -133.5 -505.5t-430.5 -186.5q-129 0 -228 35t-163.5 95.5t-105.5 148.5t-57.5 189t-16.5 224zM285 657.5q0 -280.5 95 -428t320.5 -147.5t316.5 148.5t91 426.5 q0 283 -92 428.5t-316 145.5q-225 0 -320 -146.5t-95 -427zM477 1411v150h133v-150h-133zM786 1411v150h134v-150h-134z" />
<glyph unicode="&#xd7;" d="M100 152l312 311l-312 309l90 90l312 -311l309 311l90 -90l-311 -309l311 -311l-90 -91l-309 312l-312 -312z" />
<glyph unicode="&#xd8;" horiz-adv-x="1392" d="M33 -2l184 217q-88 164 -88 442q0 205 53.5 354.5t184.5 243t335 93.5q238 0 373 -123l162 188l98 -90l-170 -201q98 -166 99 -465q0 -319 -133.5 -505.5t-430.5 -186.5q-260 0 -397 144l-172 -203zM285 657q0 -199 41 -315l661 778q-100 111 -287 111 q-225 0 -320 -146.5t-95 -427.5zM393 215q100 -133 307 -133q225 0 316.5 148.5t91.5 426.5q0 213 -51 338z" />
<glyph unicode="&#xd9;" horiz-adv-x="1388" d="M201 489v836h149v-815q0 -244 84 -336t275 -92q174 0 251.5 97t77.5 331v815h150v-840q0 -264 -118 -392t-361 -128q-266 0 -387 128t-121 396zM481 1642h152l196 -239h-106z" />
<glyph unicode="&#xda;" horiz-adv-x="1388" d="M201 489v836h149v-815q0 -244 84 -336t275 -92q174 0 251.5 97t77.5 331v815h150v-840q0 -264 -118 -392t-361 -128q-266 0 -387 128t-121 396zM553 1391l197 239h151l-242 -239h-106z" />
<glyph unicode="&#xdb;" horiz-adv-x="1388" d="M201 489v836h149v-815q0 -244 84 -336t275 -92q174 0 251.5 97t77.5 331v815h150v-840q0 -264 -118 -392t-361 -128q-266 0 -387 128t-121 396zM451 1411l182 225h119l178 -225h-111l-127 143l-131 -143h-110z" />
<glyph unicode="&#xdc;" horiz-adv-x="1388" d="M201 489v836h149v-815q0 -244 84 -336t275 -92q174 0 251.5 97t77.5 331v815h150v-840q0 -264 -118 -392t-361 -128q-266 0 -387 128t-121 396zM483 1411v150h133v-150h-133zM793 1411v150h133v-150h-133z" />
<glyph unicode="&#xdd;" horiz-adv-x="1150" d="M33 1325h170l387 -598l371 598h157l-461 -729v-596h-149v588zM422 1417l196 240h152l-242 -240h-106z" />
<glyph unicode="&#xde;" horiz-adv-x="1136" d="M201 0v1325h149v-278h234q213 0 327.5 -88.5t114.5 -288.5q0 -389 -420 -389h-256v-281h-149zM350 397h240q143 0 212.5 60.5t69.5 212.5q0 150 -72.5 205t-219.5 55h-230v-533z" />
<glyph unicode="&#xdf;" horiz-adv-x="1011" d="M143 0v965q0 197 75 289t243 92q139 0 232 -74t93 -221q0 -66 -32.5 -127.5t-75.5 -97.5l-85 -67q-42 -32 -61 -40q27 -8 66 -28l81 -39q42 -19 84 -56t74.5 -78t53 -102.5t20.5 -132.5q0 -399 -497 -400l43 115q322 0 321 289q0 68 -27.5 126t-65.5 96t-91 69.5t-94 47 t-82 27.5v109q45 29 66.5 45t70.5 58t72.5 90.5t23.5 101.5q0 92 -58 138t-132 46q-100 0 -142.5 -55.5t-42.5 -198.5v-987h-133z" />
<glyph unicode="&#xe0;" horiz-adv-x="980" d="M96 246q0 156 110.5 239.5t391.5 83.5h90v72q0 213 -186 213q-152 0 -320 -82l-47 115q190 72 369 71q150 0 234.5 -75.5t84.5 -225.5v-370q0 -18 29 -287h-119q0 6 -16.5 52t-18.5 59q-39 -55 -108.5 -94.5t-153.5 -39.5q-152 0 -246 67t-94 202zM221 1325h152l196 -240 h-106zM238 250q0 -78 56 -123t157 -45q168 0 239 125v262h-63q-217 0 -303 -51t-86 -168z" />
<glyph unicode="&#xe1;" horiz-adv-x="980" d="M96 246q0 156 110.5 239.5t391.5 83.5h90v72q0 213 -186 213q-152 0 -320 -82l-47 115q190 72 369 71q150 0 234.5 -75.5t84.5 -225.5v-370q0 -18 29 -287h-119q0 6 -16.5 52t-18.5 59q-39 -55 -108.5 -94.5t-153.5 -39.5q-152 0 -246 67t-94 202zM238 250q0 -78 56 -123 t157 -45q168 0 239 125v262h-63q-217 0 -303 -51t-86 -168zM344 1085l197 240h151l-241 -240h-107z" />
<glyph unicode="&#xe2;" horiz-adv-x="980" d="M96 246q0 156 110.5 239.5t391.5 83.5h90v72q0 213 -186 213q-152 0 -320 -82l-47 115q190 72 369 71q150 0 234.5 -75.5t84.5 -225.5v-370q0 -18 29 -287h-119q0 6 -16.5 52t-18.5 59q-39 -55 -108.5 -94.5t-153.5 -39.5q-152 0 -246 67t-94 202zM221 1100l182 225h119 l178 -225h-110l-127 143l-131 -143h-111zM238 250q0 -78 56 -123t157 -45q168 0 239 125v262h-63q-217 0 -303 -51t-86 -168z" />
<glyph unicode="&#xe3;" horiz-adv-x="980" d="M96 246q0 156 110.5 239.5t391.5 83.5h90v72q0 213 -186 213q-152 0 -320 -82l-47 115q190 72 369 71q150 0 234.5 -75.5t84.5 -225.5v-370q0 -18 29 -287h-119q0 6 -16.5 52t-18.5 59q-39 -55 -108.5 -94.5t-153.5 -39.5q-152 0 -246 67t-94 202zM182 1135 q33 78 74 107.5t113 29.5q37 0 100 -38t90 -38q61 0 90 84l90 -41q-47 -135 -176 -135q-39 0 -102.5 40t-93.5 40q-66 0 -95 -88zM238 250q0 -78 56 -123t157 -45q168 0 239 125v262h-63q-217 0 -303 -51t-86 -168z" />
<glyph unicode="&#xe4;" horiz-adv-x="980" d="M96 246q0 156 110.5 239.5t391.5 83.5h90v72q0 213 -186 213q-152 0 -320 -82l-47 115q190 72 369 71q150 0 234.5 -75.5t84.5 -225.5v-370q0 -18 29 -287h-119q0 6 -16.5 52t-18.5 59q-39 -55 -108.5 -94.5t-153.5 -39.5q-152 0 -246 67t-94 202zM238 250q0 -78 56 -123 t157 -45q168 0 239 125v262h-63q-217 0 -303 -51t-86 -168zM262 1112v158h133v-158h-133zM573 1112v158h136v-158h-136z" />
<glyph unicode="&#xe5;" horiz-adv-x="980" d="M96 246q0 156 110.5 239.5t391.5 83.5h90v72q0 213 -186 213q-152 0 -320 -82l-47 115q190 72 369 71q150 0 234.5 -75.5t84.5 -225.5v-370q0 -18 29 -287h-119q0 6 -16.5 52t-18.5 59q-39 -55 -108.5 -94.5t-153.5 -39.5q-152 0 -246 67t-94 202zM238 250q0 -78 56 -123 t157 -45q168 0 239 125v262h-63q-217 0 -303 -51t-86 -168zM322 1206.5q0 69.5 49 118.5t120.5 49t121 -48t49.5 -120q0 -70 -49.5 -119t-120.5 -49q-70 0 -120 49.5t-50 119zM391 1208q0 -37 29 -68.5t72 -31.5q47 0 72.5 29.5t25.5 70.5q0 43 -26.5 72t-71.5 29 q-43 0 -72 -31t-29 -70z" />
<glyph unicode="&#xe6;" horiz-adv-x="1572" d="M96 246q0 156 110.5 239.5t391.5 83.5h96v72q0 213 -192 213q-152 0 -320 -82l-47 115q190 72 369 71q213 0 280 -157q96 158 291 157q223 0 310.5 -137t87.5 -399h-646q10 -342 273 -342q131 0 280 80l43 -111q-152 -72 -340 -72q-119 0 -201.5 52.5t-119.5 132.5 q-131 -184 -326 -185q-152 0 -246 67t-94 202zM238 250q0 -78 56 -123t157 -45q76 0 142 44t101 105v234h-67q-217 0 -303 -49t-86 -166zM825 526h514q-4 168 -67.5 248t-194.5 80q-111 0 -177.5 -84t-74.5 -244z" />
<glyph unicode="&#xe7;" horiz-adv-x="866" d="M96 461q0 233 106.5 363t313.5 130q123 0 246 -51l-27 -123q-109 72 -221 72q-281 0 -281 -391q0 -172 71 -274.5t208 -102.5q106 0 229 74l29 -129q-98 -39 -219 -49l-10 -41q70 0 108.5 -42t38.5 -92q0 -78 -56.5 -128t-150.5 -50q-82 0 -186 15l16 102 q131 -16 160 -16q41 0 71.5 19.5t30.5 53.5q0 37 -32.5 53.5t-134.5 16.5l30 113q-166 25 -253 151.5t-87 325.5z" />
<glyph unicode="&#xe8;" horiz-adv-x="985" d="M96 459q0 88 19.5 171t61.5 159.5t122 122.5t188 46q219 0 308.5 -139t89.5 -397h-645q10 -342 272 -342q141 0 291 80l41 -111q-152 -72 -348 -72q-201 0 -300.5 135.5t-99.5 346.5zM238 526h514q-4 168 -67.5 248t-195.5 80q-111 0 -177 -84t-74 -244zM252 1325h151 l197 -240h-106z" />
<glyph unicode="&#xe9;" horiz-adv-x="985" d="M96 459q0 88 19.5 171t61.5 159.5t122 122.5t188 46q219 0 308.5 -139t89.5 -397h-645q10 -342 272 -342q141 0 291 80l41 -111q-152 -72 -348 -72q-201 0 -300.5 135.5t-99.5 346.5zM238 526h514q-4 168 -67.5 248t-195.5 80q-111 0 -177 -84t-74 -244zM344 1085 l197 240h151l-241 -240h-107z" />
<glyph unicode="&#xea;" horiz-adv-x="985" d="M96 459q0 88 19.5 171t61.5 159.5t122 122.5t188 46q219 0 308.5 -139t89.5 -397h-645q10 -342 272 -342q141 0 291 80l41 -111q-152 -72 -348 -72q-201 0 -300.5 135.5t-99.5 346.5zM238 526h514q-4 168 -67.5 248t-195.5 80q-111 0 -177 -84t-74 -244zM250 1100 l182 225h119l178 -225h-111l-126 143l-132 -143h-110z" />
<glyph unicode="&#xeb;" horiz-adv-x="985" d="M96 459q0 88 19.5 171t61.5 159.5t122 122.5t188 46q219 0 308.5 -139t89.5 -397h-645q10 -342 272 -342q141 0 291 80l41 -111q-152 -72 -348 -72q-201 0 -300.5 135.5t-99.5 346.5zM238 526h514q-4 168 -67.5 248t-195.5 80q-111 0 -177 -84t-74 -244zM283 1135v149 h133v-149h-133zM592 1135v149h133v-149h-133z" />
<glyph unicode="&#xec;" horiz-adv-x="425" d="M29 1325h151l197 -240h-107zM147 0v936h134v-936h-134z" />
<glyph unicode="&#xed;" horiz-adv-x="425" d="M41 1085l197 240h151l-242 -240h-106zM150 0v936h133v-936h-133z" />
<glyph unicode="&#xee;" horiz-adv-x="425" d="M-27 1100l183 225h118l179 -225h-111l-127 143l-131 -143h-111zM145 0v936h134v-936h-134z" />
<glyph unicode="&#xef;" horiz-adv-x="425" d="M-8 1163v150h133v-150h-133zM150 0v936h133v-936h-133zM301 1163v150h133v-150h-133z" />
<glyph unicode="&#xf0;" horiz-adv-x="997" d="M92 393q0 195 98.5 308.5t284.5 113.5q88 0 168 -56.5t123 -148.5q0 379 -225 523l-176 -119l-109 63l162 109q-74 31 -191 47l-53 133q219 -25 367 -96l155 106l107 -63l-156 -105q258 -188 258 -628q0 -100 -9 -181.5t-37 -164t-74 -139t-122.5 -91.5t-179.5 -35 q-172 0 -281.5 124t-109.5 300zM244 393q0 -143 65.5 -226t171.5 -83q135 0 201 92t66 322q-80 205 -269 204q-235 0 -235 -309z" />
<glyph unicode="&#xf1;" horiz-adv-x="1001" d="M125 936h117l28 -139q10 16 37 43.5t55.5 53.5t75.5 45t99 19q176 0 248.5 -96t72.5 -272v-590h-133v582q0 61 -7 104t-27.5 84t-63.5 62.5t-109 21.5q-84 0 -148.5 -61.5t-93.5 -137.5v-655h-133v737q0 45 -8 114zM229 1135q33 78 74 107.5t113 29.5q37 0 100.5 -38 t89.5 -38q61 0 90 84l90 -41q-47 -135 -176 -135q-39 0 -102.5 40t-93.5 40q-66 0 -95 -88z" />
<glyph unicode="&#xf2;" horiz-adv-x="1017" d="M96 473q0 215 98.5 350t315.5 135q412 0 412 -485q0 -223 -96.5 -359.5t-315.5 -136.5t-316.5 135.5t-97.5 360.5zM236 473q0 -391 274 -391q150 0 211 101.5t61 289.5q0 184 -61.5 282.5t-210.5 98.5q-274 0 -274 -381zM297 1325h152l196 -240h-106z" />
<glyph unicode="&#xf3;" horiz-adv-x="1017" d="M96 473q0 215 98.5 350t315.5 135q412 0 412 -485q0 -223 -96.5 -359.5t-315.5 -136.5t-316.5 135.5t-97.5 360.5zM236 473q0 -391 274 -391q150 0 211 101.5t61 289.5q0 184 -61.5 282.5t-210.5 98.5q-274 0 -274 -381zM358 1085l197 240h152l-242 -240h-107z" />
<glyph unicode="&#xf4;" horiz-adv-x="1017" d="M96 473q0 215 98.5 350t315.5 135q412 0 412 -485q0 -223 -96.5 -359.5t-315.5 -136.5t-316.5 135.5t-97.5 360.5zM236 473q0 -391 274 -391q150 0 211 101.5t61 289.5q0 184 -61.5 282.5t-210.5 98.5q-274 0 -274 -381zM272 1100l183 225h118l179 -225h-111l-127 143 l-131 -143h-111z" />
<glyph unicode="&#xf5;" horiz-adv-x="1017" d="M96 473q0 215 98.5 350t315.5 135q412 0 412 -485q0 -223 -96.5 -359.5t-315.5 -136.5t-316.5 135.5t-97.5 360.5zM209 1135q33 78 74 107.5t112 29.5q37 0 100.5 -38t90.5 -38q61 0 90 84l90 -41q-47 -135 -176 -135q-39 0 -102.5 40t-94.5 40q-66 0 -94 -88zM236 473 q0 -391 274 -391q150 0 211 101.5t61 289.5q0 184 -61.5 282.5t-210.5 98.5q-274 0 -274 -381z" />
<glyph unicode="&#xf6;" horiz-adv-x="1017" d="M96 473q0 215 98.5 350t315.5 135q412 0 412 -485q0 -223 -96.5 -359.5t-315.5 -136.5t-316.5 135.5t-97.5 360.5zM236 473q0 -391 274 -391q150 0 211 101.5t61 289.5q0 184 -61.5 282.5t-210.5 98.5q-274 0 -274 -381zM283 1135v149h133v-149h-133zM592 1135v149h133 v-149h-133z" />
<glyph unicode="&#xf7;" d="M72 391v111h854v-111h-854zM420 33v170h160v-170h-160zM420 715v170h160v-170h-160z" />
<glyph unicode="&#xf8;" horiz-adv-x="1017" d="M27 37l129 135q-59 117 -60 301q0 215 98.5 350t315.5 135q182 0 278 -100l117 125l94 -90l-129 -139q51 -111 52 -281q0 -223 -96.5 -359.5t-315.5 -136.5q-170 0 -270 91l-117 -123zM236 473q0 -115 24 -188l445 483q-66 86 -195 86q-274 0 -274 -381zM324 158 q66 -76 186 -76q150 0 211 101.5t61 289.5q0 100 -16 166z" />
<glyph unicode="&#xf9;" horiz-adv-x="989" d="M143 346v590h133v-582q0 -84 12.5 -137t58.5 -94t130 -41t143.5 60.5t90.5 138.5v655h133v-737q0 -45 9 -110.5t11 -88.5h-116l-31 139q-25 -25 -50.5 -60.5t-83 -68.5t-124.5 -33q-316 0 -316 369zM279 1325h151l197 -240h-107z" />
<glyph unicode="&#xfa;" horiz-adv-x="989" d="M111 346v590h133v-582q0 -84 12 -137t58 -94t130 -41t143.5 60.5t90.5 138.5v655h133v-737q0 -45 9 -110.5t11 -88.5h-116l-31 139q-25 -25 -50.5 -60.5t-82.5 -68.5t-125 -33q-315 0 -315 369zM307 1085l197 240h151l-241 -240h-107z" />
<glyph unicode="&#xfb;" horiz-adv-x="989" d="M143 346v590h133v-582q0 -84 12.5 -137t58.5 -94t130 -41t143.5 60.5t90.5 138.5v655h133v-737q0 -45 9 -110.5t11 -88.5h-116l-31 139q-25 -25 -50.5 -60.5t-83 -68.5t-124.5 -33q-316 0 -316 369zM256 1100l182 225h119l178 -225h-110l-127 143l-131 -143h-111z" />
<glyph unicode="&#xfc;" horiz-adv-x="989" d="M143 346v590h133v-582q0 -84 12.5 -137t58.5 -94t130 -41t143.5 60.5t90.5 138.5v655h133v-737q0 -45 9 -110.5t11 -88.5h-116l-31 139q-25 -25 -50.5 -60.5t-83 -68.5t-124.5 -33q-316 0 -316 369zM272 1135v149h134v-149h-134zM582 1135v149h133v-149h-133z" />
<glyph unicode="&#xfd;" horiz-adv-x="995" d="M82 936h143l299 -743l254 743h135l-391 -1086q-41 -113 -101.5 -174t-182.5 -104l-43 117q145 39 180 133l82 217zM348 1085l197 240h151l-241 -240h-107z" />
<glyph unicode="&#xfe;" horiz-adv-x="1005" d="M125 -369q18 176 18 656v1059h133v-549q37 61 113 111t160 50q186 0 273 -136t87 -349q0 -217 -98 -356.5t-297 -139.5q-156 0 -244 134l-28 -480h-117zM272 225q82 -143 230 -143q268 0 268 387q0 199 -66.5 292t-179.5 93q-158 0 -252 -201v-428z" />
<glyph unicode="&#xff;" horiz-adv-x="995" d="M82 936h143l299 -743l254 743h135l-391 -1086q-41 -113 -101.5 -174t-182.5 -104l-43 117q145 39 180 133l82 217zM293 1149v149h133v-149h-133zM602 1149v149h133v-149h-133z" />
<glyph unicode="&#x152;" horiz-adv-x="1918" d="M129 657q0 205 53.5 354.5t184.5 243t335 93.5q96 0 183 -23h870v-117h-678q147 -133 162 -465h473v-116h-471q-4 -356 -158 -510h691v-117h-859q-98 -35 -215 -35q-129 0 -228 35t-163.5 95.5t-105.5 148.5t-57.5 189t-16.5 224zM285 657.5q0 -280.5 95 -428t320 -147.5 q113 0 191 41t120 121t59 179t17 234q0 287 -83.5 430.5t-303.5 143.5q-225 0 -320 -146.5t-95 -427z" />
<glyph unicode="&#x153;" horiz-adv-x="1665" d="M96 473q0 215 98.5 350t315.5 135q256 0 344 -206q92 207 313 206q223 0 310.5 -137t87.5 -399h-645q10 -342 272 -342q133 0 283 80l41 -111q-152 -72 -340 -72q-233 0 -324 207q-88 -207 -342 -207q-219 0 -316.5 135.5t-97.5 360.5zM236 473q0 -391 274 -391 q150 0 211 101.5t61 289.5q0 184 -61.5 282.5t-210.5 98.5q-274 0 -274 -381zM918 526h514q-4 168 -68 248t-195 80q-111 0 -177 -84t-74 -244z" />
<glyph unicode="&#x178;" horiz-adv-x="1150" d="M33 1325h170l387 -598l371 598h157l-461 -729v-596h-149v588zM375 1479v151h131v-151h-131zM680 1479v151h131v-151h-131z" />
<glyph unicode="&#x2c6;" horiz-adv-x="425" d="M-27 1100l183 225h118l179 -225h-111l-127 143l-131 -143h-111z" />
<glyph unicode="&#x2dc;" horiz-adv-x="425" d="M-66 1135q33 78 74 107.5t113 29.5q37 0 100.5 -38t89.5 -38q61 0 90 84l91 -41q-47 -135 -177 -135q-39 0 -102 40t-94 40q-66 0 -94 -88z" />
<glyph unicode="&#x2000;" horiz-adv-x="854" />
<glyph unicode="&#x2001;" horiz-adv-x="1710" />
<glyph unicode="&#x2002;" horiz-adv-x="854" />
<glyph unicode="&#x2003;" horiz-adv-x="1710" />
<glyph unicode="&#x2004;" horiz-adv-x="569" />
<glyph unicode="&#x2005;" horiz-adv-x="425" />
<glyph unicode="&#x2006;" horiz-adv-x="284" />
<glyph unicode="&#x2007;" horiz-adv-x="284" />
<glyph unicode="&#x2008;" horiz-adv-x="212" />
<glyph unicode="&#x2009;" horiz-adv-x="342" />
<glyph unicode="&#x200a;" horiz-adv-x="94" />
<glyph unicode="&#x2010;" horiz-adv-x="669" d="M59 438v119h551v-119h-551z" />
<glyph unicode="&#x2011;" horiz-adv-x="669" d="M59 438v119h551v-119h-551z" />
<glyph unicode="&#x2012;" horiz-adv-x="669" d="M59 438v119h551v-119h-551z" />
<glyph unicode="&#x2013;" horiz-adv-x="1024" d="M-2 430v119h1028v-119h-1028z" />
<glyph unicode="&#x2014;" horiz-adv-x="2048" d="M-2 424v125h2052v-125h-2052z" />
<glyph unicode="&#x2018;" horiz-adv-x="499" d="M92 942l203 385h102l-174 -385h-131z" />
<glyph unicode="&#x2019;" horiz-adv-x="499" d="M98 940l172 385h133l-198 -385h-107z" />
<glyph unicode="&#x201a;" horiz-adv-x="499" d="M98 -180l172 385h133l-198 -385h-107z" />
<glyph unicode="&#x201c;" horiz-adv-x="745" d="M82 942l203 385h102l-174 -385h-131zM358 942l201 385h105l-175 -385h-131z" />
<glyph unicode="&#x201d;" horiz-adv-x="745" d="M82 940l174 385h131l-201 -385h-104zM356 940l174 385h134l-203 -385h-105z" />
<glyph unicode="&#x201e;" horiz-adv-x="745" d="M82 -180l174 385h131l-201 -385h-104zM356 -180l174 385h134l-203 -385h-105z" />
<glyph unicode="&#x2022;" d="M238 664q0 109 76.5 184.5t185 75.5t184.5 -76t76 -184.5t-76 -185.5t-184 -77q-111 0 -186.5 76t-75.5 187z" />
<glyph unicode="&#x2026;" horiz-adv-x="1497" d="M170 0v170h160v-170h-160zM670 0v170h157v-170h-157zM1167 0v170h160v-170h-160z" />
<glyph unicode="&#x202f;" horiz-adv-x="342" />
<glyph unicode="&#x2039;" horiz-adv-x="499" d="M86 553l190 373h132l-199 -369l197 -369h-130z" />
<glyph unicode="&#x203a;" horiz-adv-x="499" d="M98 926h131l191 -373l-191 -365h-129l197 369z" />
<glyph unicode="&#x205f;" horiz-adv-x="425" />
<glyph unicode="&#x2122;" horiz-adv-x="1847" d="M170 1251v74h559v-74h-233v-655h-97v655h-229zM831 598v727h142l260 -604l262 604h135v-727h-92v631l-272 -631h-74l-272 631v-631h-89z" />
<glyph unicode="&#xe000;" horiz-adv-x="935" d="M0 935h935v-935h-935v935z" />
<glyph unicode="&#xfb01;" horiz-adv-x="917" d="M31 831v105h141v100q0 264 303 326l45 -115q-115 -20 -165 -64t-50 -136v-111h172v-105h-172v-831h-133v831h-141zM631 1165v160h147v-160h-147zM637 0v936h135v-936h-135z" />
<glyph unicode="&#xfb02;" horiz-adv-x="917" d="M31 831v105h141v100q0 264 303 326l45 -115q-115 -20 -165 -64t-50 -136v-111h172v-105h-172v-831h-133v831h-141zM641 0v1346h133v-1346h-133z" />
<glyph unicode="&#xfb03;" horiz-adv-x="1568" d="M1282 1165v160h148v-160h-148zM1290 0v936h134v-936h-134zM602 831v105h141v98q0 150 111.5 239t253.5 99l34 -115q-127 -8 -196.5 -62t-69.5 -148v-111h213v-105h-213v-831h-133v831h-141zM31 831v105h141v98q0 150 111.5 239t253.5 99l34 -115q-127 -8 -196.5 -62 t-69.5 -148v-111h213v-105h-213v-831h-133v831h-141z" />
<glyph unicode="&#xfb04;" horiz-adv-x="1562" d="M1286 0v1346h133v-1346h-133zM602 831v105h141v98q0 150 111.5 239t253.5 99l34 -115q-127 -8 -196.5 -62t-69.5 -148v-111h213v-105h-213v-831h-133v831h-141zM31 831v105h141v98q0 150 111.5 239t253.5 99l34 -115q-127 -8 -196.5 -62t-69.5 -148v-111h213v-105h-213 v-831h-133v831h-141z" />
<glyph horiz-adv-x="499" />
</font>
</defs>
</svg>
