<?xml version="1.0" standalone="no"?>
<!DOCTYPE svg PUBLIC "-//W3C//DTD SVG 1.1//EN" "http://www.w3.org/Graphics/SVG/1.1/DTD/svg11.dtd" >
<svg xmlns="http://www.w3.org/2000/svg">
<metadata>
This is a custom SVG webfont generated by Font Squirrel.
</metadata>
<defs>
<font id="webfont9hiqlZTq" horiz-adv-x="550" >
<font-face units-per-em="1000" ascent="800" descent="-200" />
<missing-glyph horiz-adv-x="218" />
<glyph unicode=" "  horiz-adv-x="218" />
<glyph unicode="&#x09;" horiz-adv-x="218" />
<glyph unicode="&#xa0;" horiz-adv-x="218" />
<glyph unicode="!" horiz-adv-x="324" d="M276 715l-25 -499h-160l-28 499h213zM272 86q0 -42 -30 -71t-74 -29t-74 29t-30 71t30 71t74 29t74 -29t30 -71z" />
<glyph unicode="&#x22;" horiz-adv-x="461" d="M429 707l-20 -290h-137l-20 290h177zM209 707l-20 -290h-137l-20 290h177z" />
<glyph unicode="#" d="M530 371h-73l-9 -90h60v-126h-73l-16 -155h-129l16 155h-97l-16 -155h-129l16 155h-60v126h73l9 90h-60v126h73l16 153h129l-16 -153h97l16 153h129l-16 -153h60v-126zM328 371h-97l-9 -90h97z" />
<glyph unicode="$" d="M492 220q0 -68 -44 -121.5t-118 -75.5v-108h-127v99q-47 1 -116 10l12 159q60 -19 122 -19q77 0 77 41q0 17 -18 29.5t-45 20t-58.5 21.5t-58.5 32t-45 54.5t-18 86.5q0 67 41.5 118t110.5 70v93h127v-83q52 -2 98 -12l-13 -150q-56 16 -108 16q-65 0 -65 -36 q0 -15 18 -26.5t45.5 -19t59.5 -22.5t59.5 -34.5t45.5 -56.5t18 -86z" />
<glyph unicode="%" horiz-adv-x="775" d="M745 157q0 -76 -50 -123.5t-117 -47.5q-73 0 -116 43.5t-43 117.5t49 120.5t117 46.5q70 0 115 -39.5t45 -117.5zM695 591l-507 -616l-112 82l507 616zM356 507q0 -76 -50 -123.5t-117 -47.5q-73 0 -116 43.5t-43 117.5t49 120.5t117 46.5q70 0 115 -39.5t45 -117.5z M615 151q0 32 -8 43t-23 11q-14 0 -24 -14t-10 -41q0 -55 32 -55q13 0 23 14.5t10 41.5zM226 501q0 32 -8 43t-23 11q-14 0 -24 -14t-10 -41q0 -55 32 -55q13 0 23 14.5t10 41.5z" />
<glyph unicode="&#x26;" horiz-adv-x="800" d="M777 109l-121 -138l-130 91q-113 -76 -252 -76q-122 0 -180.5 59t-58.5 145q0 107 108 194q-73 90 -73 172q0 79 61 132t168 53q98 0 151.5 -43.5t53.5 -120.5q0 -99 -112 -189q57 -47 125 -96v-1q48 83 48 183h180q0 -158 -88 -282zM324 567q0 17 -9.5 28t-26.5 11 q-16 0 -27 -11.5t-11 -28.5q0 -36 33 -75q41 39 41 76zM389 163q-67 50 -136 111q-28 -31 -28 -63q0 -27 20.5 -48t56.5 -21q45 0 87 21z" />
<glyph unicode="'" horiz-adv-x="241" d="M209 707l-20 -290h-137l-20 290h177z" />
<glyph unicode="(" horiz-adv-x="310" d="M317 -162l-141 -61q-150 235 -150 509q0 275 151 509l136 -59q-107 -200 -107 -446q0 -247 111 -452z" />
<glyph unicode=")" horiz-adv-x="310" d="M283 286q0 -276 -152 -509l-136 59q108 199 108 446q0 245 -109 452l141 61q148 -237 148 -509z" />
<glyph unicode="*" horiz-adv-x="400" d="M380 526l-63 -108l-77 71l23 -103h-126l23 103l-78 -70l-62 107l100 32l-100 32l63 108l77 -71l-23 103h125l-22 -103l77 71l63 -108l-100 -32z" />
<glyph unicode="+" d="M515 222h-153v-166h-174v166h-153v152h153v164h174v-164h153v-152z" />
<glyph unicode="," horiz-adv-x="300" d="M150 200q63 0 94 -59q17 -33 17 -73q0 -47 -25 -103q-39 -87 -133 -165l-73 65q55 59 63 95q2 8 2 15q0 29 -27 58q-19 21 -22 50q-1 8 -1 15q0 21 7 40q10 26 36 44t62 18z" />
<glyph unicode="-" horiz-adv-x="340" d="M300 191h-260v145h260v-145z" />
<glyph unicode="." horiz-adv-x="300" d="M260 96q0 -45 -32.5 -77.5t-77.5 -32.5t-77.5 32.5t-32.5 77.5t32.5 77.5t77.5 32.5t77.5 -32.5t32.5 -77.5z" />
<glyph unicode="/" horiz-adv-x="500" d="M503 757l-350 -918h-184l351 918h183z" />
<glyph unicode="0" d="M531 328q0 -165 -73 -253.5t-188 -88.5q-60 0 -103.5 15t-78.5 52t-52.5 105.5t-17.5 168.5q0 165 70.5 251t191.5 86q131 0 191 -80.5t60 -255.5zM335 326q0 81 -7.5 121.5t-19 51t-34.5 10.5q-21 0 -33 -12.5t-19.5 -53t-7.5 -114.5q0 -84 7.5 -125.5t19 -50.5t34.5 -9 q33 0 46.5 35t13.5 147z" />
<glyph unicode="1" d="M517 0h-464v164h148v294l-124 -48l-28 174l205 66h136v-486h127v-164z" />
<glyph unicode="2" d="M505 0h-465v150l32 30q126 119 166 170t40 82q0 60 -78 60q-67 0 -126 -37l-29 166q87 42 200 42q120 0 179 -57t59 -140q0 -69 -35.5 -130.5t-130.5 -144.5l-17 -15v-2q80 3 154 3h51v-177z" />
<glyph unicode="3" d="M500 218q0 -110 -87 -171t-227 -61q-77 0 -137 16l15 153q57 -18 129 -18q57 0 83 18.5t26 46.5q0 56 -112 56q-57 0 -109 -7v138h39q172 0 172 70q0 53 -86 53q-78 0 -134 -28l-15 150q84 30 190 30q118 0 177.5 -44.5t59.5 -122.5q0 -105 -98 -139l-2 -3 q53 -10 84.5 -47.5t31.5 -89.5z" />
<glyph unicode="4" d="M531 128h-66v-128h-179v128h-257l-18 155l206 367h248v-359h66v-163zM290 291v176h-1l-97 -177q22 1 98 1z" />
<glyph unicode="5" d="M508 223q0 -108 -84.5 -172t-222.5 -64q-71 0 -132 14v161q67 -19 142 -19q44 0 68.5 17t24.5 47q0 65 -117 65q-63 0 -116 -8v386h406v-170h-231v-66h16q115 0 180.5 -51.5t65.5 -139.5z" />
<glyph unicode="6" d="M531 228q0 -115 -69.5 -178.5t-184.5 -63.5q-256 0 -256 299q0 176 94 276t260 100q60 0 99 -5v-157q-50 10 -103 10q-113 0 -154 -92q-7 -13 -10 -27h1q46 31 116 31q98 0 152.5 -55t54.5 -138zM346 203q0 70 -70 70q-31 0 -48.5 -18.5t-17.5 -45.5q0 -75 73 -75 q29 0 46 19.5t17 49.5z" />
<glyph unicode="7" d="M505 493q-105 -208 -181 -493h-208q30 116 82.5 254.5t93.5 219.5q-108 -3 -167 -3h-83v179h463v-157z" />
<glyph unicode="8" d="M529 197q0 -102 -76 -156.5t-186 -54.5q-117 0 -181.5 48.5t-64.5 134.5q0 87 90 151q-76 55 -76 142q0 93 70 147.5t179 54.5q106 0 168.5 -47.5t62.5 -122.5q0 -87 -80 -146q94 -56 94 -151zM333 479q0 45 -60 45q-29 0 -42.5 -13t-13.5 -32q0 -34 67 -65q49 30 49 65z M341 181q0 22 -20.5 38t-60.5 32q-51 -32 -51 -68q0 -23 18 -38t52 -15q29 0 45.5 14.5t16.5 36.5z" />
<glyph unicode="9" d="M529 365q0 -176 -92.5 -276t-258.5 -100q-68 0 -108 8v157q51 -13 112 -13q110 0 151 92q7 13 10 27h-1q-46 -31 -116 -31q-98 0 -153 55t-55 138q0 113 70.5 177.5t184.5 64.5q121 0 188.5 -75.5t67.5 -223.5zM335 441q0 75 -73 75q-29 0 -46 -19.5t-17 -49.5 q0 -70 70 -70q31 0 48.5 18.5t17.5 45.5z" />
<glyph unicode=":" horiz-adv-x="315" d="M275 365q0 -45 -32.5 -77.5t-77.5 -32.5t-77.5 32.5t-32.5 77.5t32.5 77.5t77.5 32.5t77.5 -32.5t32.5 -77.5zM275 96q0 -45 -32.5 -77.5t-77.5 -32.5t-77.5 32.5t-32.5 77.5t32.5 77.5t77.5 32.5t77.5 -32.5t32.5 -77.5z" />
<glyph unicode=";" horiz-adv-x="315" d="M275 365q0 -45 -32.5 -77.5t-77.5 -32.5t-77.5 32.5t-32.5 77.5t32.5 77.5t77.5 32.5t77.5 -32.5t32.5 -77.5zM165 200q63 0 94 -59q17 -33 17 -73q0 -47 -25 -103q-39 -87 -133 -165l-73 65q55 59 63 95q2 8 2 15q0 29 -27 58q-19 21 -23 50v15q0 21 7 40q10 26 36 44 t62 18z" />
<glyph unicode="&#x3c;" d="M494 110l-120 -123l-323 311l321 310l121 -121l-207 -188z" />
<glyph unicode="=" d="M500 334h-450v145h450v-145zM500 114h-450v145h450v-145z" />
<glyph unicode="&#x3e;" d="M499 297l-321 -310l-121 121l207 188l-208 189l120 123z" />
<glyph unicode="?" horiz-adv-x="459" d="M431 507q0 -47 -19 -83t-44 -58l-50 -42q-25 -21 -36 -48q-6 -13 -6 -29q0 -15 5 -31h-178q-14 36 -14 66q0 21 7 40q17 45 47 68t59.5 49t29.5 49q0 37 -47 54.5t-142 19.5l22 165q188 -3 277 -66t89 -154zM299 86q0 -42 -30 -71t-74 -29t-74 29t-30 71t30 71t74 29 t74 -29t30 -71z" />
<glyph unicode="@" horiz-adv-x="959" d="M877 424q0 -143 -71 -218.5t-191 -75.5q-45 0 -72 20.5t-30 57.5h-4q-50 -78 -128 -78q-48 0 -77.5 39.5t-29.5 117.5q0 118 61.5 191t183.5 73q71 0 123 -27l-30 -177q-5 -29 -5 -46q0 -9 1 -15q4 -16 25 -16q83 0 83 145q0 79 -49 129t-156 50q-118 0 -197 -82 t-79 -218q0 -111 58 -166.5t191 -55.5q86 0 183 33l28 -138q-115 -42 -234 -42q-193 0 -291 94t-98 260q0 200 127.5 331t320.5 131q170 0 263.5 -87.5t93.5 -229.5zM497 429q-10 5 -23 5q-28 0 -47.5 -39t-19.5 -82q0 -46 16 -46q18 0 36.5 32t31.5 99z" />
<glyph unicode="A" horiz-adv-x="641" d="M653 0h-203l-35 110h-208l-34 -110h-184l220 675h213zM369 256l-34 109q-18 58 -25 95h-2q-9 -45 -24 -96l-33 -108h118z" />
<glyph unicode="B" horiz-adv-x="594" d="M569 216q0 -96 -73.5 -157t-212.5 -61q-11 0 -90 1t-145 1v674q102 6 263 6q113 0 176.5 -44t63.5 -130q0 -46 -21.5 -83.5t-59.5 -57.5v-3q43 -15 71 -56t28 -90zM353 477q0 53 -72 53q-15 0 -47 -2v-114q11 -1 40 -1q79 0 79 64zM368 214q0 28 -22 45t-64 17 q-37 0 -48 -1v-123q24 -2 50 -2q38 0 61 16.5t23 47.5z" />
<glyph unicode="C" horiz-adv-x="541" d="M507 16q-69 -25 -160 -25q-76 0 -134.5 20.5t-93 52t-56 75.5t-29 85t-7.5 86q0 171 92 270.5t256 99.5q71 0 130 -18l-23 -170q-48 19 -107 19q-67 0 -105 -44.5t-38 -125.5q0 -180 150 -180q58 0 100 21z" />
<glyph unicode="D" horiz-adv-x="651" d="M626 354q0 -171 -98.5 -265t-265.5 -94q-112 0 -214 6v672q106 6 243 6q335 0 335 -325zM425 339q0 90 -29 136.5t-115 46.5q-33 0 -47 -2v-361q12 -3 43 -3q66 0 107 46.5t41 136.5z" />
<glyph unicode="E" horiz-adv-x="480" d="M443 0h-395v675h395v-158h-209v-95h198v-152h-198v-109h209v-161z" />
<glyph unicode="F" horiz-adv-x="460" d="M433 515h-199v-109h188v-153h-188v-253h-186v675h385v-160z" />
<glyph unicode="G" horiz-adv-x="664" d="M617 35q-105 -47 -243 -47q-168 0 -258 88.5t-90 242.5q0 165 106.5 266t285.5 101q107 0 198 -28l-36 -170q-77 30 -169 30q-89 0 -136 -50.5t-47 -135.5q0 -82 41 -128t124 -46q21 0 38 5v205h186v-333z" />
<glyph unicode="H" horiz-adv-x="670" d="M622 0h-186v266h-202v-266h-186v675h186v-246h202v246h186v-675z" />
<glyph unicode="I" horiz-adv-x="282" d="M234 0h-186v675h186v-675z" />
<glyph unicode="J" horiz-adv-x="343" d="M297 207q0 -43 -10 -80t-31.5 -69t-62.5 -50.5t-98 -18.5q-53 0 -95 8v156q24 -8 51 -8q60 0 60 66v464h186v-468z" />
<glyph unicode="K" horiz-adv-x="615" d="M616 0h-239l-143 308v-308h-186v675h186v-289l146 289h225l-193 -325z" />
<glyph unicode="L" horiz-adv-x="432" d="M420 0h-372v675h186v-509h186v-166z" />
<glyph unicode="M" horiz-adv-x="870" d="M864 0h-195l-37 225q-12 80 -20 153h-2q-16 -86 -41 -177l-54 -201h-174l-53 183q-33 115 -44 195h-2q-6 -67 -20 -169l-28 -209h-187l112 675h210l71 -234q20 -67 36 -153h2q13 76 39 156l72 231h204z" />
<glyph unicode="N" horiz-adv-x="686" d="M638 0h-236l-113 231q-42 85 -67 152q5 -50 5 -107v-276h-179v675h238l98 -201q63 -130 82 -175q-7 64 -7 140v236h179v-675z" />
<glyph unicode="O" horiz-adv-x="701" d="M680 349q0 -162 -98 -262.5t-245 -100.5q-156 0 -236 89.5t-80 252.5q0 160 99 260.5t244 100.5q142 0 229 -83t87 -257zM482 340q0 179 -132 179q-54 0 -92.5 -44t-38.5 -133q0 -185 127 -185q53 0 94.5 43t41.5 140z" />
<glyph unicode="P" horiz-adv-x="542" d="M531 454q0 -105 -70 -176t-199 -71q-15 0 -28 1v-208h-186v675q103 5 204 5q136 0 207.5 -57.5t71.5 -168.5zM339 448q0 36 -21 58.5t-66 22.5q-10 0 -18 -1v-165q7 -1 14 -1q38 0 64.5 23t26.5 63z" />
<glyph unicode="Q" horiz-adv-x="701" d="M680 349q0 -162 -98 -262.5t-245 -100.5q-156 0 -236 89.5t-80 252.5q0 160 99 260.5t244 100.5q142 0 229 -83t87 -257zM698 -229q-55 -9 -104 -9h-22q-60 3 -97 13t-91 15q-25 3 -51 3q-28 0 -57 -3v162q32 4 65 4q69 0 147 -16q70 -13 132 -13q41 0 78 6v-162z M482 340q0 179 -132 179q-54 0 -92.5 -44t-38.5 -133q0 -185 127 -185q53 0 94.5 43t41.5 140z" />
<glyph unicode="R" horiz-adv-x="586" d="M594 0h-226l-125 246h-9v-246h-186v675q79 5 231 5q133 0 200.5 -50.5t67.5 -160.5q0 -61 -32.5 -112.5t-88.5 -72.5q30 -45 49 -78zM351 455q0 72 -82 72q-23 0 -35 -2v-145q14 -2 31 -2q39 0 62.5 20t23.5 57z" />
<glyph unicode="S" horiz-adv-x="502" d="M485 221q0 -100 -78 -167t-199 -67q-98 0 -167 17l16 177q76 -32 155 -32q28 0 46.5 12.5t18.5 35.5q0 22 -18.5 38t-46.5 24.5t-61 23.5t-61 34t-46.5 58t-18.5 93q0 101 74.5 160.5t206.5 59.5q66 0 124 -13l-16 -161q-57 20 -115 20q-74 0 -74 -45q0 -23 27 -39.5 t65 -30.5t76 -34.5t65 -62t27 -101.5z" />
<glyph unicode="T" horiz-adv-x="502" d="M490 515h-146v-515h-186v515h-146v160h478v-160z" />
<glyph unicode="U" horiz-adv-x="664" d="M616 268q0 -143 -77 -212.5t-217 -69.5q-151 0 -212.5 69t-61.5 189v431h186v-422q0 -57 22 -84t77 -27q56 0 77.5 26t21.5 90v417h184v-407z" />
<glyph unicode="V" horiz-adv-x="644" d="M652 675l-219 -675h-219l-222 675h200l103 -338q22 -71 31 -120h2q14 65 34 130l100 328h190z" />
<glyph unicode="W" horiz-adv-x="950" d="M940 675l-164 -675h-226l-56 253q-14 62 -26 172h-1q-5 -78 -25 -165l-59 -260h-211l-162 675h197l62 -276q14 -61 21 -147h1q11 86 25 144l71 279h187l68 -269q19 -75 27 -148h1q12 86 27 157l56 260h187z" />
<glyph unicode="X" horiz-adv-x="671" d="M671 0h-235l-107 204l-107 -204h-222l206 342l-194 333h215l106 -200l103 200h212l-191 -336z" />
<glyph unicode="Y" horiz-adv-x="597" d="M604 675l-214 -442v-233h-186v232l-211 443h202l63 -146q24 -55 40 -103h2q12 37 49 118l58 131h197z" />
<glyph unicode="Z" horiz-adv-x="534" d="M491 0h-448v147l186 324q16 26 26 38q-11 -1 -85 -1h-121v167h437v-154l-196 -322l-19 -28q10 1 113 1h107v-172z" />
<glyph unicode="[" horiz-adv-x="336" d="M303 -213h-253v998h253v-147h-81v-703h81v-148z" />
<glyph unicode="\" horiz-adv-x="534" d="M534 -161h-184l-350 918h183z" />
<glyph unicode="]" horiz-adv-x="336" d="M286 -213h-253v148h81v703h-81v147h253v-998z" />
<glyph unicode="^" d="M508 392l-128 -64l-112 221l-107 -221l-119 62l161 285h136z" />
<glyph unicode="_" d="M550 -242h-550v148h550v-148z" />
<glyph unicode="`" horiz-adv-x="380" d="M353 645l-60 -101l-226 101l74 123z" />
<glyph unicode="a" horiz-adv-x="529" d="M484 0h-170q0 40 4 63h-1q-18 -35 -57 -55t-87 -20q-71 0 -109.5 43.5t-38.5 109.5q0 94 74 136.5t197 42.5v13q0 21 -18 30t-61 9q-65 0 -134 -31l-29 141q90 29 195 29q129 0 180 -43t51 -134v-228q0 -69 4 -106zM296 190v17q-57 0 -78.5 -11.5t-21.5 -36.5 q0 -14 10 -24t27 -10q27 0 45 19.5t18 45.5z" />
<glyph unicode="b" horiz-adv-x="559" d="M534 277q0 -125 -73.5 -207.5t-208.5 -82.5q-109 0 -205 28v715h182v-174q0 -56 -7 -103h1q37 56 129 56q89 0 135.5 -62t46.5 -170zM342 258q0 53 -12 76t-37 23q-27 0 -45.5 -30t-18.5 -85v-105q16 -4 35 -4q78 0 78 125z" />
<glyph unicode="c" horiz-adv-x="409" d="M384 7q-51 -19 -126 -19q-234 0 -234 245q0 119 68 197.5t202 78.5q48 0 90 -13l-25 -158q-34 14 -64 14q-80 0 -80 -107q0 -48 21 -73t59 -25q40 0 69 14z" />
<glyph unicode="d" horiz-adv-x="559" d="M512 0h-165q0 34 3 56h-2q-46 -69 -143 -69q-87 0 -133.5 62.5t-46.5 169.5q0 124 72.5 207t199.5 83q15 0 33 -2v223h182v-730zM330 258v102q-15 4 -35 4q-78 0 -78 -125q0 -100 49 -100q27 0 45.5 31t18.5 88z" />
<glyph unicode="e" horiz-adv-x="524" d="M496 269q0 -37 -6 -78h-282q2 -28 29 -45.5t78 -17.5q77 0 147 31l16 -136q-88 -35 -192 -35q-262 0 -262 254q0 119 65 193.5t183 74.5q111 0 167.5 -66t56.5 -175zM319 309v7q0 62 -51 62q-26 0 -42.5 -19t-18.5 -50h112z" />
<glyph unicode="f" horiz-adv-x="361" d="M363 733l-11 -148q-20 8 -46 8q-27 0 -39 -11t-12 -38v-47h85v-140h-85v-357h-182v357h-63v140h63v46q0 101 48.5 149.5t161.5 48.5q45 0 80 -8z" />
<glyph unicode="g" horiz-adv-x="552" d="M531 -33q0 -87 -79 -149.5t-208 -62.5q-219 0 -219 148q0 31 20 63t47 45q-47 24 -47 79q0 32 18 59t45 37q-75 38 -75 133q0 82 59.5 136.5t172.5 54.5q47 0 96 -13h169v-143h-46q2 -6 2 -21q0 -85 -55.5 -131t-162.5 -46h-18q-12 -6 -12 -17q0 -12 11 -15t54 -5l56 -2 q172 -6 172 -150zM316 327q0 24 -14.5 38.5t-42.5 14.5q-25 0 -39.5 -14t-14.5 -37q0 -24 14.5 -38.5t42.5 -14.5q25 0 39.5 14t14.5 37zM353 -57q0 37 -45 38l-70 2h-15q-20 -20 -20 -44q0 -21 17 -34t50 -13q40 0 61.5 14.5t21.5 36.5z" />
<glyph unicode="h" horiz-adv-x="564" d="M517 0h-182v314q0 41 -28 41q-30 0 -54 -36t-24 -78v-241h-182v730h182v-182q0 -61 -9 -103h1q50 64 149 64q77 0 112 -43.5t35 -113.5v-352z" />
<glyph unicode="i" horiz-adv-x="276" d="M247 640q0 -43 -32 -74t-77 -31t-77 31t-32 74t32 74t77 31t77 -31t32 -74zM229 0h-182v497h182v-497z" />
<glyph unicode="j" horiz-adv-x="277" d="M247 640q0 -43 -32 -74t-77 -31t-77 31t-32 74t32 74t77 31t77 -31t32 -74zM230 -11q0 -228 -224 -228q-37 0 -74 10l9 153q28 -11 55 -11q52 0 52 55v529h182v-508z" />
<glyph unicode="k" horiz-adv-x="565" d="M565 0h-225l-111 230v-230h-182v730h182v-424l102 191h224l-151 -228z" />
<glyph unicode="l" horiz-adv-x="276" d="M229 0h-182v730h182v-730z" />
<glyph unicode="m" horiz-adv-x="848" d="M801 0h-182v308q0 47 -28 47q-27 0 -52 -34.5t-25 -80.5v-240h-180v308q0 47 -28 47q-27 0 -52 -34.5t-25 -80.5v-240h-182v497h169q0 -35 -5 -67h1q50 79 153 79q105 0 135 -79q21 37 61 58t89 21q151 0 151 -170v-339z" />
<glyph unicode="n" horiz-adv-x="564" d="M517 0h-182v314q0 41 -28 41q-30 0 -54 -35.5t-24 -77.5v-242h-182v497h168q0 -39 -5 -66h1q55 78 159 78q77 0 112 -43.5t35 -113.5v-352z" />
<glyph unicode="o" horiz-adv-x="564" d="M541 260q0 -122 -78 -197t-193 -75q-247 0 -247 246q0 124 77.5 199.5t194.5 75.5q121 0 183.5 -64.5t62.5 -184.5zM352 249q0 54 -15.5 79t-52.5 25q-30 0 -51 -25t-21 -74q0 -58 15.5 -83t52.5 -25q35 0 53.5 28t18.5 75z" />
<glyph unicode="p" horiz-adv-x="559" d="M534 278q0 -132 -67 -209.5t-203 -77.5q-22 0 -35 3v-227h-182v730h165q0 -34 -2 -56h2q43 68 142 68q87 0 133.5 -62t46.5 -169zM342 258q0 100 -49 100q-27 0 -45.5 -31t-18.5 -88v-102q20 -4 35 -4q78 0 78 125z" />
<glyph unicode="q" horiz-adv-x="559" d="M512 -233h-182v177q0 59 7 108h-2q-38 -65 -125 -65q-91 0 -138 59t-47 172q0 126 73.5 208.5t210.5 82.5q104 0 203 -17v-725zM330 262v99q-24 3 -35 3q-78 0 -78 -125q0 -100 48 -100q27 0 46 31.5t19 91.5z" />
<glyph unicode="r" horiz-adv-x="356" d="M351 510l-9 -180q-19 5 -35 5q-31 0 -49 -19q-29 -29 -29 -108v-208h-182v497h168q0 -29 -5 -74h1q46 87 134 87h6z" />
<glyph unicode="s" horiz-adv-x="405" d="M381 163q0 -82 -63.5 -128.5t-168.5 -46.5q-59 0 -110 14l8 146q43 -21 100 -21q40 0 40 22q0 14 -16.5 24t-40 19.5t-47 24t-40 45t-16.5 75.5q0 76 57.5 124.5t172.5 48.5q40 0 83 -8l-4 -140q-36 12 -82 12q-37 0 -37 -23q0 -12 17 -21.5t41 -20t48 -26t41 -46.5 t17 -74z" />
<glyph unicode="t" horiz-adv-x="380" d="M353 4q-64 -16 -120 -16q-92 0 -126 34.5t-34 130.5v204h-63v140h63v140l182 49v-189h93v-140h-93v-167q0 -28 9.5 -39.5t32.5 -11.5t46 6z" />
<glyph unicode="u" horiz-adv-x="562" d="M516 0h-168q0 38 5 66h-1q-55 -78 -159 -78q-77 0 -112 43.5t-35 113.5v352h182v-314q0 -41 28 -41q30 0 54 35.5t24 77.5v242h182v-497z" />
<glyph unicode="v" horiz-adv-x="535" d="M540 497l-180 -497h-184l-181 497h198l40 -119q26 -81 39 -133h2q16 72 34 128l39 124h193z" />
<glyph unicode="w" horiz-adv-x="800" d="M800 497l-151 -497h-192l-33 116q-15 52 -30 128h-1q-10 -53 -31 -125l-34 -119h-178l-150 497h197l20 -77q30 -113 44 -178h2q12 78 38 168l24 87h163l23 -77q32 -111 45 -178h2q15 87 35 168l22 87h185z" />
<glyph unicode="x" horiz-adv-x="542" d="M545 0h-225l-54 133l-54 -133h-215l155 253l-144 244h214l58 -131l57 131h199l-132 -245z" />
<glyph unicode="y" horiz-adv-x="534" d="M539 497l-189 -505q-51 -135 -113.5 -184t-158.5 -49q-40 0 -86 8l21 154q35 -11 69 -11q26 0 51.5 14t34.5 47l8 29l-176 497h200l29 -91q22 -70 40 -156h2q21 95 45 164l28 83h195z" />
<glyph unicode="z" horiz-adv-x="455" d="M413 0h-371v130l144 205q-14 -2 -70 -2h-68v164h362v-131l-138 -200q12 1 80 1h61v-167z" />
<glyph unicode="{" horiz-adv-x="392" d="M361 -213h-26q-116 0 -167.5 60.5t-51.5 202.5v77q0 63 -24 87.5t-68 26.5v134q45 2 68.5 24t23.5 84v42q0 141 51.5 200.5t167.5 59.5h26v-147q-46 0 -60.5 -20t-14.5 -93v-42q0 -161 -91 -174v-2q91 -13 91 -180v-76q0 -74 14.5 -95t60.5 -21v-148z" />
<glyph unicode="|" horiz-adv-x="292" d="M215 -233h-145v1000h145v-1000z" />
<glyph unicode="}" horiz-adv-x="392" d="M368 241q-44 -2 -68 -26.5t-24 -87.5v-77q0 -142 -51.5 -202.5t-167.5 -60.5h-26v148q46 0 60.5 21t14.5 95v76q0 167 91 180v2q-91 13 -91 174v42q0 73 -14.5 93t-60.5 20v147h26q116 0 167.5 -59.5t51.5 -200.5v-42q0 -62 23.5 -84t68.5 -24v-134z" />
<glyph unicode="~" d="M525 568q0 -82 -47 -130.5t-128 -48.5q-40 0 -69.5 15t-42 33t-25.5 33t-25 15q-15 0 -21.5 -15.5t-6.5 -53.5h-135v30q0 82 47 130.5t128 48.5q40 0 69.5 -15t42 -33t25.5 -33t25 -15q15 0 21.5 15.5t6.5 53.5h135v-30z" />
<glyph unicode="&#xa1;" horiz-adv-x="324" d="M260 411q0 -42 -30 -71t-74 -29t-74 29t-30 71t30 71t74 29t74 -29t30 -71zM261 -218h-213l25 499h160z" />
<glyph unicode="&#xa2;" d="M481 117q-40 -19 -94 -25v-92h-134v92q-94 13 -141 76t-47 155q0 91 48 155.5t140 89.5v82h134v-77q38 -3 87 -17l-38 -144q-35 16 -83 16q-43 0 -70 -26t-27 -71q0 -43 29 -66.5t70 -23.5q46 0 83 20z" />
<glyph unicode="&#xa3;" d="M504 0h-443v123q59 41 59 111q0 15 -1 21h-80v140h63q-4 38 -4 50q0 117 66 168t189 51q56 0 129 -15l-37 -152q-53 17 -99 17q-63 0 -63 -57q0 -20 4 -62h138v-140h-122q1 -5 1 -19q0 -52 -31 -83q42 2 63 2h168v-155z" />
<glyph unicode="&#xa4;" d="M534 131l-144 -102l-71 96q-28 -5 -55 -5q-12 0 -36 2l-65 -91l-145 100l62 79q-26 44 -26 113q0 68 31 118l-66 87l143 99l67 -91q32 5 58 5q15 0 41 -2l63 90l143 -103l-60 -78q22 -46 22 -110t-32 -117zM340 334q0 41 -15.5 59t-48.5 18q-26 0 -46 -20.5t-20 -60.5 q0 -37 16.5 -58.5t46.5 -21.5q67 0 67 84z" />
<glyph unicode="&#xa5;" d="M550 650l-139 -296h97v-111h-141v-43h141v-111h-141v-89h-184v89h-141v111h141v43h-141v111h98l-140 296h201l46 -117q17 -46 28 -82h2q10 30 30 80l47 119h196z" />
<glyph unicode="&#xa6;" horiz-adv-x="292" d="M215 399h-145v368h145v-368zM215 -233h-145v378h145v-378z" />
<glyph unicode="&#xa7;" horiz-adv-x="544" d="M493 264q0 -45 -21.5 -85t-53.5 -64q36 -41 36 -105q0 -74 -66.5 -127.5t-211.5 -53.5q-44 0 -89 9l10 152q36 -11 79 -11q41 0 60.5 11t19.5 27q0 19 -22 37.5t-54 38.5t-63.5 46t-53.5 69t-22 98q0 46 20.5 86t53.5 63q-35 41 -35 103q0 80 60.5 131.5t193.5 51.5 q53 0 91 -7l-8 -151q-31 10 -73 10q-67 0 -67 -33q0 -14 16 -30.5t40 -31.5t52 -37.5t52 -48t40 -64.5t16 -84zM332 240q0 15 -4 26t-15.5 23.5t-21.5 21t-33 26.5t-39 32q-16 -16 -16 -40q0 -28 20 -51t93 -77q16 14 16 39z" />
<glyph unicode="&#xa8;" horiz-adv-x="546" d="M463 640q0 -38 -26.5 -64.5t-64.5 -26.5t-64.5 26.5t-26.5 64.5t26.5 64.5t64.5 26.5t64.5 -26.5t26.5 -64.5zM246 640q0 -38 -27 -64.5t-64 -26.5t-64 26.5t-27 64.5t27 64.5t64 26.5t64 -26.5t27 -64.5z" />
<glyph unicode="&#xa9;" horiz-adv-x="770" d="M736 332q0 -146 -103 -248.5t-248 -102.5t-248 102.5t-103 248.5t103 248.5t248 102.5t248 -102.5t103 -248.5zM603 332q0 90 -64 154t-154 64t-154 -64t-64 -154t64 -154t154 -64t154 64t64 154zM487 179q-47 -24 -106 -24q-71 0 -117.5 47t-46.5 128q0 79 46 130 t131 51q51 0 87 -18l-22 -115q-15 17 -50 17q-47 0 -47 -64q0 -53 41 -53q33 0 57 14z" />
<glyph unicode="&#xaa;" horiz-adv-x="425" d="M372 299h-130q0 29 3 43h-1q-13 -25 -40.5 -40t-60.5 -15q-58 0 -87 31t-29 81q0 51 31.5 84t75.5 45q40 11 89 11h8v11q0 27 -49 27q-57 0 -116 -27l-14 114q70 24 153 24q165 0 165 -124v-183q0 -47 2 -82zM384 124h-345v140h345v-140zM231 442v11q-38 0 -56 -7 t-18 -28q0 -10 7.5 -17t19.5 -7q20 0 33.5 14.5t13.5 33.5z" />
<glyph unicode="&#xab;" horiz-adv-x="570" d="M535 146l-145 -62l-112 207l115 209l139 -61l-82 -148zM274 136l-150 -60l-100 215l103 217l144 -59l-75 -158z" />
<glyph unicode="&#xac;" d="M500 84h-163v138h-302v152h465v-290z" />
<glyph unicode="&#xad;" horiz-adv-x="340" d="M300 191h-260v145h260v-145z" />
<glyph unicode="&#xae;" horiz-adv-x="566" d="M537 533q0 -104 -74 -176t-180 -72t-180 72t-74 176t74 176t180 72t180 -72t74 -176zM434 533q0 62 -44.5 106.5t-106.5 44.5t-106.5 -44.5t-44.5 -106.5t44.5 -106.5t106.5 -44.5t106.5 44.5t44.5 106.5zM384 426h-90l-16 70h-11v-70h-77v215h112q81 0 81 -65 q0 -41 -31 -59q6 -6 11 -22zM296 567q0 17 -21 17h-8v-35h7q22 0 22 18z" />
<glyph unicode="&#xaf;" horiz-adv-x="395" d="M345 575h-295v130h295v-130z" />
<glyph unicode="&#xb0;" horiz-adv-x="405" d="M370 586q0 -77 -52 -119t-126 -42q-77 0 -121.5 42t-44.5 116q0 72 53.5 115t121.5 43q87 0 128 -43t41 -112zM240 587q0 18 -11 31t-28 13q-20 0 -32.5 -13t-12.5 -34q0 -22 11.5 -34.5t31.5 -12.5t30.5 14t10.5 36z" />
<glyph unicode="&#xb1;" d="M515 362h-153v-164h-174v164h-153v150h153v163h174v-163h153v-150zM509 0h-468v152h468v-152z" />
<glyph unicode="&#xb2;" horiz-adv-x="330" d="M293 350h-256v98l35 25q57 41 57 63q0 17 -21 17q-25 0 -54 -13l-15 104q64 18 114 18q135 0 135 -98q0 -49 -69 -100l-12 -9h86v-105z" />
<glyph unicode="&#xb3;" horiz-adv-x="320" d="M290 442q0 -104 -169 -104q-45 0 -87 9l11 82q19 -7 49 -7q40 0 40 21q0 22 -40 22q-18 0 -43 -4v74h4q74 0 74 27q0 16 -26 16q-33 0 -55 -13l-12 81q50 16 109 16q71 0 102 -23.5t31 -60.5q0 -54 -45 -74q25 -2 41 -21t16 -41z" />
<glyph unicode="&#xb4;" horiz-adv-x="400" d="M363 645l-226 -101l-60 100l212 124z" />
<glyph unicode="&#xb5;" horiz-adv-x="642" d="M642 56q-58 -68 -156 -68q-93 0 -113 74h-1q-35 -69 -113 -69q-20 0 -36 8l27 -234h-192v730h182v-314q0 -41 28 -41q34 0 56 32t22 85v238h182v-311q0 -41 5 -53t18 -12q16 0 35 21z" />
<glyph unicode="&#xb6;" horiz-adv-x="622" d="M585 527h-57v-623h-214v148h65v623h206v-148zM298 206q-131 0 -195.5 66t-64.5 168q0 111 72 173t188 62v-469z" />
<glyph unicode="&#xb7;" horiz-adv-x="320" d="M270 298q0 -45 -32.5 -77.5t-77.5 -32.5t-77.5 32.5t-32.5 77.5t32.5 77.5t77.5 32.5t77.5 -32.5t32.5 -77.5z" />
<glyph unicode="&#xb8;" horiz-adv-x="400" d="M252 -39q33 -51 33 -94q0 -7 -1 -13q-6 -49 -50 -87h-130q36 39 36 75q0 34 -34 81z" />
<glyph unicode="&#xb9;" horiz-adv-x="330" d="M258 350h-144v193l-59 -22l-22 99l90 30h135v-300z" />
<glyph unicode="&#xba;" horiz-adv-x="435" d="M410 492q0 -92 -58 -148t-145 -56q-80 0 -131 47t-51 148q0 96 58 151t143 55q184 0 184 -197zM396 124h-357v140h357v-140zM270 488q0 41 -12.5 59.5t-40.5 18.5q-22 0 -37.5 -19t-15.5 -59q0 -78 51 -78q55 0 55 78z" />
<glyph unicode="&#xbb;" horiz-adv-x="570" d="M546 293l-103 -217l-144 59l75 158l-78 155l150 60zM292 293l-115 -209l-139 61l82 148l-85 145l145 62z" />
<glyph unicode="&#xbc;" horiz-adv-x="750" d="M553 132v92l-47 -92h47zM712 39h-37v-39h-123v39h-137l-9 88l88 173h181v-167h37v-94zM672 591l-507 -616l-112 82l507 616zM258 350h-144v193l-59 -22l-22 99l90 30h135v-300z" />
<glyph unicode="&#xbd;" horiz-adv-x="750" d="M709 0h-256v98l35 25q57 41 57 63q0 17 -21 17q-25 0 -54 -13l-15 104q64 18 114 18q135 0 135 -98q0 -49 -69 -100l-12 -9h86v-105zM671 591l-507 -616l-112 82l507 616zM257 350h-144v193l-59 -22l-22 99l90 30h135v-300z" />
<glyph unicode="&#xbe;" horiz-adv-x="760" d="M563 132v92l-47 -92h47zM722 39h-37v-39h-123v39h-137l-9 88l88 173h181v-167h37v-94zM682 591l-507 -616l-112 82l507 616zM298 442q0 -104 -169 -104q-45 0 -87 9l11 82q19 -7 49 -7q40 0 40 21q0 22 -40 22q-18 0 -43 -4v74h4q74 0 74 27q0 16 -26 16q-33 0 -55 -13 l-12 81q50 16 109 16q71 0 102 -23.5t31 -60.5q0 -54 -45 -74q25 -2 41 -21t16 -41z" />
<glyph unicode="&#xbf;" horiz-adv-x="459" d="M368 411q0 -42 -30 -71t-74 -29t-74 29t-30 71t30 71t74 29t74 -29t30 -71zM416 -65l-22 -165q-188 3 -277 66t-89 154q0 47 19 83t45 58l50 43q24 20 35 46q6 14 6 30q0 15 -5 31h178q14 -36 14 -66q0 -21 -7 -40q-17 -45 -47 -68t-59.5 -49t-29.5 -49q0 -37 47 -54.5 t142 -19.5z" />
<glyph unicode="&#xc0;" horiz-adv-x="641" d="M653 0h-203l-35 110h-208l-34 -110h-184l220 675h213zM369 256l-34 109q-18 58 -25 95h-2q-9 -45 -24 -96l-33 -108h118zM388 799l-26 -96l-253 49l35 123z" />
<glyph unicode="&#xc1;" horiz-adv-x="641" d="M653 0h-203l-35 110h-208l-34 -110h-184l220 675h213zM369 256l-34 109q-18 58 -25 95h-2q-9 -45 -24 -96l-33 -108h118zM486 752l-253 -49l-26 96l244 76z" />
<glyph unicode="&#xc2;" horiz-adv-x="641" d="M653 0h-203l-35 110h-208l-34 -110h-184l220 675h213zM369 256l-34 109q-18 58 -25 95h-2q-9 -45 -24 -96l-33 -108h118zM490 785l-37 -82l-139 55l-140 -55l-36 82l176 90z" />
<glyph unicode="&#xc3;" horiz-adv-x="641" d="M653 0h-203l-35 110h-208l-34 -110h-184l220 675h213zM369 256l-34 109q-18 58 -25 95h-2q-9 -45 -24 -96l-33 -108h118zM505 812q-54 -95 -145 -95q-40 0 -74 20t-47 20q-30 0 -51 -39l-88 58q54 95 145 95q39 0 74 -20t47 -20q30 0 51 39z" />
<glyph unicode="&#xc4;" horiz-adv-x="641" d="M653 0h-203l-35 110h-208l-34 -110h-184l220 675h213zM369 256l-34 109q-18 58 -25 95h-2q-9 -45 -24 -96l-33 -108h118zM497 794q0 -32 -23 -55t-55 -23t-55 23t-23 55t23 55t55 23t55 -23t23 -55zM279 794q0 -32 -23 -55t-55 -23t-55 23t-23 55t23 55t55 23t55 -23 t23 -55z" />
<glyph unicode="&#xc5;" horiz-adv-x="641" d="M653 0h-203l-35 110h-208l-34 -110h-184l206 631q-26 36 -26 80q0 60 42.5 99.5t104.5 39.5t104.5 -39.5t42.5 -99.5q0 -45 -26 -81zM364 711q0 19 -14 33.5t-34 14.5t-34 -14.5t-14 -33.5t14 -33.5t34 -14.5t34 14.5t14 33.5zM368 256l-27 85q-25 82 -31 117h-2 q-7 -47 -33 -128l-23 -74h116z" />
<glyph unicode="&#xc6;" horiz-adv-x="792" d="M755 0h-389v129h-158l-52 -129h-188l299 675h484v-158h-207v-95h200v-152h-200v-109h211v-161zM366 273v246h-1q-28 -77 -57 -147l-41 -99h99z" />
<glyph unicode="&#xc7;" horiz-adv-x="541" d="M507 16q-69 -25 -160 -25q-76 0 -134.5 20.5t-93 52t-56 75.5t-29 85t-7.5 86q0 171 92 270.5t256 99.5q71 0 130 -18l-23 -170q-48 19 -107 19q-67 0 -105 -44.5t-38 -125.5q0 -180 150 -180q58 0 100 21zM369 -39q33 -51 33 -94q0 -7 -1 -13q-6 -49 -50 -87h-130 q36 39 36 75q0 34 -34 81z" />
<glyph unicode="&#xc8;" horiz-adv-x="480" d="M443 0h-395v675h395v-158h-209v-95h198v-152h-198v-109h209v-161zM341 799l-26 -96l-253 49l35 123z" />
<glyph unicode="&#xc9;" horiz-adv-x="480" d="M443 0h-395v675h395v-158h-209v-95h198v-152h-198v-109h209v-161zM443 752l-253 -49l-26 96l244 76z" />
<glyph unicode="&#xca;" horiz-adv-x="480" d="M443 0h-395v675h395v-158h-209v-95h198v-152h-198v-109h209v-161zM419 785l-37 -82l-139 55l-140 -55l-36 82l176 90z" />
<glyph unicode="&#xcb;" horiz-adv-x="480" d="M443 0h-395v675h395v-158h-209v-95h198v-152h-198v-109h209v-161zM430 794q0 -32 -23 -55t-55 -23t-55 23t-23 55t23 55t55 23t55 -23t23 -55zM212 794q0 -32 -23 -55t-55 -23t-55 23t-23 55t23 55t55 23t55 -23t23 -55z" />
<glyph unicode="&#xcc;" horiz-adv-x="282" d="M234 0h-186v675h186v-675zM258 799l-26 -96l-253 49l35 123z" />
<glyph unicode="&#xcd;" horiz-adv-x="282" d="M234 0h-186v675h186v-675zM300 752l-253 -49l-26 96l244 76z" />
<glyph unicode="&#xce;" horiz-adv-x="282" d="M234 0h-186v675h186v-675zM317 785l-37 -82l-139 55l-140 -55l-36 82l176 90z" />
<glyph unicode="&#xcf;" horiz-adv-x="282" d="M234 0h-186v675h186v-675zM325 794q0 -32 -23 -55t-55 -23t-55 23t-23 55t23 55t55 23t55 -23t23 -55zM107 794q0 -32 -23 -55t-55 -23t-55 23t-23 55t23 55t55 23t55 -23t23 -55z" />
<glyph unicode="&#xd0;" horiz-adv-x="656" d="M630 354q0 -171 -98 -265t-266 -94q-108 0 -210 6v267h-52v140h52v265q106 6 241 6q158 0 245.5 -75.5t87.5 -249.5zM431 339q0 90 -29 136.5t-115 46.5q-33 0 -48 -2v-112h91v-140h-91v-109q13 -3 44 -3q66 0 107 46.5t41 136.5z" />
<glyph unicode="&#xd1;" horiz-adv-x="686" d="M638 0h-236l-113 231q-42 85 -67 152q5 -50 5 -107v-276h-179v675h238l98 -201q63 -130 82 -175q-7 64 -7 140v236h179v-675zM535 812q-54 -95 -145 -95q-40 0 -74 20t-47 20q-30 0 -51 -39l-88 58q54 95 145 95q39 0 74 -20t47 -20q30 0 51 39z" />
<glyph unicode="&#xd2;" horiz-adv-x="701" d="M680 349q0 -162 -98 -262.5t-245 -100.5q-156 0 -236 89.5t-80 252.5q0 160 99 260.5t244 100.5q142 0 229 -83t87 -257zM482 340q0 179 -132 179q-54 0 -92.5 -44t-38.5 -133q0 -185 127 -185q53 0 94.5 43t41.5 140zM464 799l-26 -96l-253 49l35 123z" />
<glyph unicode="&#xd3;" horiz-adv-x="701" d="M680 349q0 -162 -98 -262.5t-245 -100.5q-156 0 -236 89.5t-80 252.5q0 160 99 260.5t244 100.5q142 0 229 -83t87 -257zM482 340q0 179 -132 179q-54 0 -92.5 -44t-38.5 -133q0 -185 127 -185q53 0 94.5 43t41.5 140zM533 752l-253 -49l-26 96l244 76z" />
<glyph unicode="&#xd4;" horiz-adv-x="701" d="M680 349q0 -162 -98 -262.5t-245 -100.5q-156 0 -236 89.5t-80 252.5q0 160 99 260.5t244 100.5q142 0 229 -83t87 -257zM482 340q0 179 -132 179q-54 0 -92.5 -44t-38.5 -133q0 -185 127 -185q53 0 94.5 43t41.5 140zM544 785l-37 -82l-139 55l-140 -55l-36 82l176 90z " />
<glyph unicode="&#xd5;" horiz-adv-x="701" d="M680 349q0 -162 -98 -262.5t-245 -100.5q-156 0 -236 89.5t-80 252.5q0 160 99 260.5t244 100.5q142 0 229 -83t87 -257zM482 340q0 179 -132 179q-54 0 -92.5 -44t-38.5 -133q0 -185 127 -185q53 0 94.5 43t41.5 140zM547 812q-54 -95 -145 -95q-40 0 -74 20t-47 20 q-30 0 -51 -39l-88 58q54 95 145 95q39 0 74 -20t47 -20q30 0 51 39z" />
<glyph unicode="&#xd6;" horiz-adv-x="701" d="M680 349q0 -162 -98 -262.5t-245 -100.5q-156 0 -236 89.5t-80 252.5q0 160 99 260.5t244 100.5q142 0 229 -83t87 -257zM482 340q0 179 -132 179q-54 0 -92.5 -44t-38.5 -133q0 -185 127 -185q53 0 94.5 43t41.5 140zM548 794q0 -32 -23 -55t-55 -23t-55 23t-23 55 t23 55t55 23t55 -23t23 -55zM330 794q0 -32 -23 -55t-55 -23t-55 23t-23 55t23 55t55 23t55 -23t23 -55z" />
<glyph unicode="&#xd7;" d="M515 169l-112 -112l-135 135l-134 -135l-99 99l134 135l-134 134l112 112l134 -134l135 134l99 -99l-135 -134z" />
<glyph unicode="&#xd8;" horiz-adv-x="701" d="M680 349q0 -162 -98 -262.5t-245 -100.5q-23 0 -35 1l-31 -94l-133 40l30 90q-147 79 -147 305q0 161 98.5 261t244.5 100q15 0 25 -1l30 91l133 -40l-28 -84q156 -79 156 -306zM491 340q0 90 -29 131l-107 -321q11 0 23 3q47 12 80 57t33 130zM336 525q-22 -2 -40 -10 q-86 -39 -86 -173q0 -84 23 -125z" />
<glyph unicode="&#xd9;" horiz-adv-x="664" d="M616 268q0 -143 -77 -212.5t-217 -69.5q-151 0 -212.5 69t-61.5 189v431h186v-422q0 -57 22 -84t77 -27q56 0 77.5 26t21.5 90v417h184v-407zM417 799l-26 -96l-253 49l35 123z" />
<glyph unicode="&#xda;" horiz-adv-x="664" d="M616 268q0 -143 -77 -212.5t-217 -69.5q-151 0 -212.5 69t-61.5 189v431h186v-422q0 -57 22 -84t77 -27q56 0 77.5 26t21.5 90v417h184v-407zM529 752l-253 -49l-26 96l244 76z" />
<glyph unicode="&#xdb;" horiz-adv-x="664" d="M616 268q0 -143 -77 -212.5t-217 -69.5q-151 0 -212.5 69t-61.5 189v431h186v-422q0 -57 22 -84t77 -27q56 0 77.5 26t21.5 90v417h184v-407zM510 785l-37 -82l-139 55l-140 -55l-36 82l176 90z" />
<glyph unicode="&#xdc;" horiz-adv-x="664" d="M616 268q0 -143 -77 -212.5t-217 -69.5q-151 0 -212.5 69t-61.5 189v431h186v-422q0 -57 22 -84t77 -27q56 0 77.5 26t21.5 90v417h184v-407zM513 794q0 -32 -23 -55t-55 -23t-55 23t-23 55t23 55t55 23t55 -23t23 -55zM295 794q0 -32 -23 -55t-55 -23t-55 23t-23 55 t23 55t55 23t55 -23t23 -55z" />
<glyph unicode="&#xdd;" horiz-adv-x="597" d="M604 675l-214 -442v-233h-186v232l-211 443h202l63 -146q24 -55 40 -103h2q12 37 49 118l58 131h197zM477 752l-253 -49l-26 96l244 76z" />
<glyph unicode="&#xde;" horiz-adv-x="564" d="M553 362q0 -108 -76.5 -181t-207.5 -73q-24 0 -35 1v-109h-186v675h186v-83q30 2 58 2q123 0 192 -58.5t69 -173.5zM361 353q0 39 -22 64.5t-69 25.5q-10 0 -36 -2v-179q20 -3 41 -3q36 0 61 24t25 70z" />
<glyph unicode="&#xdf;" horiz-adv-x="629" d="M611 168q0 -84 -61.5 -133t-156.5 -49q-74 0 -117 19l8 144q43 -25 91 -25q46 0 46 28q0 16 -15.5 29.5t-37.5 26.5t-44.5 30.5t-38 48.5t-15.5 73q0 38 13 69t28 47.5t28 39t13 46.5q0 37 -47 37q-35 0 -55.5 -27.5t-20.5 -78.5v-493h-182v486q0 128 74 190.5t188 62.5 q105 0 170 -43.5t65 -123.5q0 -41 -14 -71t-30 -44t-30 -33t-14 -40q0 -16 16 -30.5t39 -28.5t45.5 -32.5t38.5 -50.5t16 -74z" />
<glyph unicode="&#xe0;" horiz-adv-x="529" d="M484 0h-170q0 40 4 63h-1q-18 -35 -57 -55t-87 -20q-71 0 -109.5 43.5t-38.5 109.5q0 94 74 136.5t197 42.5v13q0 21 -18 30t-61 9q-65 0 -134 -31l-29 141q90 29 195 29q129 0 180 -43t51 -134v-228q0 -69 4 -106zM296 190v17q-57 0 -78.5 -11.5t-21.5 -36.5 q0 -14 10 -24t27 -10q27 0 45 19.5t18 45.5zM389 645l-60 -101l-226 101l74 123z" />
<glyph unicode="&#xe1;" horiz-adv-x="529" d="M484 0h-170q0 40 4 63h-1q-18 -35 -57 -55t-87 -20q-71 0 -109.5 43.5t-38.5 109.5q0 94 74 136.5t197 42.5v13q0 21 -18 30t-61 9q-65 0 -134 -31l-29 141q90 29 195 29q129 0 180 -43t51 -134v-228q0 -69 4 -106zM296 190v17q-57 0 -78.5 -11.5t-21.5 -36.5 q0 -14 10 -24t27 -10q27 0 45 19.5t18 45.5zM437 645l-226 -101l-60 100l212 124z" />
<glyph unicode="&#xe2;" horiz-adv-x="529" d="M484 0h-170q0 40 4 63h-1q-18 -35 -57 -55t-87 -20q-71 0 -109.5 43.5t-38.5 109.5q0 94 74 136.5t197 42.5v13q0 21 -18 30t-61 9q-65 0 -134 -31l-29 141q90 29 195 29q129 0 180 -43t51 -134v-228q0 -69 4 -106zM296 190v17q-57 0 -78.5 -11.5t-21.5 -36.5 q0 -14 10 -24t27 -10q27 0 45 19.5t18 45.5zM443 626l-65 -82l-109 77l-109 -77l-65 82l174 142z" />
<glyph unicode="&#xe3;" horiz-adv-x="529" d="M484 0h-170q0 40 4 63h-1q-18 -35 -57 -55t-87 -20q-71 0 -109.5 43.5t-38.5 109.5q0 94 74 136.5t197 42.5v13q0 21 -18 30t-61 9q-65 0 -134 -31l-29 141q90 29 195 29q129 0 180 -43t51 -134v-228q0 -69 4 -106zM296 190v17q-57 0 -78.5 -11.5t-21.5 -36.5 q0 -14 10 -24t27 -10q27 0 45 19.5t18 45.5zM460 664q-51 -106 -139 -106q-38 0 -71.5 22.5t-45.5 22.5q-16 0 -27 -10t-22 -33l-84 64q51 106 139 106q38 0 71.5 -22.5t45.5 -22.5q28 0 49 43z" />
<glyph unicode="&#xe4;" horiz-adv-x="529" d="M484 0h-170q0 40 4 63h-1q-18 -35 -57 -55t-87 -20q-71 0 -109.5 43.5t-38.5 109.5q0 94 74 136.5t197 42.5v13q0 21 -18 30t-61 9q-65 0 -134 -31l-29 141q90 29 195 29q129 0 180 -43t51 -134v-228q0 -69 4 -106zM296 190v17q-57 0 -78.5 -11.5t-21.5 -36.5 q0 -14 10 -24t27 -10q27 0 45 19.5t18 45.5zM467 640q0 -38 -26.5 -64.5t-64.5 -26.5t-64.5 26.5t-26.5 64.5t26.5 64.5t64.5 26.5t64.5 -26.5t26.5 -64.5zM250 640q0 -38 -27 -64.5t-64 -26.5t-64 26.5t-27 64.5t27 64.5t64 26.5t64 -26.5t27 -64.5z" />
<glyph unicode="&#xe5;" horiz-adv-x="529" d="M484 0h-170q0 40 4 63h-1q-18 -35 -57 -55t-87 -20q-71 0 -109.5 43.5t-38.5 109.5q0 94 74 136.5t197 42.5v13q0 21 -18 30t-61 9q-65 0 -134 -31l-29 141q90 29 195 29q129 0 180 -43t51 -134v-228q0 -69 4 -106zM296 190v17q-57 0 -78.5 -11.5t-21.5 -36.5 q0 -14 10 -24t27 -10q27 0 45 19.5t18 45.5zM409 674q0 -60 -42.5 -99.5t-104.5 -39.5t-104.5 39.5t-42.5 99.5t42.5 99.5t104.5 39.5t104.5 -39.5t42.5 -99.5zM310 674q0 19 -14 33.5t-34 14.5t-34 -14.5t-14 -33.5t14 -33.5t34 -14.5t34 14.5t14 33.5z" />
<glyph unicode="&#xe6;" horiz-adv-x="791" d="M763 269q0 -37 -6 -78h-282q2 -28 29 -45.5t78 -17.5q77 0 147 31l16 -136q-87 -35 -192 -35q-155 0 -202 84h-1q-51 -84 -174 -84q-73 0 -112 43.5t-39 109.5q0 94 74 136.5t197 42.5v13q0 21 -18 30t-61 9q-65 0 -134 -31l-29 141q90 29 195 29q107 0 159 -40h1 q49 39 130 39q111 0 167.5 -66t56.5 -175zM586 309v7q0 62 -51 62q-26 0 -42.5 -19t-18.5 -50h112zM296 190v17q-57 0 -78.5 -11.5t-21.5 -36.5q0 -14 10 -24t27 -10q27 0 45 19.5t18 45.5z" />
<glyph unicode="&#xe7;" horiz-adv-x="409" d="M384 7q-51 -19 -126 -19q-234 0 -234 245q0 119 68 197.5t202 78.5q48 0 90 -13l-25 -158q-34 14 -64 14q-80 0 -80 -107q0 -48 21 -73t59 -25q40 0 69 14zM283 -39q33 -51 33 -94q0 -7 -1 -13q-6 -49 -50 -87h-130q36 39 36 75q0 34 -34 81z" />
<glyph unicode="&#xe8;" horiz-adv-x="524" d="M496 269q0 -37 -6 -78h-282q2 -28 29 -45.5t78 -17.5q77 0 147 31l16 -136q-88 -35 -192 -35q-262 0 -262 254q0 119 65 193.5t183 74.5q111 0 167.5 -66t56.5 -175zM319 309v7q0 62 -51 62q-26 0 -42.5 -19t-18.5 -50h112zM400 645l-60 -101l-226 101l74 123z" />
<glyph unicode="&#xe9;" horiz-adv-x="524" d="M496 269q0 -37 -6 -78h-282q2 -28 29 -45.5t78 -17.5q77 0 147 31l16 -136q-88 -35 -192 -35q-262 0 -262 254q0 119 65 193.5t183 74.5q111 0 167.5 -66t56.5 -175zM319 309v7q0 62 -51 62q-26 0 -42.5 -19t-18.5 -50h112zM446 645l-226 -101l-60 100l212 124z" />
<glyph unicode="&#xea;" horiz-adv-x="524" d="M496 269q0 -37 -6 -78h-282q2 -28 29 -45.5t78 -17.5q77 0 147 31l16 -136q-88 -35 -192 -35q-262 0 -262 254q0 119 65 193.5t183 74.5q111 0 167.5 -66t56.5 -175zM319 309v7q0 62 -51 62q-26 0 -42.5 -19t-18.5 -50h112zM441 626l-65 -82l-109 77l-109 -77l-65 82 l174 142z" />
<glyph unicode="&#xeb;" horiz-adv-x="524" d="M496 269q0 -37 -6 -78h-282q2 -28 29 -45.5t78 -17.5q77 0 147 31l16 -136q-88 -35 -192 -35q-262 0 -262 254q0 119 65 193.5t183 74.5q111 0 167.5 -66t56.5 -175zM319 309v7q0 62 -51 62q-26 0 -42.5 -19t-18.5 -50h112zM472 640q0 -38 -26.5 -64.5t-64.5 -26.5 t-64.5 26.5t-26.5 64.5t26.5 64.5t64.5 26.5t64.5 -26.5t26.5 -64.5zM255 640q0 -38 -27 -64.5t-64 -26.5t-64 26.5t-27 64.5t27 64.5t64 26.5t64 -26.5t27 -64.5z" />
<glyph unicode="&#xec;" horiz-adv-x="276" d="M229 0h-182v497h182v-497zM288 645l-60 -101l-226 101l74 123z" />
<glyph unicode="&#xed;" horiz-adv-x="276" d="M229 0h-182v497h182v-497zM273 645l-226 -101l-60 100l212 124z" />
<glyph unicode="&#xee;" horiz-adv-x="276" d="M229 0h-182v497h182v-497zM312 626l-65 -82l-109 77l-109 -77l-65 82l174 142z" />
<glyph unicode="&#xef;" horiz-adv-x="276" d="M229 0h-182v497h182v-497zM336 640q0 -38 -26.5 -64.5t-64.5 -26.5t-64.5 26.5t-26.5 64.5t26.5 64.5t64.5 26.5t64.5 -26.5t26.5 -64.5zM119 640q0 -38 -27 -64.5t-64 -26.5t-64 26.5t-27 64.5t27 64.5t64 26.5t64 -26.5t27 -64.5z" />
<glyph unicode="&#xf0;" horiz-adv-x="567" d="M539 286q0 -143 -75 -220.5t-189 -77.5t-182.5 61.5t-68.5 184.5q0 126 72 198.5t176 72.5q27 0 42 -9q-3 4 -17 25q-14 22 -37 45l-79 -34l-71 79l68 29q-30 23 -68 45l176 74q35 -26 59 -49l73 31l71 -79l-72 -30q122 -152 122 -346zM349 260q0 93 -68 93 q-30 0 -49 -26.5t-19 -77.5t19 -77t52 -26q65 0 65 114z" />
<glyph unicode="&#xf1;" horiz-adv-x="564" d="M517 0h-182v314q0 41 -28 41q-30 0 -54 -35.5t-24 -77.5v-242h-182v497h168q0 -39 -5 -66h1q55 78 159 78q77 0 112 -43.5t35 -113.5v-352zM478 664q-51 -106 -139 -106q-38 0 -71.5 22.5t-45.5 22.5q-16 0 -27 -10t-22 -33l-84 64q51 106 139 106q38 0 71.5 -22.5 t45.5 -22.5q28 0 49 43z" />
<glyph unicode="&#xf2;" horiz-adv-x="564" d="M541 260q0 -122 -78 -197t-193 -75q-247 0 -247 246q0 124 77.5 199.5t194.5 75.5q121 0 183.5 -64.5t62.5 -184.5zM352 249q0 54 -15.5 79t-52.5 25q-30 0 -51 -25t-21 -74q0 -58 15.5 -83t52.5 -25q35 0 53.5 28t18.5 75zM412 645l-60 -101l-226 101l74 123z" />
<glyph unicode="&#xf3;" horiz-adv-x="564" d="M541 260q0 -122 -78 -197t-193 -75q-247 0 -247 246q0 124 77.5 199.5t194.5 75.5q121 0 183.5 -64.5t62.5 -184.5zM352 249q0 54 -15.5 79t-52.5 25q-30 0 -51 -25t-21 -74q0 -58 15.5 -83t52.5 -25q35 0 53.5 28t18.5 75zM458 645l-226 -101l-60 100l212 124z" />
<glyph unicode="&#xf4;" horiz-adv-x="564" d="M541 260q0 -122 -78 -197t-193 -75q-247 0 -247 246q0 124 77.5 199.5t194.5 75.5q121 0 183.5 -64.5t62.5 -184.5zM352 249q0 54 -15.5 79t-52.5 25q-30 0 -51 -25t-21 -74q0 -58 15.5 -83t52.5 -25q35 0 53.5 28t18.5 75zM464 626l-65 -82l-109 77l-109 -77l-65 82 l174 142z" />
<glyph unicode="&#xf5;" horiz-adv-x="564" d="M541 260q0 -122 -78 -197t-193 -75q-247 0 -247 246q0 124 77.5 199.5t194.5 75.5q121 0 183.5 -64.5t62.5 -184.5zM352 249q0 54 -15.5 79t-52.5 25q-30 0 -51 -25t-21 -74q0 -58 15.5 -83t52.5 -25q35 0 53.5 28t18.5 75zM486 664q-51 -106 -139 -106q-38 0 -71.5 22.5 t-45.5 22.5q-16 0 -27 -10t-22 -33l-84 64q51 106 139 106q38 0 71.5 -22.5t45.5 -22.5q28 0 49 43z" />
<glyph unicode="&#xf6;" horiz-adv-x="564" d="M541 260q0 -122 -78 -197t-193 -75q-247 0 -247 246q0 124 77.5 199.5t194.5 75.5q121 0 183.5 -64.5t62.5 -184.5zM352 249q0 54 -15.5 79t-52.5 25q-30 0 -51 -25t-21 -74q0 -58 15.5 -83t52.5 -25q35 0 53.5 28t18.5 75zM492 640q0 -38 -26.5 -64.5t-64.5 -26.5 t-64.5 26.5t-26.5 64.5t26.5 64.5t64.5 26.5t64.5 -26.5t26.5 -64.5zM275 640q0 -38 -27 -64.5t-64 -26.5t-64 26.5t-27 64.5t27 64.5t64 26.5t64 -26.5t27 -64.5z" />
<glyph unicode="&#xf7;" d="M379 498q0 -43 -30.5 -73.5t-73.5 -30.5t-73.5 30.5t-30.5 73.5t30.5 73.5t73.5 30.5t73.5 -30.5t30.5 -73.5zM515 222h-480v152h480v-152zM379 98q0 -43 -30.5 -73.5t-73.5 -30.5t-73.5 30.5t-30.5 73.5t30.5 73.5t73.5 30.5t73.5 -30.5t30.5 -73.5z" />
<glyph unicode="&#xf8;" horiz-adv-x="564" d="M541 260q0 -122 -78 -197t-194 -75q-15 0 -37 2l-39 -100l-97 29l37 95q-110 57 -110 220q0 127 77.5 201t194.5 74q20 0 32 -1l36 93l97 -29l-35 -89q116 -61 116 -223zM371 248q0 40 -11 73l-73 -186l18 3q29 7 47.5 34.5t18.5 75.5zM271 363q-9 0 -19 -4 q-59 -23 -59 -105q0 -47 9 -69z" />
<glyph unicode="&#xf9;" horiz-adv-x="562" d="M516 0h-168q0 38 5 66h-1q-55 -78 -159 -78q-77 0 -112 43.5t-35 113.5v352h182v-314q0 -41 28 -41q30 0 54 35.5t24 77.5v242h182v-497zM385 645l-60 -101l-226 101l74 123z" />
<glyph unicode="&#xfa;" horiz-adv-x="562" d="M516 0h-168q0 38 5 66h-1q-55 -78 -159 -78q-77 0 -112 43.5t-35 113.5v352h182v-314q0 -41 28 -41q30 0 54 35.5t24 77.5v242h182v-497zM479 645l-226 -101l-60 100l212 124z" />
<glyph unicode="&#xfb;" horiz-adv-x="562" d="M516 0h-168q0 38 5 66h-1q-55 -78 -159 -78q-77 0 -112 43.5t-35 113.5v352h182v-314q0 -41 28 -41q30 0 54 35.5t24 77.5v242h182v-497zM452 626l-65 -82l-109 77l-109 -77l-65 82l174 142z" />
<glyph unicode="&#xfc;" horiz-adv-x="562" d="M516 0h-168q0 38 5 66h-1q-55 -78 -159 -78q-77 0 -112 43.5t-35 113.5v352h182v-314q0 -41 28 -41q30 0 54 35.5t24 77.5v242h182v-497zM472 640q0 -38 -26.5 -64.5t-64.5 -26.5t-64.5 26.5t-26.5 64.5t26.5 64.5t64.5 26.5t64.5 -26.5t26.5 -64.5zM255 640 q0 -38 -27 -64.5t-64 -26.5t-64 26.5t-27 64.5t27 64.5t64 26.5t64 -26.5t27 -64.5z" />
<glyph unicode="&#xfd;" horiz-adv-x="534" d="M539 497l-189 -505q-51 -135 -113.5 -184t-158.5 -49q-40 0 -86 8l21 154q35 -11 69 -11q26 0 51.5 14t34.5 47l8 29l-176 497h200l29 -91q22 -70 40 -156h2q21 95 45 164l28 83h195zM480 645l-226 -101l-60 100l212 124z" />
<glyph unicode="&#xfe;" horiz-adv-x="559" d="M534 278q0 -132 -67 -209.5t-203 -77.5q-22 0 -35 3v-227h-182v963h182v-182q0 -56 -4 -90h2q42 51 127 51q87 0 133.5 -62t46.5 -169zM342 258q0 100 -49 100q-27 0 -45.5 -31t-18.5 -88v-102q20 -4 35 -4q78 0 78 125z" />
<glyph unicode="&#xff;" horiz-adv-x="534" d="M539 497l-189 -505q-51 -135 -113.5 -184t-158.5 -49q-40 0 -86 8l21 154q35 -11 69 -11q26 0 51.5 14t34.5 47l8 29l-176 497h200l29 -91q22 -70 40 -156h2q21 95 45 164l28 83h195zM471 640q0 -38 -26.5 -64.5t-64.5 -26.5t-64.5 26.5t-26.5 64.5t26.5 64.5t64.5 26.5 t64.5 -26.5t26.5 -64.5zM254 640q0 -38 -27 -64.5t-64 -26.5t-64 26.5t-27 64.5t27 64.5t64 26.5t64 -26.5t27 -64.5z" />
<glyph unicode="&#x131;" horiz-adv-x="276" d="M229 0h-182v497h182v-497z" />
<glyph unicode="&#x152;" horiz-adv-x="856" d="M819 0h-375q-54 -14 -107 -14q-156 0 -236 89.5t-80 252.5q0 160 97.5 260.5t237.5 100.5q58 0 111 -14h352v-158h-209v-95h198v-152h-198v-109h209v-161zM424 176v330q-34 13 -74 13q-54 0 -92.5 -44t-38.5 -133q0 -185 127 -185q37 0 78 19z" />
<glyph unicode="&#x153;" horiz-adv-x="841" d="M813 269q0 -37 -6 -78h-282q2 -28 29 -45.5t78 -17.5q77 0 147 31l16 -136q-87 -35 -192 -35q-111 0 -175 52q-62 -52 -158 -52q-247 0 -247 246q0 125 77 200t195 75q93 0 150 -44q59 45 144 45q111 0 167.5 -66t56.5 -175zM636 309v7q0 62 -51 62q-26 0 -42.5 -19 t-18.5 -50h112zM352 249q0 54 -15.5 79t-52.5 25q-30 0 -51 -25t-21 -74q0 -58 15.5 -83t52.5 -25q35 0 53.5 28t18.5 75z" />
<glyph unicode="&#x178;" horiz-adv-x="597" d="M604 675l-214 -442v-233h-186v232l-211 443h202l63 -146q24 -55 40 -103h2q12 37 49 118l58 131h197zM480 794q0 -32 -23 -55t-55 -23t-55 23t-23 55t23 55t55 23t55 -23t23 -55zM262 794q0 -32 -23 -55t-55 -23t-55 23t-23 55t23 55t55 23t55 -23t23 -55z" />
<glyph unicode="&#x2c6;" horiz-adv-x="416" d="M382 626l-65 -82l-109 77l-109 -77l-65 82l174 142z" />
<glyph unicode="&#x2da;" horiz-adv-x="340" d="M317 635q0 -60 -42.5 -99.5t-104.5 -39.5t-104.5 39.5t-42.5 99.5t42.5 99.5t104.5 39.5t104.5 -39.5t42.5 -99.5zM218 635q0 19 -14 33.5t-34 14.5t-34 -14.5t-14 -33.5t14 -33.5t34 -14.5t34 14.5t14 33.5z" />
<glyph unicode="&#x2dc;" horiz-adv-x="425" d="M411 664q-51 -106 -139 -106q-38 0 -71.5 22.5t-45.5 22.5q-16 0 -27 -10t-22 -33l-84 64q51 106 139 106q38 0 71.5 -22.5t45.5 -22.5q28 0 49 43z" />
<glyph unicode="&#x3bc;" horiz-adv-x="642" d="M642 56q-58 -68 -156 -68q-93 0 -113 74h-1q-35 -69 -113 -69q-20 0 -36 8l27 -234h-192v730h182v-314q0 -41 28 -41q34 0 56 32t22 85v238h182v-311q0 -41 5 -53t18 -12q16 0 35 21z" />
<glyph unicode="&#x2000;" horiz-adv-x="437" />
<glyph unicode="&#x2001;" horiz-adv-x="875" />
<glyph unicode="&#x2002;" horiz-adv-x="437" />
<glyph unicode="&#x2003;" horiz-adv-x="875" />
<glyph unicode="&#x2004;" horiz-adv-x="291" />
<glyph unicode="&#x2005;" horiz-adv-x="218" />
<glyph unicode="&#x2006;" horiz-adv-x="145" />
<glyph unicode="&#x2007;" horiz-adv-x="145" />
<glyph unicode="&#x2008;" horiz-adv-x="109" />
<glyph unicode="&#x2009;" horiz-adv-x="175" />
<glyph unicode="&#x200a;" horiz-adv-x="48" />
<glyph unicode="&#x2010;" horiz-adv-x="340" d="M300 191h-260v145h260v-145z" />
<glyph unicode="&#x2011;" horiz-adv-x="340" d="M300 191h-260v145h260v-145z" />
<glyph unicode="&#x2013;" d="M550 218h-550v160h550v-160z" />
<glyph unicode="&#x2014;" horiz-adv-x="1000" d="M900 218h-800v160h800v-160z" />
<glyph unicode="&#x2018;" horiz-adv-x="300" d="M270 699q-55 -59 -63 -95q-2 -8 -2 -15q0 -29 27 -58q19 -21 22 -50q1 -8 1 -15q0 -21 -7 -40q-10 -26 -36 -44t-62 -18q-63 0 -94 59q-17 33 -17 73q0 47 25 103q39 87 133 165z" />
<glyph unicode="&#x2019;" horiz-adv-x="300" d="M150 753q63 0 94 -59q17 -33 17 -73q0 -47 -25 -103q-39 -87 -133 -165l-73 65q55 59 63 96q2 7 2 14q0 29 -27 58q-19 21 -22 50q-1 8 -1 15q0 21 7 40q10 26 36 44t62 18z" />
<glyph unicode="&#x201a;" horiz-adv-x="300" d="M150 200q63 0 94 -59q17 -33 17 -73q0 -47 -25 -103q-39 -87 -133 -165l-73 65q55 59 63 95q2 8 2 15q0 29 -27 58q-19 21 -22 50q-1 8 -1 15q0 21 7 40q10 26 36 44t62 18z" />
<glyph unicode="&#x201c;" horiz-adv-x="560" d="M530 699q-55 -59 -63 -95q-2 -8 -2 -15q0 -29 27 -58q19 -21 22 -50q1 -8 1 -15q0 -21 -7 -40q-10 -26 -36 -44t-62 -18q-63 0 -94 59q-17 33 -17 73q0 47 25 103q39 87 133 165zM270 699q-55 -59 -63 -95q-2 -8 -2 -15q0 -29 27 -58q19 -21 22 -50q1 -8 1 -15 q0 -21 -7 -40q-10 -26 -36 -44t-62 -18q-63 0 -94 59q-17 33 -17 73q0 47 25 103q39 87 133 165z" />
<glyph unicode="&#x201d;" horiz-adv-x="560" d="M410 753q63 0 94 -59q17 -33 17 -73q0 -47 -25 -103q-39 -87 -133 -165l-73 65q55 59 63 96q2 7 2 14q0 29 -27 58q-19 21 -22 50q-1 8 -1 15q0 21 7 40q10 26 36 44t62 18zM150 753q63 0 94 -59q17 -33 17 -73q0 -47 -25 -103q-39 -87 -133 -165l-73 65q55 59 63 96 q2 7 2 14q0 29 -27 58q-19 21 -22 50q-1 8 -1 15q0 21 7 40q10 26 36 44t62 18z" />
<glyph unicode="&#x201e;" horiz-adv-x="560" d="M410 200q63 0 94 -59q17 -33 17 -73q0 -47 -25 -103q-39 -87 -133 -165l-73 65q55 59 63 95q2 8 2 15q0 29 -27 58q-19 21 -22 50q-1 8 -1 15q0 21 7 40q10 26 36 44t62 18zM150 200q63 0 94 -59q17 -33 17 -73q0 -47 -25 -103q-39 -87 -133 -165l-73 65q55 59 63 95 q2 8 2 15q0 29 -27 58q-19 21 -22 50q-1 8 -1 15q0 21 7 40q10 26 36 44t62 18z" />
<glyph unicode="&#x2022;" horiz-adv-x="426" d="M401 297q0 -77 -55.5 -132.5t-132.5 -55.5q-78 0 -133 55.5t-55 132.5t55 132.5t133 55.5q77 0 132.5 -55.5t55.5 -132.5z" />
<glyph unicode="&#x2026;" horiz-adv-x="808" d="M768 90q0 -43 -30.5 -73.5t-73.5 -30.5t-73.5 30.5t-30.5 73.5t30.5 73.5t73.5 30.5t73.5 -30.5t30.5 -73.5zM508 90q0 -43 -30.5 -73.5t-73.5 -30.5t-73.5 30.5t-30.5 73.5t30.5 73.5t73.5 30.5t73.5 -30.5t30.5 -73.5zM248 90q0 -43 -30.5 -73.5t-73.5 -30.5 t-73.5 30.5t-30.5 73.5t30.5 73.5t73.5 30.5t73.5 -30.5t30.5 -73.5z" />
<glyph unicode="&#x202f;" horiz-adv-x="175" />
<glyph unicode="&#x2039;" horiz-adv-x="311" d="M276 141l-148 -62l-106 212l109 214l142 -61l-79 -153z" />
<glyph unicode="&#x203a;" horiz-adv-x="311" d="M289 293l-109 -214l-142 61l79 153l-82 150l148 62z" />
<glyph unicode="&#x205f;" horiz-adv-x="218" />
<glyph unicode="&#x20ac;" d="M530 17q-73 -31 -173 -31q-113 0 -182.5 47.5t-93.5 159.5h-70v107h60v19v31h-60v107h78q28 95 101.5 151t196.5 56q69 0 142 -25l-41 -143q-48 24 -108 24q-74 0 -103 -63h129v-107h-150v-20v-30h150v-107h-131q24 -63 106 -63q55 0 109 24z" />
<glyph unicode="&#x2122;" horiz-adv-x="675" d="M663 394h-131l-12 83l-3 38l-6 -38l-14 -83h-108l-16 86l-5 35l-2 -35l-10 -86h-118l47 281h141l18 -78l6 -34l5 34l15 78h143zM244 566h-55v-172h-123v172h-59v109h237v-109z" />
</font>
</defs>
</svg>
