<?xml version="1.0" standalone="no"?>
<!DOCTYPE svg PUBLIC "-//W3C//DTD SVG 1.1//EN" "http://www.w3.org/Graphics/SVG/1.1/DTD/svg11.dtd" >
<svg xmlns="http://www.w3.org/2000/svg">
<metadata>
This is a custom SVG webfont generated by Font Squirrel.
</metadata>
<defs>
<font id="webfonteLJJ2Shb" horiz-adv-x="550" >
<font-face units-per-em="1000" ascent="800" descent="-200" />
<missing-glyph horiz-adv-x="218" />
<glyph unicode=" "  horiz-adv-x="218" />
<glyph unicode="&#x09;" horiz-adv-x="218" />
<glyph unicode="&#xa0;" horiz-adv-x="218" />
<glyph unicode="!" horiz-adv-x="323" d="M259 711l-22 -510h-133l-24 510h179zM258 74q0 -36 -26 -61t-64 -25t-64 25t-26 61q0 37 26 62t64 25t64 -25t26 -62z" />
<glyph unicode="&#x22;" horiz-adv-x="430" d="M392 704l-18 -270h-114l-19 270h151zM189 704l-18 -270h-114l-19 270h151z" />
<glyph unicode="#" d="M526 384h-79l-12 -115h69v-105h-80l-17 -164h-109l17 164h-113l-17 -164h-109l17 164h-69v105h80l11 115h-69v106h80l17 160h109l-17 -160h113l17 160h110l-17 -160h68v-106zM337 384h-112l-12 -115h113z" />
<glyph unicode="$" d="M482 214q0 -68 -44.5 -120.5t-119.5 -71.5v-107h-108v100q-48 0 -119 11l11 135q60 -20 124 -20q94 0 94 59q0 25 -26.5 41.5t-64 29.5t-75 31t-64 56.5t-26.5 95.5q0 66 42.5 115.5t112.5 66.5v94h107v-86q57 -2 101 -12l-11 -127q-55 16 -110 16q-83 0 -83 -53 q0 -22 26.5 -38t64.5 -29.5t76.5 -32.5t65 -58t26.5 -96z" />
<glyph unicode="%" horiz-adv-x="767" d="M732 156q0 -75 -47 -122t-114 -47q-73 0 -113 42.5t-40 116.5q0 73 46.5 119t114.5 46q70 0 111.5 -39.5t41.5 -115.5zM681 603l-504 -627l-95 69l504 627zM349 508q0 -75 -47 -122t-114 -47q-73 0 -113 42.5t-40 116.5q0 73 46.5 119t113.5 46q70 0 112 -39.5t42 -115.5 zM621 149q0 38 -11 53t-34 15q-20 0 -33 -17.5t-13 -49.5q0 -69 46 -69q19 0 32 18t13 50zM237 501q0 39 -11 53.5t-33 14.5q-20 0 -33 -17.5t-13 -49.5q0 -69 46 -69q18 0 31 18t13 50z" />
<glyph unicode="&#x26;" horiz-adv-x="798" d="M765 90l-101 -116q-92 64 -134 96q-112 -83 -256 -83q-116 0 -174 57.5t-58 144.5q0 108 118 201q-80 96 -80 175q0 74 57 124t156 50q91 0 140.5 -41t49.5 -113q0 -100 -116 -192q73 -68 156 -130v-1q54 88 54 192v11h152v-7q0 -157 -90 -279zM333 575q0 22 -13 36.5 t-37 14.5q-23 0 -37.5 -15t-14.5 -38q0 -40 46 -93q56 48 56 95zM417 154q-89 71 -166 144q-51 -47 -51 -91q0 -36 27 -62.5t72 -26.5q62 0 118 36z" />
<glyph unicode="'" horiz-adv-x="227" d="M189 704l-18 -270h-114l-19 270h151z" />
<glyph unicode="(" horiz-adv-x="308" d="M306 -167l-117 -51q-149 234 -149 503q0 272 150 506l113 -51q-112 -202 -112 -450q0 -250 115 -457z" />
<glyph unicode=")" horiz-adv-x="308" d="M268 287q0 -273 -150 -505l-113 50q113 203 113 450q0 249 -114 457l117 52q147 -234 147 -504z" />
<glyph unicode="*" horiz-adv-x="391" d="M364 529l-54 -92l-81 69l19 -105h-107l19 105l-82 -68l-52 91l101 36l-101 37l53 91l82 -69l-20 106h107l-19 -106l82 69l53 -91l-101 -37z" />
<glyph unicode="+" d="M513 234h-166v-177h-145v177h-165v128h165v175h145v-175h166v-128z" />
<glyph unicode="," horiz-adv-x="277" d="M138 172q57 0 82 -54q14 -29 14 -62q0 -49 -31 -107q-36 -70 -112 -134l-62 55q51 56 59 93q2 8 2 16q0 28 -22 51q-20 28 -20 60t25 56q25 26 65 26z" />
<glyph unicode="-" horiz-adv-x="337" d="M294 210h-252v122h252v-122z" />
<glyph unicode="." horiz-adv-x="277" d="M233 82q0 -39 -28 -66.5t-67 -27.5q-38 0 -66 27.5t-28 66.5t28 67t66 28q39 0 67 -28t28 -67z" />
<glyph unicode="/" horiz-adv-x="480" d="M482 757l-350 -918h-152l351 918h151z" />
<glyph unicode="0" d="M522 329q0 -168 -71 -255t-181 -87q-58 0 -100.5 16t-76 53.5t-50 105t-16.5 165.5q0 165 68.5 250.5t184.5 85.5q123 0 182.5 -79t59.5 -255zM358 326q0 86 -10 132t-27 60.5t-47 14.5q-41 0 -62 -43.5t-21 -158.5q0 -88 9.5 -134.5t26.5 -62t48 -15.5q42 0 62.5 45 t20.5 162z" />
<glyph unicode="1" d="M510 0h-450v137h156v354l-135 -53l-24 145l202 67h116v-513h135v-137z" />
<glyph unicode="2" d="M498 0h-452v125l68 66q118 114 154.5 163.5t36.5 85.5t-24.5 58t-69.5 22q-72 0 -133 -41l-27 137q87 46 195 46q114 0 172 -56t58 -138q0 -67 -35 -127t-130 -147l-50 -47v-2q75 3 171 3h66v-148z" />
<glyph unicode="3" d="M491 212q0 -106 -82.5 -165.5t-217.5 -59.5q-71 0 -133 16l13 130q58 -19 128 -19q64 0 95.5 23t31.5 60q0 76 -128 76q-56 0 -106 -7v117h34q189 0 189 86q0 67 -98 67q-77 0 -137 -31l-13 127q83 31 183 31q111 0 168 -44.5t57 -119.5q0 -108 -106 -143l-1 -2 q55 -9 89 -48.5t34 -93.5z" />
<glyph unicode="4" d="M530 135h-79v-135h-150v135h-272l-14 129l228 386h208v-378h79v-137zM304 272v225h-1l-136 -227q34 2 137 2z" />
<glyph unicode="5" d="M497 220q0 -106 -81 -169t-214 -63q-67 0 -128 14v136q65 -19 137 -19q55 0 86 23t31 63q0 41 -35 62.5t-99 21.5q-52 0 -114 -8v369h388v-143h-242v-99h28q114 0 178.5 -51.5t64.5 -136.5z" />
<glyph unicode="6" d="M522 225q0 -111 -67 -174.5t-177 -63.5q-117 0 -182 72t-65 219q0 184 92.5 283t254.5 99q51 0 86 -4v-132q-45 9 -91 9q-135 0 -178 -130q-5 -17 -9 -34h1q46 48 130 48q97 0 151 -54.5t54 -137.5zM368 203q0 43 -23 66.5t-66 23.5q-41 0 -64.5 -25t-23.5 -58 q0 -44 24 -71.5t69 -27.5q39 0 61.5 25.5t22.5 66.5z" />
<glyph unicode="7" d="M502 519q-117 -227 -204 -519h-174q36 123 93 265t107 238q-96 -3 -193 -3h-85v150h456v-131z" />
<glyph unicode="8" d="M518 187q0 -95 -72 -147.5t-178 -52.5q-111 0 -173.5 47.5t-62.5 129.5q0 91 106 159q-92 56 -92 148q0 87 66.5 139.5t170.5 52.5q101 0 160.5 -46.5t59.5 -119.5q0 -87 -94 -151q109 -61 109 -159zM350 484q0 27 -19 44t-58 17q-36 0 -55 -17.5t-19 -42.5 q0 -26 20.5 -44.5t63.5 -38.5q67 39 67 82zM360 174q0 30 -24 49.5t-73 41.5q-36 -22 -55 -42t-19 -47q0 -30 23.5 -48.5t66.5 -18.5q37 0 59 18t22 47z" />
<glyph unicode="9" d="M518 372q0 -185 -92 -283.5t-254 -98.5q-60 0 -99 7v133q48 -12 106 -12q135 0 173 125q2 7 5.5 18t4.5 16h-1q-50 -45 -129 -45q-96 0 -150.5 55t-54.5 139q0 109 68 173t177 64q116 0 181 -73.5t65 -217.5zM354 441q0 44 -23.5 71t-68.5 27q-38 0 -60.5 -26.5 t-22.5 -65.5q0 -44 22.5 -67t65.5 -23q41 0 64 24t23 60z" />
<glyph unicode=":" horiz-adv-x="306" d="M257 359q0 -39 -28 -67t-66 -28q-39 0 -67 28t-28 67q0 38 28 66t67 28q38 0 66 -28t28 -66zM257 82q0 -39 -28 -66.5t-66 -27.5q-39 0 -67 27.5t-28 66.5t28 67t67 28q38 0 66 -28t28 -67z" />
<glyph unicode=";" horiz-adv-x="306" d="M257 359q0 -39 -28 -67t-66 -28q-39 0 -67 28t-28 67q0 38 28 66t67 28q38 0 66 -28t28 -66zM162 172q57 0 83 -54q13 -28 13 -60q0 -50 -31 -109q-36 -70 -112 -134l-62 55q52 56 61 93q1 8 1 16q0 28 -22 51q-21 28 -21 60q0 31 26 56q25 26 64 26z" />
<glyph unicode="&#x3c;" d="M479 101l-100 -104l-321 302l319 302l101 -101l-224 -200z" />
<glyph unicode="=" d="M498 338h-446v122h446v-122zM498 134h-446v122h446v-122z" />
<glyph unicode="&#x3e;" d="M492 299l-319 -302l-101 101l224 200l-225 200l100 103z" />
<glyph unicode="?" horiz-adv-x="455" d="M416 510q0 -39 -14 -71.5t-34 -52.5l-44 -40l-38 -39q-17 -17 -24 -45q-3 -11 -3 -23q0 -18 7 -38h-149q-14 36 -14 67q0 23 8 44q18 47 48.5 71t60.5 53.5t30 57.5q0 84 -194 89l19 138q170 -3 255.5 -63.5t85.5 -147.5zM284 74q0 -36 -26 -61t-64 -25t-64 25t-26 61 q0 37 26 62t64 25t64 -25t26 -62z" />
<glyph unicode="@" horiz-adv-x="965" d="M879 418q0 -139 -69 -213.5t-182 -74.5q-49 0 -75.5 24t-27.5 64h-4q-20 -36 -55.5 -62t-78.5 -26q-49 0 -76.5 37.5t-27.5 112.5q0 117 60.5 191t178.5 74q68 0 122 -23l-32 -189q-4 -24 -4 -41q0 -16 4 -25q7 -19 33 -19q44 0 71 39.5t27 123.5q0 88 -55.5 146.5 t-173.5 58.5q-128 0 -214 -89t-86 -233q0 -249 268 -249q83 0 178 31l23 -117q-105 -38 -220 -38q-188 0 -287.5 95.5t-99.5 263.5q0 198 128 328t317 130q171 0 264.5 -89.5t93.5 -230.5zM519 440q-13 5 -34 5q-39 0 -63.5 -46t-24.5 -97q0 -56 25 -56t50 39t40 117z" />
<glyph unicode="A" horiz-adv-x="633" d="M638 0h-171l-42 125h-233l-41 -125h-155l228 675h177zM386 248l-52 154q-14 41 -26 94h-2q-15 -63 -25 -94l-52 -154h157z" />
<glyph unicode="B" horiz-adv-x="586" d="M553 211q0 -90 -69 -151.5t-209 -61.5q-13 0 -86 1t-129 1v674q103 5 242 5q110 0 171 -43t61 -127q0 -48 -24 -87.5t-68 -58.5v-3q51 -13 81 -55t30 -94zM369 485q0 69 -93 69q-22 0 -60 -2v-148q13 -1 46 -1q107 0 107 82zM386 209q0 38 -31 58.5t-87 20.5 q-40 0 -52 -1v-159q20 -3 61 -3q52 0 80.5 22.5t28.5 61.5z" />
<glyph unicode="C" horiz-adv-x="555" d="M517 20q-77 -29 -168 -29q-89 0 -153.5 28t-98.5 76.5t-49 102t-15 115.5q0 168 89 267.5t253 99.5q78 0 138 -19l-20 -142q-57 21 -121 21q-80 0 -124 -54t-44 -147q0 -206 176 -206q65 0 115 25z" />
<glyph unicode="D" horiz-adv-x="660" d="M628 351q0 -170 -100 -263t-268 -93q-76 0 -200 6v672q106 6 230 6q338 0 338 -328zM461 339q0 102 -40.5 155.5t-140.5 53.5q-47 0 -64 -2v-413q26 -4 58 -4q84 0 135.5 53t51.5 157z" />
<glyph unicode="E" horiz-adv-x="487" d="M440 0h-380v675h380v-131h-224v-134h212v-127h-212v-149h224v-134z" />
<glyph unicode="F" horiz-adv-x="463" d="M432 542h-216v-144h204v-128h-204v-270h-156v675h372v-133z" />
<glyph unicode="G" horiz-adv-x="670" d="M612 33q-108 -44 -237 -44q-163 0 -253 88.5t-90 243.5q0 163 103.5 263.5t278.5 100.5q104 0 195 -28l-31 -142q-80 31 -171 31q-96 0 -151.5 -57t-55.5 -156q0 -95 49.5 -149t142.5 -54q37 0 64 9v221h156v-327z" />
<glyph unicode="H" horiz-adv-x="679" d="M619 0h-156v281h-247v-281h-156v675h156v-259h247v259h156v-675z" />
<glyph unicode="I" horiz-adv-x="276" d="M216 0h-156v675h156v-675z" />
<glyph unicode="J" horiz-adv-x="339" d="M280 197q0 -92 -44.5 -149.5t-146.5 -57.5q-49 0 -89 8v132q25 -9 57 -9q34 0 51 18t17 63v473h155v-478z" />
<glyph unicode="K" horiz-adv-x="605" d="M601 0h-202l-183 317v-317h-156v675h156v-298l185 298h189l-223 -325z" />
<glyph unicode="L" horiz-adv-x="430" d="M420 0h-360v675h156v-537h204v-138z" />
<glyph unicode="M" horiz-adv-x="876" d="M857 0h-164l-43 278q-12 70 -20 157h-2q-16 -82 -39 -159l-83 -276h-150l-80 255q-30 92 -44 180h-1q-4 -46 -20 -171l-34 -264h-157l108 675h179l94 -296q20 -67 36 -147h2q16 80 39 148l95 295h176z" />
<glyph unicode="N" horiz-adv-x="693" d="M633 0h-199l-159 291q-39 73 -70 148q5 -83 5 -182v-257h-150v675h200l148 -267q35 -64 82 -166q-7 81 -7 211v222h150v-675z" />
<glyph unicode="O" horiz-adv-x="702" d="M674 348q0 -163 -95.5 -262t-239.5 -99q-154 0 -232.5 90t-78.5 252q0 161 96.5 260t238.5 99q141 0 226 -85t85 -255zM509 338q0 102 -40.5 155t-117.5 53q-66 0 -112 -52t-46 -152q0 -101 38.5 -156.5t116.5 -55.5q64 0 112.5 51.5t48.5 156.5z" />
<glyph unicode="P" horiz-adv-x="536" d="M518 463q0 -103 -71 -171.5t-195 -68.5q-22 0 -36 1v-224h-156v675q97 5 192 5q129 0 197.5 -56.5t68.5 -160.5zM357 456q0 97 -108 97q-22 0 -33 -1v-198q20 -2 27 -2q50 1 82 28.5t32 75.5z" />
<glyph unicode="Q" horiz-adv-x="702" d="M674 348q0 -163 -95.5 -262t-239.5 -99q-154 0 -232.5 90t-78.5 252q0 161 96.5 260t238.5 99q141 0 226 -85t85 -255zM700 -215q-61 -8 -104 -8q-31 0 -52 5q-50 10 -120 22q-41 7 -81 7q-27 0 -53 -3v136q36 4 70 4q24 0 48 -2q55 -5 90.5 -15t89.5 -15q18 -1 36 -1 q37 0 76 6v-136zM509 338q0 102 -40.5 155t-117.5 53q-66 0 -112 -52t-46 -152q0 -101 38.5 -156.5t116.5 -55.5q64 0 112.5 51.5t48.5 156.5z" />
<glyph unicode="R" horiz-adv-x="575" d="M572 0h-190l-157 264h-9v-264h-156v675q71 5 211 5q255 0 255 -200q0 -68 -40.5 -119t-104.5 -68l52 -76zM363 467q0 85 -104 85q-25 0 -43 -2v-173q16 -2 39 -2q50 0 79 24.5t29 67.5z" />
<glyph unicode="S" horiz-adv-x="502" d="M475 214q0 -98 -75 -162t-193 -64q-91 0 -161 18l15 148q73 -30 150 -30q40 0 66 17.5t26 52.5q0 31 -28 51t-67.5 34t-79 32.5t-67.5 60t-28 104.5q0 97 70.5 154t196.5 57q67 0 123 -13l-14 -136q-57 20 -116 20q-93 0 -93 -64q0 -28 28.5 -48t69 -35t80.5 -35.5 t68.5 -61.5t28.5 -100z" />
<glyph unicode="T" horiz-adv-x="507" d="M493 542h-162v-542h-155v542h-162v133h479v-133z" />
<glyph unicode="U" horiz-adv-x="673" d="M613 265q0 -140 -74.5 -209t-211.5 -69q-78 0 -132 19.5t-82.5 56t-40.5 78.5t-12 97v437h156v-428q0 -64 26.5 -96.5t94.5 -32.5q66 0 94 31.5t28 106.5v419h154v-410z" />
<glyph unicode="V" horiz-adv-x="635" d="M637 675l-228 -675h-182l-229 675h168l119 -369q22 -67 35 -126h2q13 58 38 135l118 360h159z" />
<glyph unicode="W" horiz-adv-x="951" d="M933 675l-169 -675h-189l-80 318q-15 62 -25 154h-1q-8 -80 -25 -149l-81 -323h-178l-167 675h165l79 -329q16 -71 22 -141h1q13 89 26 137l88 333h161l88 -327q17 -63 27 -139h1q11 82 25 142l76 324h156z" />
<glyph unicode="X" horiz-adv-x="648" d="M642 0h-196l-128 228l-128 -228h-184l211 344l-199 331h180l123 -219l121 219h177l-195 -332z" />
<glyph unicode="Y" horiz-adv-x="578" d="M579 675l-214 -439v-236h-156v235l-211 440h170l77 -172q27 -60 43 -108h2q13 39 52 122l73 158h164z" />
<glyph unicode="Z" horiz-adv-x="536" d="M492 0h-448v122l217 363q15 25 36 52q-36 -2 -106 -2h-140v140h437v-127l-229 -368q-7 -12 -26 -38q13 2 131 2h128v-144z" />
<glyph unicode="[" horiz-adv-x="331" d="M297 -208h-235v989h235v-122h-92v-744h92v-123z" />
<glyph unicode="\" horiz-adv-x="504" d="M506 -161h-152l-350 918h152z" />
<glyph unicode="]" horiz-adv-x="331" d="M270 -208h-235v123h91v744h-91v122h235v-989z" />
<glyph unicode="^" d="M497 387l-108 -54l-122 235l-117 -235l-101 52l163 290h115z" />
<glyph unicode="_" d="M550 -244h-550v123h550v-123z" />
<glyph unicode="`" horiz-adv-x="377" d="M330 636l-53 -83l-201 105l66 102z" />
<glyph unicode="a" horiz-adv-x="526" d="M469 0h-143q0 50 4 75h-1q-18 -39 -59 -62.5t-93 -23.5q-69 0 -107 41.5t-38 105.5q0 90 75.5 133t204.5 43v20q0 32 -20.5 46.5t-68.5 14.5q-68 0 -137 -33l-26 119q90 31 189 31q120 0 168 -43t48 -130v-219q0 -66 4 -118zM312 200v16q-136 0 -136 -64 q0 -20 13.5 -33.5t36.5 -13.5q37 0 61.5 28.5t24.5 66.5z" />
<glyph unicode="b" horiz-adv-x="559" d="M528 275q0 -127 -72.5 -206.5t-202.5 -79.5q-102 0 -194 25v716h152v-196q0 -54 -7 -99l1 -1q18 34 55 54t86 20q88 0 135 -61.5t47 -171.5zM367 260q0 121 -68 121q-39 0 -63.5 -39.5t-24.5 -99.5v-125q21 -6 53 -6q103 0 103 149z" />
<glyph unicode="c" horiz-adv-x="418" d="M391 11q-58 -22 -133 -22q-113 0 -170.5 62t-57.5 182t66 197.5t194 77.5q51 0 101 -16l-23 -132q-39 17 -79 17q-50 0 -75 -35t-25 -97q0 -123 100 -123q49 0 84 17z" />
<glyph unicode="d" horiz-adv-x="558" d="M499 0h-140q0 40 5 71h-2q-47 -83 -151 -83q-88 0 -134.5 62t-46.5 171q0 126 71.5 206t195.5 80q26 0 50 -3v226h152v-730zM347 258v122q-25 6 -52 6q-104 0 -104 -149q0 -122 69 -122q38 0 62.5 40.5t24.5 102.5z" />
<glyph unicode="e" horiz-adv-x="519" d="M485 278q0 -26 -5 -68h-296q2 -103 123 -103q75 0 146 31l15 -115q-84 -34 -186 -34q-252 0 -252 254q0 118 63 192t176 74q108 0 162 -64t54 -167zM335 311q1 42 -17.5 64.5t-52.5 22.5q-33 0 -55 -24t-26 -63h151z" />
<glyph unicode="f" horiz-adv-x="357" d="M369 731l-10 -124q-27 9 -55 9q-35 0 -51 -18t-16 -57v-44h102v-117h-102v-380h-152v380h-76v117h76v43q0 101 48.5 150t155.5 49q45 0 80 -8z" />
<glyph unicode="g" horiz-adv-x="548" d="M525 -44q0 -84 -77.5 -144t-201.5 -60q-104 0 -160 37.5t-56 110.5q0 34 21.5 67t50.5 49q-48 23 -48 77q0 30 17.5 55.5t43.5 36.5q-75 40 -75 134q0 81 59 135.5t167 54.5q39 0 87 -12h169v-120h-57q14 -16 14 -44q0 -83 -55 -130.5t-160 -47.5q-14 0 -30 3 q-18 -9 -18 -25q0 -15 13.5 -19.5t57.5 -6.5l67 -3q171 -6 171 -148zM335 327q0 33 -19 52.5t-56 19.5q-35 0 -54.5 -19.5t-19.5 -50.5q0 -71 75 -71q35 0 54.5 18.5t19.5 50.5zM375 -64q0 49 -63 52l-79 2h-10q-7 0 -9 1q-35 -29 -35 -62q0 -28 24 -45t65 -17q51 0 79 19 t28 50z" />
<glyph unicode="h" horiz-adv-x="568" d="M508 0h-152v316q0 64 -46 64q-40 0 -69.5 -42.5t-29.5 -97.5v-240h-152v730h152v-199q0 -61 -8 -102h1q49 79 157 79q78 0 112.5 -43.5t34.5 -114.5v-350z" />
<glyph unicode="i" horiz-adv-x="271" d="M229 645q0 -37 -27.5 -63.5t-66.5 -26.5q-38 0 -65.5 26.5t-27.5 63.5t27.5 63.5t65.5 26.5q39 0 66.5 -26.5t27.5 -63.5zM211 0h-152v497h152v-497z" />
<glyph unicode="j" horiz-adv-x="274" d="M231 645q0 -37 -27.5 -63.5t-65.5 -26.5q-39 0 -66.5 26.5t-27.5 63.5t27.5 63.5t66.5 26.5q38 0 65.5 -26.5t27.5 -63.5zM214 -25q0 -107 -48 -163t-159 -56q-37 0 -72 10l9 129q28 -11 57 -11q33 0 47 17t14 57v539h152v-522z" />
<glyph unicode="k" horiz-adv-x="542" d="M536 0h-190l-135 239v-239h-152v730h152v-433l126 200h187l-164 -228z" />
<glyph unicode="l" horiz-adv-x="271" d="M211 0h-152v730h152v-730z" />
<glyph unicode="m" horiz-adv-x="858" d="M799 0h-153v311q0 69 -45 69q-36 0 -66.5 -41.5t-30.5 -99.5v-239h-150v312q0 68 -45 68q-38 0 -68 -41.5t-30 -99.5v-239h-152v497h143q0 -39 -6 -79h1q24 42 65.5 66t93.5 24q108 0 136 -90q21 39 62 64.5t95 25.5q150 0 150 -168v-340z" />
<glyph unicode="n" horiz-adv-x="568" d="M508 0h-152v316q0 64 -46 64q-40 0 -69.5 -42t-29.5 -97v-241h-152v497h142q0 -49 -6 -78l1 -1q54 90 165 90q78 0 112.5 -43.5t34.5 -114.5v-350z" />
<glyph unicode="o" horiz-adv-x="558" d="M529 259q0 -120 -74 -195t-188 -75q-113 0 -176 60t-63 188q0 121 74 196t189 75t176.5 -63.5t61.5 -185.5zM371 250q0 128 -90 128q-40 0 -67.5 -31.5t-27.5 -92.5q0 -133 92 -133q42 0 67.5 34t25.5 95z" />
<glyph unicode="p" horiz-adv-x="559" d="M528 276q0 -132 -67.5 -208t-198.5 -76q-30 0 -51 4v-233h-152v734h140q0 -38 -4 -71h2q44 82 150 82q87 0 134 -61.5t47 -170.5zM367 260q0 122 -68 122q-39 0 -63.5 -40t-24.5 -103v-122q24 -6 53 -6q103 0 103 149z" />
<glyph unicode="q" horiz-adv-x="559" d="M500 -237h-153v203q0 55 7 101l-2 1q-19 -38 -54.5 -59t-81.5 -21q-90 0 -137.5 59t-47.5 173q0 127 72 207.5t205 80.5q92 0 192 -16v-729zM347 261v120q-25 5 -52 5q-104 0 -104 -149q0 -122 68 -122q39 0 63.5 40.5t24.5 105.5z" />
<glyph unicode="r" horiz-adv-x="356" d="M345 509l-7 -151q-17 4 -32 4q-40 0 -63 -28q-32 -37 -32 -129v-205h-152v497h142q0 -45 -7 -88h2q44 100 140 100h9z" />
<glyph unicode="s" horiz-adv-x="411" d="M379 159q0 -78 -61.5 -124t-163.5 -46q-60 0 -110 14l8 124q46 -20 104 -20q28 0 44.5 10.5t16.5 28.5q0 20 -19 32.5t-45.5 21.5t-53.5 22.5t-46 44t-19 76.5q0 73 55.5 119.5t164.5 46.5q37 0 87 -9l-5 -119q-36 13 -86 13q-57 0 -57 -38q0 -18 19 -30t46.5 -22.5 t55 -25t46.5 -45t19 -74.5z" />
<glyph unicode="t" horiz-adv-x="377" d="M348 4q-57 -15 -113 -15q-86 0 -119 34.5t-33 125.5v231h-75v117h75v147l153 41v-188h107v-117h-107v-196q0 -38 11 -53t40 -15q22 0 52 7z" />
<glyph unicode="u" horiz-adv-x="566" d="M508 0h-142q0 49 6 78l-2 1q-52 -90 -164 -90q-78 0 -113 43.5t-35 114.5v350h153v-316q0 -64 46 -64q40 0 69 42t29 97v241h153v-497z" />
<glyph unicode="v" horiz-adv-x="519" d="M520 497l-183 -497h-155l-183 497h167l61 -176q17 -47 36 -121h2q14 65 32 116l61 181h162z" />
<glyph unicode="w" horiz-adv-x="798" d="M793 497l-155 -497h-162l-55 173q-11 36 -29 119h-1q-9 -45 -32 -125l-50 -167h-153l-151 497h166l38 -138q25 -89 41 -162h2q12 72 37 155l43 145h141l44 -137q28 -91 42 -163h2q19 100 35 155l41 145h156z" />
<glyph unicode="x" horiz-adv-x="534" d="M530 0h-190l-77 152l-77 -152h-181l164 252l-154 245h181l78 -149l79 149h168l-145 -245z" />
<glyph unicode="y" horiz-adv-x="516" d="M517 497l-193 -516q-49 -129 -108.5 -177.5t-151.5 -48.5q-40 0 -77 7l17 130q33 -10 66 -10q75 0 101 81l12 37l-180 497h168l50 -145q19 -53 40 -145h1q18 75 47 160l45 130h163z" />
<glyph unicode="z" horiz-adv-x="452" d="M407 0h-363v109l174 253q-28 -2 -90 -2h-78v137h354v-109l-169 -249q16 1 97 1h75v-140z" />
<glyph unicode="{" horiz-adv-x="376" d="M344 -208h-23q-106 0 -152.5 56t-46.5 185v108q0 62 -23.5 86.5t-72.5 26.5v114q49 2 72.5 24t23.5 84v66q0 125 46.5 182t152.5 57h23v-122q-48 0 -64 -22t-16 -94v-66q0 -151 -92 -165v-2q92 -14 92 -170v-107q0 -73 16 -95.5t64 -22.5v-123z" />
<glyph unicode="|" horiz-adv-x="290" d="M203 -237h-121v1000h121v-1000z" />
<glyph unicode="}" horiz-adv-x="374" d="M352 254q-49 -2 -73 -26.5t-24 -86.5v-108q0 -129 -46.5 -185t-151.5 -56h-24v123q48 0 64 22.5t16 95.5v107q0 156 92 170v2q-92 12 -92 164v67q0 72 -16 94t-64 22v122h24q105 0 151.5 -57t46.5 -182v-65q0 -63 23.5 -85t73.5 -24v-114z" />
<glyph unicode="~" d="M516 567q0 -77 -43.5 -123t-118.5 -46q-39 0 -68 16t-41.5 34.5t-28 34.5t-30.5 16q-38 0 -38 -76h-114v24q0 77 43.5 123t118.5 46q39 0 68 -16t42 -34.5t28 -34.5t31 -16q38 0 38 75h113v-23z" />
<glyph unicode="&#xa1;" horiz-adv-x="323" d="M244 423q0 -37 -26 -62t-64 -25t-64 25t-26 62q0 36 26 61t64 25t64 -25t26 -61zM243 -214h-179l22 510h132z" />
<glyph unicode="&#xa2;" d="M477 123q-41 -20 -102 -28v-95h-114v95q-94 11 -142.5 72.5t-48.5 157.5q0 92 49.5 155t141.5 85v85h114v-80q46 -3 95 -19l-31 -122q-41 19 -93 19q-53 0 -85 -31t-32 -86q0 -51 32 -80.5t85 -29.5q55 0 95 23z" />
<glyph unicode="&#xa3;" d="M496 0h-431v103q70 54 70 125q0 19 -3 37h-88v118h73q-6 50 -6 69q0 211 236 211q60 0 126 -16l-31 -128q-54 18 -102 18q-75 0 -75 -74q0 -17 7 -80h145v-118h-131q3 -15 3 -34q0 -60 -46 -103q44 2 69 2h184v-130z" />
<glyph unicode="&#xa4;" d="M523 124l-118 -85l-74 100q-31 -11 -66 -11q-23 0 -46 5l-68 -93l-119 84l65 82q-30 47 -30 119q0 71 35 120l-70 90l118 83l70 -94q30 9 65 9q30 0 54 -7l67 93l117 -85l-65 -84q25 -44 25 -113q0 -66 -34 -118zM352 334q0 89 -77 89q-32 0 -54.5 -24t-22.5 -69 q0 -42 19 -67t57 -25q33 0 55.5 23.5t22.5 72.5z" />
<glyph unicode="&#xa5;" d="M539 650l-151 -315h112v-95h-148v-51h148v-95h-148v-94h-154v94h-149v95h149v51h-149v95h112l-150 315h168l62 -144q9 -22 34 -93h2q11 33 37 94l61 143h164z" />
<glyph unicode="&#xa6;" horiz-adv-x="290" d="M203 395h-121v368h121v-368zM203 -237h-121v378h121v-378z" />
<glyph unicode="&#xa7;" horiz-adv-x="536" d="M474 255q0 -44 -21 -83t-55 -64q37 -46 37 -105q0 -71 -61 -121.5t-189 -50.5q-43 0 -86 10l10 127q34 -11 77 -11q42 0 63 14t21 36t-22.5 45t-55 46.5t-64.5 51.5t-54.5 71.5t-22.5 95.5q0 93 76 146q-37 45 -37 104q0 75 56 123.5t174 48.5q51 0 86 -7l-7 -127 q-33 10 -72 10q-73 0 -73 -45q0 -17 16.5 -37t40.5 -37.5t53 -42.5t53 -51.5t40.5 -65t16.5 -81.5zM338 234q0 17 -5 31.5t-19 30.5t-25 26.5t-36 31.5t-40 35q-25 -20 -25 -53q0 -35 25.5 -64.5t99.5 -89.5q25 20 25 52z" />
<glyph unicode="&#xa8;" horiz-adv-x="546" d="M447 645q0 -33 -23 -56t-56 -23q-32 0 -55.5 23t-23.5 56q0 32 23.5 55.5t55.5 23.5q33 0 56 -23.5t23 -55.5zM238 645q0 -33 -23 -56t-56 -23q-32 0 -55.5 23t-23.5 56q0 32 23.5 55.5t55.5 23.5q33 0 56 -23.5t23 -55.5z" />
<glyph unicode="&#xa9;" horiz-adv-x="765" d="M728 333q0 -143 -101.5 -244.5t-244.5 -101.5q-145 0 -245.5 101t-100.5 245q0 143 101.5 244.5t244.5 101.5q144 0 245 -101t101 -245zM615 333q0 96 -68 164.5t-165 68.5q-96 0 -164.5 -68t-68.5 -165q0 -96 68.5 -165t164.5 -69q97 0 165 68.5t68 165.5zM483 178 q-44 -22 -104 -22q-73 0 -117.5 47t-44.5 127q0 79 45 130.5t131 51.5q48 0 85 -17l-18 -98q-19 16 -57 16q-62 0 -62 -81q0 -72 57 -72q36 0 64 14z" />
<glyph unicode="&#xaa;" horiz-adv-x="413" d="M355 313h-112q0 26 4 47h-1q-12 -25 -40.5 -41t-60.5 -16q-55 0 -83 28.5t-28 74.5q0 69 56.5 102t144.5 33v13q0 38 -54 38q-55 0 -112 -27l-12 98q64 23 144 23q82 0 117.5 -33t35.5 -86q0 -35 -0.5 -92t-0.5 -78q0 -26 2 -84zM372 152h-327v118h327v-118zM235 456v10 q-89 0 -89 -43q0 -12 8.5 -20t23.5 -8q26 0 41.5 19t15.5 42z" />
<glyph unicode="&#xab;" d="M503 148l-120 -54l-115 198l118 199l115 -52l-88 -147zM262 140l-124 -52l-104 204l106 205l120 -51l-81 -154z" />
<glyph unicode="&#xac;" d="M494 90h-136v144h-321v128h457v-272z" />
<glyph unicode="&#xad;" horiz-adv-x="337" d="M294 210h-252v122h252v-122z" />
<glyph unicode="&#xae;" horiz-adv-x="565" d="M525 532q0 -100 -71 -169.5t-172 -69.5q-102 0 -172.5 69t-70.5 170q0 100 71 169t172 69q102 0 172.5 -69t70.5 -169zM436 531q0 64 -45 109.5t-109 45.5t-109 -45t-45 -109t45 -109.5t109 -45.5t109 45t45 109zM380 423h-80l-28 78h-9v-78h-67v219h101q80 0 80 -63 q0 -45 -38 -62q7 -7 13 -24zM301 570q0 21 -25 21h-13v-44h10q28 0 28 23z" />
<glyph unicode="&#xaf;" horiz-adv-x="395" d="M338 588h-281v110h281v-110z" />
<glyph unicode="&#xb0;" horiz-adv-x="396" d="M354 593q0 -70 -48.5 -110t-116.5 -40q-72 0 -113 39.5t-41 108.5q0 67 49 107.5t113 40.5q79 0 118 -41t39 -105zM243 594q0 20 -12.5 36t-34.5 16t-36 -15t-14 -39q0 -25 13 -39.5t36 -14.5q22 0 35 15.5t13 40.5z" />
<glyph unicode="&#xb1;" d="M513 353h-165v-174h-146v174h-165v126h165v174h146v-174h165v-126zM508 0h-466v127h466v-127z" />
<glyph unicode="&#xb2;" horiz-adv-x="326" d="M284 352h-244v83l47 38q57 45 57 69q0 26 -30 26q-27 0 -55 -15l-17 88q56 20 108 20q67 0 97.5 -27t30.5 -69q0 -46 -68 -103l-23 -19h97v-91z" />
<glyph unicode="&#xb3;" horiz-adv-x="315" d="M278 442q0 -48 -40.5 -74.5t-119.5 -26.5q-38 0 -80 9l10 73q26 -8 51 -8q47 0 47 28t-48 28q-17 0 -41 -4v66h9q74 0 74 32q0 22 -33 22q-32 0 -54 -13l-13 71q44 16 102 16q65 0 94.5 -23.5t29.5 -58.5q0 -52 -45 -73q25 -3 41 -22t16 -42z" />
<glyph unicode="&#xb4;" horiz-adv-x="396" d="M338 658l-201 -105l-54 83l189 124z" />
<glyph unicode="&#xb5;" horiz-adv-x="638" d="M631 59q-51 -70 -143 -70t-101 85h-1q-37 -81 -127 -81q-33 0 -53 14l22 -244h-160v734h152v-314q0 -65 48 -65q42 0 69.5 38t27.5 97v244h152v-324q0 -43 5.5 -56.5t19.5 -13.5q19 0 38 26z" />
<glyph unicode="&#xb6;" horiz-adv-x="607" d="M563 552h-62v-648h-194v123h67v648h189v-123zM295 219q-124 0 -186 64.5t-62 163.5q0 105 69 166.5t179 61.5v-456z" />
<glyph unicode="&#xb7;" horiz-adv-x="292" d="M241 298q0 -39 -28 -67t-67 -28t-67 28t-28 67t28 67t67 28t67 -28t28 -67z" />
<glyph unicode="&#xb8;" horiz-adv-x="400" d="M254 -39q33 -47 33 -90q0 -55 -52 -105h-112q39 45 39 81q0 33 -32 78z" />
<glyph unicode="&#xb9;" horiz-adv-x="323" d="M242 352h-122v205l-63 -25l-20 85l91 33h114v-298z" />
<glyph unicode="&#xba;" horiz-adv-x="430" d="M396 499q0 -88 -54.5 -141.5t-137.5 -53.5q-77 0 -124.5 45.5t-47.5 142.5q0 89 54.5 142t135.5 53q174 0 174 -188zM382 152h-336v118h336v-118zM276 497q0 86 -62 86q-26 0 -44 -21.5t-18 -65.5q0 -88 60 -88q64 0 64 89z" />
<glyph unicode="&#xbb;" d="M517 294l-107 -206l-120 51l81 155l-82 151l124 52zM283 294l-118 -200l-116 53l88 147l-90 144l121 53z" />
<glyph unicode="&#xbc;" horiz-adv-x="736" d="M546 125v106l-59 -106h59zM692 44h-41v-44h-106v44h-139l-8 76l96 178h157v-172h41v-82zM652 603l-504 -627l-94 69l503 627zM242 352h-122v205l-63 -25l-20 85l91 33h114v-298z" />
<glyph unicode="&#xbd;" horiz-adv-x="738" d="M689 0h-245v83l48 38q56 44 56 69t-30 25q-28 0 -54 -14l-17 88q55 20 108 20q66 0 96.5 -27t30.5 -69q0 -47 -67 -103l-24 -19h98v-91zM651 603l-503 -627l-95 69l504 627zM241 352h-122v205l-63 -25l-20 85l91 33h114v-298z" />
<glyph unicode="&#xbe;" horiz-adv-x="743" d="M553 125v106l-58 -106h58zM699 44h-41v-44h-106v44h-139l-8 76l96 178h157v-172h41v-82zM659 603l-503 -627l-95 69l504 627zM284 442q0 -48 -40.5 -74.5t-119.5 -26.5q-46 0 -80 9l11 72q21 -7 50 -7q47 0 47 28t-48 28q-17 0 -41 -4v66h9q74 0 74 32q0 22 -32 22 q-33 0 -55 -13l-12 71q44 16 101 16q65 0 94.5 -23t29.5 -59q0 -52 -45 -73q26 -3 41.5 -22t15.5 -42z" />
<glyph unicode="&#xbf;" horiz-adv-x="455" d="M351 423q0 -37 -26 -62t-64 -25t-64 25t-26 62q0 36 26 61t64 25t64 -25t26 -61zM398 -86l-18 -138q-170 3 -256 63.5t-86 147.5q0 46 20 83t45.5 57.5t50.5 46.5t36 51q5 12 5 29q0 18 -6 42h149q14 -36 14 -67q0 -23 -8 -43q-18 -48 -48.5 -72t-60.5 -53.5t-30 -57.5 q0 -84 193 -89z" />
<glyph unicode="&#xc0;" horiz-adv-x="633" d="M638 0h-171l-42 125h-233l-41 -125h-155l228 675h177zM386 248l-52 154q-14 41 -26 94h-2q-15 -63 -25 -94l-52 -154h157zM380 792l-24 -82l-232 51l32 106z" />
<glyph unicode="&#xc1;" horiz-adv-x="633" d="M638 0h-171l-42 125h-233l-41 -125h-155l228 675h177zM386 248l-52 154q-14 41 -26 94h-2q-15 -63 -25 -94l-52 -154h157zM473 761l-233 -51l-23 82l224 75z" />
<glyph unicode="&#xc2;" horiz-adv-x="633" d="M638 0h-171l-42 125h-233l-41 -125h-155l228 675h177zM386 248l-52 154q-14 41 -26 94h-2q-15 -63 -25 -94l-52 -154h157zM481 782l-34 -72l-137 57l-138 -57l-32 71l170 88z" />
<glyph unicode="&#xc3;" horiz-adv-x="633" d="M638 0h-171l-42 125h-233l-41 -125h-155l228 675h177zM386 248l-52 154q-14 41 -26 94h-2q-15 -63 -25 -94l-52 -154h157zM498 811q-51 -88 -134 -88q-39 0 -75 22t-50 22q-32 0 -55 -41l-74 50q49 88 134 88q38 0 74 -22t51 -22q31 0 54 41z" />
<glyph unicode="&#xc4;" horiz-adv-x="633" d="M638 0h-171l-42 125h-233l-41 -125h-155l228 675h177zM386 248l-52 154q-14 41 -26 94h-2q-15 -63 -25 -94l-52 -154h157zM485 790q0 -28 -20.5 -48.5t-48.5 -20.5t-48.5 20.5t-20.5 48.5t20.5 48.5t48.5 20.5t48.5 -20.5t20.5 -48.5zM268 790q0 -28 -20 -48.5t-49 -20.5 t-49 20.5t-20 48.5t20 48.5t49 20.5t49 -20.5t20 -48.5z" />
<glyph unicode="&#xc5;" horiz-adv-x="633" d="M638 0h-171l-42 125h-233l-41 -125h-155l215 635q-34 34 -34 82q0 56 40 93t96 37q58 0 97.5 -37t39.5 -93q0 -48 -35 -83zM364 717q0 21 -15 36t-36 15q-20 0 -35 -15t-15 -36q0 -20 15 -35t35 -15q21 0 36 15t15 35zM386 248l-47 136q-23 64 -31 110h-2 q-12 -60 -32 -118l-44 -128h156z" />
<glyph unicode="&#xc6;" horiz-adv-x="788" d="M741 0h-376v140h-180l-62 -140h-158l318 675h452v-131h-221v-134h213v-127h-213v-149h227v-134zM365 261v283h-2q-35 -91 -60 -143l-67 -140h129z" />
<glyph unicode="&#xc7;" horiz-adv-x="555" d="M517 20q-77 -29 -168 -29q-89 0 -153.5 28t-98.5 76.5t-49 102t-15 115.5q0 168 89 267.5t253 99.5q78 0 138 -19l-20 -142q-57 21 -121 21q-80 0 -124 -54t-44 -147q0 -206 176 -206q65 0 115 25zM365 -39q33 -47 33 -90q0 -55 -52 -105h-112q39 45 39 81q0 33 -32 78z " />
<glyph unicode="&#xc8;" horiz-adv-x="487" d="M440 0h-380v675h380v-131h-224v-134h212v-127h-212v-149h224v-134zM335 792l-24 -82l-232 51l32 106z" />
<glyph unicode="&#xc9;" horiz-adv-x="487" d="M440 0h-380v675h380v-131h-224v-134h212v-127h-212v-149h224v-134zM430 761l-233 -51l-23 82l224 75z" />
<glyph unicode="&#xca;" horiz-adv-x="487" d="M440 0h-380v675h380v-131h-224v-134h212v-127h-212v-149h224v-134zM418 782l-34 -72l-137 57l-138 -57l-32 71l170 88z" />
<glyph unicode="&#xcb;" horiz-adv-x="487" d="M440 0h-380v675h380v-131h-224v-134h212v-127h-212v-149h224v-134zM424 790q0 -28 -20 -48.5t-49 -20.5t-49 20.5t-20 48.5t20 48.5t49 20.5t49 -20.5t20 -48.5zM207 790q0 -28 -20.5 -48.5t-48.5 -20.5t-48.5 20.5t-20.5 48.5t20.5 48.5t48.5 20.5t48.5 -20.5 t20.5 -48.5z" />
<glyph unicode="&#xcc;" horiz-adv-x="276" d="M216 0h-156v675h156v-675zM239 792l-24 -82l-232 51l32 106z" />
<glyph unicode="&#xcd;" horiz-adv-x="276" d="M216 0h-156v675h156v-675zM289 761l-233 -51l-23 82l224 75z" />
<glyph unicode="&#xce;" horiz-adv-x="276" d="M216 0h-156v675h156v-675zM308 782l-34 -72l-137 57l-138 -57l-32 71l170 88z" />
<glyph unicode="&#xcf;" horiz-adv-x="276" d="M216 0h-156v675h156v-675zM313 790q0 -28 -20.5 -48.5t-48.5 -20.5t-48.5 20.5t-20.5 48.5t20.5 48.5t48.5 20.5t48.5 -20.5t20.5 -48.5zM96 790q0 -28 -20 -48.5t-49 -20.5t-49 20.5t-20 48.5t20 48.5t49 20.5t49 -20.5t20 -48.5z" />
<glyph unicode="&#xd0;" horiz-adv-x="666" d="M634 351q0 -170 -99.5 -263t-268.5 -93q-73 0 -197 6v281h-66v117h66v274q104 6 228 6q337 0 337 -328zM468 339q0 102 -40.5 155.5t-140.5 53.5q-47 0 -65 -2v-147h107v-117h-107v-149q16 -4 59 -4q84 0 135.5 53t51.5 157z" />
<glyph unicode="&#xd1;" horiz-adv-x="693" d="M633 0h-199l-159 291q-39 73 -70 148q5 -83 5 -182v-257h-150v675h200l148 -267q35 -64 82 -166q-7 81 -7 211v222h150v-675zM531 811q-51 -88 -134 -88q-39 0 -75 22t-50 22q-32 0 -55 -41l-74 50q49 88 134 88q39 0 75 -22t50 -22q31 0 54 41z" />
<glyph unicode="&#xd2;" horiz-adv-x="702" d="M674 348q0 -163 -95.5 -262t-239.5 -99q-154 0 -232.5 90t-78.5 252q0 161 96.5 260t238.5 99q141 0 226 -85t85 -255zM509 338q0 102 -40.5 155t-117.5 53q-66 0 -112 -52t-46 -152q0 -101 38.5 -156.5t116.5 -55.5q64 0 112.5 51.5t48.5 156.5zM450 792l-24 -82 l-232 51l32 106z" />
<glyph unicode="&#xd3;" horiz-adv-x="702" d="M674 348q0 -163 -95.5 -262t-239.5 -99q-154 0 -232.5 90t-78.5 252q0 161 96.5 260t238.5 99q141 0 226 -85t85 -255zM509 338q0 102 -40.5 155t-117.5 53q-66 0 -112 -52t-46 -152q0 -101 38.5 -156.5t116.5 -55.5q64 0 112.5 51.5t48.5 156.5zM523 761l-233 -51 l-23 82l224 75z" />
<glyph unicode="&#xd4;" horiz-adv-x="702" d="M674 348q0 -163 -95.5 -262t-239.5 -99q-154 0 -232.5 90t-78.5 252q0 161 96.5 260t238.5 99q141 0 226 -85t85 -255zM509 338q0 102 -40.5 155t-117.5 53q-66 0 -112 -52t-46 -152q0 -101 38.5 -156.5t116.5 -55.5q64 0 112.5 51.5t48.5 156.5zM536 782l-34 -72 l-137 57l-138 -57l-32 71l170 88z" />
<glyph unicode="&#xd5;" horiz-adv-x="702" d="M674 348q0 -163 -95.5 -262t-239.5 -99q-154 0 -232.5 90t-78.5 252q0 161 96.5 260t238.5 99q141 0 226 -85t85 -255zM509 338q0 102 -40.5 155t-117.5 53q-66 0 -112 -52t-46 -152q0 -101 38.5 -156.5t116.5 -55.5q64 0 112.5 51.5t48.5 156.5zM540 811 q-51 -88 -134 -88q-39 0 -75 22t-50 22q-32 0 -55 -41l-74 50q49 88 134 88q38 0 74 -22t51 -22q31 0 54 41z" />
<glyph unicode="&#xd6;" horiz-adv-x="702" d="M674 348q0 -163 -95.5 -262t-239.5 -99q-154 0 -232.5 90t-78.5 252q0 161 96.5 260t238.5 99q141 0 226 -85t85 -255zM509 338q0 102 -40.5 155t-117.5 53q-66 0 -112 -52t-46 -152q0 -101 38.5 -156.5t116.5 -55.5q64 0 112.5 51.5t48.5 156.5zM536 790 q0 -28 -20 -48.5t-49 -20.5t-49 20.5t-20 48.5t20 48.5t49 20.5t49 -20.5t20 -48.5zM319 790q0 -28 -20.5 -48.5t-48.5 -20.5t-48.5 20.5t-20.5 48.5t20.5 48.5t48.5 20.5t48.5 -20.5t20.5 -48.5z" />
<glyph unicode="&#xd7;" d="M509 157l-94 -94l-146 146l-144 -146l-84 84l145 145l-145 145l94 94l145 -145l145 145l84 -84l-146 -144z" />
<glyph unicode="&#xd8;" horiz-adv-x="702" d="M674 347q0 -163 -95 -261.5t-241 -98.5q-28 0 -49 4l-33 -97l-112 35l32 93q-148 78 -148 307q0 161 96 260t239 99q19 0 40 -3l31 92l113 -34l-30 -87q157 -77 157 -309zM516 338q0 117 -51 165l-131 -376q10 -2 21 -2q8 0 16 1q61 8 103 61t42 151zM358 549 q-29 0 -49 -6q-55 -13 -89 -65t-34 -136q0 -112 44 -159z" />
<glyph unicode="&#xd9;" horiz-adv-x="673" d="M613 265q0 -140 -74.5 -209t-211.5 -69q-78 0 -132 19.5t-82.5 56t-40.5 78.5t-12 97v437h156v-428q0 -64 26.5 -96.5t94.5 -32.5q66 0 94 31.5t28 106.5v419h154v-410zM415 792l-24 -82l-232 51l32 106z" />
<glyph unicode="&#xda;" horiz-adv-x="673" d="M613 265q0 -140 -74.5 -209t-211.5 -69q-78 0 -132 19.5t-82.5 56t-40.5 78.5t-12 97v437h156v-428q0 -64 26.5 -96.5t94.5 -32.5q66 0 94 31.5t28 106.5v419h154v-410zM516 761l-233 -51l-23 82l224 75z" />
<glyph unicode="&#xdb;" horiz-adv-x="673" d="M613 265q0 -140 -74.5 -209t-211.5 -69q-78 0 -132 19.5t-82.5 56t-40.5 78.5t-12 97v437h156v-428q0 -64 26.5 -96.5t94.5 -32.5q66 0 94 31.5t28 106.5v419h154v-410zM509 782l-34 -72l-137 57l-138 -57l-32 71l170 88z" />
<glyph unicode="&#xdc;" horiz-adv-x="673" d="M613 265q0 -140 -74.5 -209t-211.5 -69q-78 0 -132 19.5t-82.5 56t-40.5 78.5t-12 97v437h156v-428q0 -64 26.5 -96.5t94.5 -32.5q66 0 94 31.5t28 106.5v419h154v-410zM508 790q0 -28 -20 -48.5t-49 -20.5t-49 20.5t-20 48.5t20 48.5t49 20.5t49 -20.5t20 -48.5z M291 790q0 -28 -20.5 -48.5t-48.5 -20.5t-48.5 20.5t-20.5 48.5t20.5 48.5t48.5 20.5t48.5 -20.5t20.5 -48.5z" />
<glyph unicode="&#xdd;" horiz-adv-x="578" d="M579 675l-214 -439v-236h-156v235l-211 440h170l77 -172q27 -60 43 -108h2q13 39 52 122l73 158h164zM459 761l-233 -51l-23 82l224 75z" />
<glyph unicode="&#xde;" horiz-adv-x="553" d="M540 364q0 -107 -76.5 -177t-204.5 -70q-30 0 -43 1v-118h-156v675h156v-89q36 2 66 2q122 0 190 -57t68 -167zM379 355q0 48 -28.5 77t-89.5 29q-13 0 -45 -2v-212q20 -4 50 -4q50 0 81.5 28.5t31.5 83.5z" />
<glyph unicode="&#xdf;" horiz-adv-x="617" d="M592 162q0 -79 -59.5 -127t-152.5 -48q-68 0 -111 17l7 123q44 -23 92 -23q65 0 65 44q0 20 -17 36t-41.5 30t-48.5 31t-41 48.5t-17 73.5q0 39 15.5 69.5t34 47t34 39.5t15.5 49q0 48 -63 48q-44 0 -68.5 -31t-24.5 -92v-497h-152v490q0 127 70 187.5t180 60.5 q98 0 158 -41.5t60 -115.5q0 -42 -16.5 -72.5t-35.5 -44.5t-35.5 -34t-16.5 -43q0 -20 17.5 -36.5t42 -31.5t49.5 -33t42.5 -50t17.5 -74z" />
<glyph unicode="&#xe0;" horiz-adv-x="526" d="M469 0h-143q0 50 4 75h-1q-18 -39 -59 -62.5t-93 -23.5q-69 0 -107 41.5t-38 105.5q0 90 75.5 133t204.5 43v20q0 32 -20.5 46.5t-68.5 14.5q-68 0 -137 -33l-26 119q90 31 189 31q120 0 168 -43t48 -130v-219q0 -66 4 -118zM312 200v16q-136 0 -136 -64 q0 -20 13.5 -33.5t36.5 -13.5q37 0 61.5 28.5t24.5 66.5zM368 636l-53 -83l-201 105l66 102z" />
<glyph unicode="&#xe1;" horiz-adv-x="526" d="M469 0h-143q0 50 4 75h-1q-18 -39 -59 -62.5t-93 -23.5q-69 0 -107 41.5t-38 105.5q0 90 75.5 133t204.5 43v20q0 32 -20.5 46.5t-68.5 14.5q-68 0 -137 -33l-26 119q90 31 189 31q120 0 168 -43t48 -130v-219q0 -66 4 -118zM312 200v16q-136 0 -136 -64 q0 -20 13.5 -33.5t36.5 -13.5q37 0 61.5 28.5t24.5 66.5zM419 658l-201 -105l-54 83l189 124z" />
<glyph unicode="&#xe2;" horiz-adv-x="526" d="M469 0h-143q0 50 4 75h-1q-18 -39 -59 -62.5t-93 -23.5q-69 0 -107 41.5t-38 105.5q0 90 75.5 133t204.5 43v20q0 32 -20.5 46.5t-68.5 14.5q-68 0 -137 -33l-26 119q90 31 189 31q120 0 168 -43t48 -130v-219q0 -66 4 -118zM312 200v16q-136 0 -136 -64 q0 -20 13.5 -33.5t36.5 -13.5q37 0 61.5 28.5t24.5 66.5zM428 622l-57 -69l-106 79l-106 -79l-57 69l163 138z" />
<glyph unicode="&#xe3;" horiz-adv-x="526" d="M469 0h-143q0 50 4 75h-1q-18 -39 -59 -62.5t-93 -23.5q-69 0 -107 41.5t-38 105.5q0 90 75.5 133t204.5 43v20q0 32 -20.5 46.5t-68.5 14.5q-68 0 -137 -33l-26 119q90 31 189 31q120 0 168 -43t48 -130v-219q0 -66 4 -118zM312 200v16q-136 0 -136 -64 q0 -20 13.5 -33.5t36.5 -13.5q37 0 61.5 28.5t24.5 66.5zM444 667q-46 -97 -129 -97q-37 0 -71.5 24t-48.5 24q-29 0 -53 -44l-71 54q48 97 129 97q37 0 72 -24t49 -24q29 0 52 44z" />
<glyph unicode="&#xe4;" horiz-adv-x="526" d="M469 0h-143q0 50 4 75h-1q-18 -39 -59 -62.5t-93 -23.5q-69 0 -107 41.5t-38 105.5q0 90 75.5 133t204.5 43v20q0 32 -20.5 46.5t-68.5 14.5q-68 0 -137 -33l-26 119q90 31 189 31q120 0 168 -43t48 -130v-219q0 -66 4 -118zM312 200v16q-136 0 -136 -64 q0 -20 13.5 -33.5t36.5 -13.5q37 0 61.5 28.5t24.5 66.5zM447 645q0 -33 -23 -56t-56 -23q-32 0 -55.5 23t-23.5 56q0 32 23.5 55.5t55.5 23.5q33 0 56 -23.5t23 -55.5zM238 645q0 -33 -23 -56t-56 -23q-32 0 -55.5 23t-23.5 56q0 32 23.5 55.5t55.5 23.5q33 0 56 -23.5 t23 -55.5z" />
<glyph unicode="&#xe5;" horiz-adv-x="526" d="M469 0h-143q0 50 4 75h-1q-18 -39 -59 -62.5t-93 -23.5q-69 0 -107 41.5t-38 105.5q0 90 75.5 133t204.5 43v20q0 32 -20.5 46.5t-68.5 14.5q-68 0 -137 -33l-26 119q90 31 189 31q120 0 168 -43t48 -130v-219q0 -66 4 -118zM312 200v16q-136 0 -136 -64 q0 -20 13.5 -33.5t36.5 -13.5q37 0 61.5 28.5t24.5 66.5zM397 670q0 -55 -39.5 -92t-96.5 -37t-96.5 36.5t-39.5 92.5t39.5 93t96.5 37t96.5 -37t39.5 -93zM311 670q0 21 -14.5 36t-35.5 15t-35.5 -15t-14.5 -36q0 -20 14.5 -35t35.5 -15t35.5 15t14.5 35z" />
<glyph unicode="&#xe6;" horiz-adv-x="796" d="M762 278q0 -37 -5 -68h-295q0 -103 123 -103q74 0 145 31l15 -115q-84 -34 -186 -34q-75 0 -127 25t-73 69h-1q-54 -94 -179 -94q-70 0 -108.5 41.5t-38.5 105.5q0 90 75.5 133t204.5 43v20q0 32 -20.5 46.5t-68.5 14.5q-68 0 -137 -33l-26 119q90 31 189 31 q110 0 158 -53h1q50 52 139 52q107 0 161 -64t54 -167zM613 311q1 42 -17.5 64.5t-52.5 22.5q-33 0 -55 -24t-26 -63h151zM312 200v16q-136 0 -136 -64q0 -20 13.5 -33.5t36.5 -13.5q37 0 61.5 28.5t24.5 66.5z" />
<glyph unicode="&#xe7;" horiz-adv-x="418" d="M391 11q-58 -22 -133 -22q-113 0 -170.5 62t-57.5 182t66 197.5t194 77.5q51 0 101 -16l-23 -132q-39 17 -79 17q-50 0 -75 -35t-25 -97q0 -123 100 -123q49 0 84 17zM279 -39q33 -47 33 -90q0 -55 -52 -105h-112q39 45 39 81q0 33 -32 78z" />
<glyph unicode="&#xe8;" horiz-adv-x="519" d="M485 278q0 -26 -5 -68h-296q2 -103 123 -103q75 0 146 31l15 -115q-84 -34 -186 -34q-252 0 -252 254q0 118 63 192t176 74q108 0 162 -64t54 -167zM335 311q1 42 -17.5 64.5t-52.5 22.5q-33 0 -55 -24t-26 -63h151zM377 636l-53 -83l-201 105l66 102z" />
<glyph unicode="&#xe9;" horiz-adv-x="519" d="M485 278q0 -26 -5 -68h-296q2 -103 123 -103q75 0 146 31l15 -115q-84 -34 -186 -34q-252 0 -252 254q0 118 63 192t176 74q108 0 162 -64t54 -167zM335 311q1 42 -17.5 64.5t-52.5 22.5q-33 0 -55 -24t-26 -63h151zM427 658l-201 -105l-54 83l189 124z" />
<glyph unicode="&#xea;" horiz-adv-x="519" d="M485 278q0 -26 -5 -68h-296q2 -103 123 -103q75 0 146 31l15 -115q-84 -34 -186 -34q-252 0 -252 254q0 118 63 192t176 74q108 0 162 -64t54 -167zM335 311q1 42 -17.5 64.5t-52.5 22.5q-33 0 -55 -24t-26 -63h151zM428 622l-57 -69l-106 79l-106 -79l-57 69l163 138z " />
<glyph unicode="&#xeb;" horiz-adv-x="519" d="M485 278q0 -26 -5 -68h-296q2 -103 123 -103q75 0 146 31l15 -115q-84 -34 -186 -34q-252 0 -252 254q0 118 63 192t176 74q108 0 162 -64t54 -167zM335 311q1 42 -17.5 64.5t-52.5 22.5q-33 0 -55 -24t-26 -63h151zM453 645q0 -33 -23 -56t-56 -23q-32 0 -55.5 23 t-23.5 56q0 32 23.5 55.5t55.5 23.5q33 0 56 -23.5t23 -55.5zM244 645q0 -33 -23 -56t-56 -23q-32 0 -55.5 23t-23.5 56q0 32 23.5 55.5t55.5 23.5q33 0 56 -23.5t23 -55.5z" />
<glyph unicode="&#xec;" horiz-adv-x="271" d="M211 0h-152v497h152v-497zM263 636l-53 -83l-201 105l66 102z" />
<glyph unicode="&#xed;" horiz-adv-x="271" d="M211 0h-152v497h152v-497zM254 658l-201 -105l-54 83l189 124z" />
<glyph unicode="&#xee;" horiz-adv-x="271" d="M211 0h-152v497h152v-497zM299 622l-57 -69l-106 79l-106 -79l-57 69l163 138z" />
<glyph unicode="&#xef;" horiz-adv-x="271" d="M211 0h-152v497h152v-497zM320 645q0 -33 -23 -56t-56 -23q-32 0 -55.5 23t-23.5 56q0 32 23.5 55.5t55.5 23.5q33 0 56 -23.5t23 -55.5zM111 645q0 -33 -23 -56t-56 -23q-32 0 -55.5 23t-23.5 56q0 32 23.5 55.5t55.5 23.5q33 0 56 -23.5t23 -55.5z" />
<glyph unicode="&#xf0;" horiz-adv-x="560" d="M527 282q0 -142 -72 -217.5t-183 -75.5t-177 62.5t-66 185.5q0 121 70 194.5t174 73.5q44 0 62 -21q-4 8 -12 20t-9 14q-16 27 -46 58l-86 -38l-60 69l76 33q-30 25 -72 52l148 62q40 -31 64 -55l82 35l60 -68l-80 -34q127 -156 127 -350zM369 260q0 56 -23 87t-68 31 q-39 0 -65 -32.5t-26 -95.5t25 -96t69 -33q88 0 88 139z" />
<glyph unicode="&#xf1;" horiz-adv-x="568" d="M508 0h-152v316q0 64 -46 64q-40 0 -69.5 -42t-29.5 -97v-241h-152v497h142q0 -49 -6 -78l1 -1q54 90 165 90q78 0 112.5 -43.5t34.5 -114.5v-350zM472 667q-46 -97 -129 -97q-37 0 -71.5 24t-48.5 24q-29 0 -53 -44l-71 54q48 97 129 97q37 0 72 -24t49 -24q29 0 52 44z " />
<glyph unicode="&#xf2;" horiz-adv-x="558" d="M529 259q0 -120 -74 -195t-188 -75q-113 0 -176 60t-63 188q0 121 74 196t189 75t176.5 -63.5t61.5 -185.5zM371 250q0 128 -90 128q-40 0 -67.5 -31.5t-27.5 -92.5q0 -133 92 -133q42 0 67.5 34t25.5 95zM390 636l-53 -83l-201 105l66 102z" />
<glyph unicode="&#xf3;" horiz-adv-x="558" d="M529 259q0 -120 -74 -195t-188 -75q-113 0 -176 60t-63 188q0 121 74 196t189 75t176.5 -63.5t61.5 -185.5zM371 250q0 128 -90 128q-40 0 -67.5 -31.5t-27.5 -92.5q0 -133 92 -133q42 0 67.5 34t25.5 95zM440 658l-201 -105l-54 83l189 124z" />
<glyph unicode="&#xf4;" horiz-adv-x="558" d="M529 259q0 -120 -74 -195t-188 -75q-113 0 -176 60t-63 188q0 121 74 196t189 75t176.5 -63.5t61.5 -185.5zM371 250q0 128 -90 128q-40 0 -67.5 -31.5t-27.5 -92.5q0 -133 92 -133q42 0 67.5 34t25.5 95zM447 622l-57 -69l-106 79l-106 -79l-57 69l163 138z" />
<glyph unicode="&#xf5;" horiz-adv-x="558" d="M529 259q0 -120 -74 -195t-188 -75q-113 0 -176 60t-63 188q0 121 74 196t189 75t176.5 -63.5t61.5 -185.5zM371 250q0 128 -90 128q-40 0 -67.5 -31.5t-27.5 -92.5q0 -133 92 -133q42 0 67.5 34t25.5 95zM469 667q-46 -97 -129 -97q-37 0 -71.5 24t-48.5 24 q-29 0 -53 -44l-71 54q48 97 129 97q37 0 72 -24t49 -24q29 0 52 44z" />
<glyph unicode="&#xf6;" horiz-adv-x="558" d="M529 259q0 -120 -74 -195t-188 -75q-113 0 -176 60t-63 188q0 121 74 196t189 75t176.5 -63.5t61.5 -185.5zM371 250q0 128 -90 128q-40 0 -67.5 -31.5t-27.5 -92.5q0 -133 92 -133q42 0 67.5 34t25.5 95zM469 645q0 -33 -23 -56t-56 -23q-32 0 -55.5 23t-23.5 56 q0 32 23.5 55.5t55.5 23.5q33 0 56 -23.5t23 -55.5zM260 645q0 -33 -23 -56t-56 -23q-32 0 -55.5 23t-23.5 56q0 32 23.5 55.5t55.5 23.5q33 0 56 -23.5t23 -55.5z" />
<glyph unicode="&#xf7;" d="M364 498q0 -37 -26 -63.5t-63 -26.5t-63.5 26.5t-26.5 63.5t26.5 63.5t63.5 26.5t63 -26.5t26 -63.5zM513 234h-476v128h476v-128zM364 97q0 -37 -26 -63.5t-63 -26.5t-63.5 26.5t-26.5 63.5t26.5 63.5t63.5 26.5t63 -26.5t26 -63.5z" />
<glyph unicode="&#xf8;" horiz-adv-x="558" d="M529 259q0 -120 -74.5 -195t-187.5 -75q-19 0 -45 4l-40 -101l-84 26l38 98q-108 57 -108 221q0 123 74 197t189 74q23 0 36 -2l36 93l85 -25l-35 -90q116 -61 116 -225zM386 249q0 61 -27 100l-91 -234q12 -1 21 -1h8q39 6 64 39.5t25 95.5zM280 385h-6q-8 0 -19 -2 q-83 -19 -83 -129q0 -66 21 -95z" />
<glyph unicode="&#xf9;" horiz-adv-x="566" d="M508 0h-142q0 49 6 78l-2 1q-52 -90 -164 -90q-78 0 -113 43.5t-35 114.5v350h153v-316q0 -64 46 -64q40 0 69 42t29 97v241h153v-497zM374 636l-53 -83l-201 105l66 102z" />
<glyph unicode="&#xfa;" horiz-adv-x="566" d="M508 0h-142q0 49 6 78l-2 1q-52 -90 -164 -90q-78 0 -113 43.5t-35 114.5v350h153v-316q0 -64 46 -64q40 0 69 42t29 97v241h153v-497zM458 658l-201 -105l-54 83l189 124z" />
<glyph unicode="&#xfb;" horiz-adv-x="566" d="M508 0h-142q0 49 6 78l-2 1q-52 -90 -164 -90q-78 0 -113 43.5t-35 114.5v350h153v-316q0 -64 46 -64q40 0 69 42t29 97v241h153v-497zM443 622l-57 -69l-106 79l-106 -79l-57 69l163 138z" />
<glyph unicode="&#xfc;" horiz-adv-x="566" d="M508 0h-142q0 49 6 78l-2 1q-52 -90 -164 -90q-78 0 -113 43.5t-35 114.5v350h153v-316q0 -64 46 -64q40 0 69 42t29 97v241h153v-497zM459 645q0 -33 -23 -56t-56 -23q-32 0 -55.5 23t-23.5 56q0 32 23.5 55.5t55.5 23.5q33 0 56 -23.5t23 -55.5zM250 645q0 -33 -23 -56 t-56 -23q-32 0 -55.5 23t-23.5 56q0 32 23.5 55.5t55.5 23.5q33 0 56 -23.5t23 -55.5z" />
<glyph unicode="&#xfd;" horiz-adv-x="516" d="M517 497l-193 -516q-49 -129 -108.5 -177.5t-151.5 -48.5q-40 0 -77 7l17 130q33 -10 66 -10q75 0 101 81l12 37l-180 497h168l50 -145q19 -53 40 -145h1q18 75 47 160l45 130h163zM449 658l-201 -105l-54 83l189 124z" />
<glyph unicode="&#xfe;" horiz-adv-x="559" d="M528 276q0 -132 -67.5 -208t-198.5 -76q-30 0 -51 4v-233h-152v967h152v-194q0 -65 -4 -96l2 -1q41 69 138 69q87 0 134 -61.5t47 -170.5zM367 260q0 122 -68 122q-39 0 -63.5 -40t-24.5 -103v-122q24 -6 53 -6q103 0 103 149z" />
<glyph unicode="&#xff;" horiz-adv-x="516" d="M517 497l-193 -516q-49 -129 -108.5 -177.5t-151.5 -48.5q-40 0 -77 7l17 130q33 -10 66 -10q75 0 101 81l12 37l-180 497h168l50 -145q19 -53 40 -145h1q18 75 47 160l45 130h163zM445 645q0 -33 -23 -56t-56 -23q-32 0 -55.5 23t-23.5 56q0 32 23.5 55.5t55.5 23.5 q33 0 56 -23.5t23 -55.5zM236 645q0 -33 -23 -56t-56 -23q-32 0 -55.5 23t-23.5 56q0 32 23.5 55.5t55.5 23.5q33 0 56 -23.5t23 -55.5z" />
<glyph unicode="&#x131;" horiz-adv-x="271" d="M211 0h-152v497h152v-497z" />
<glyph unicode="&#x152;" horiz-adv-x="858" d="M811 0h-364q-61 -13 -108 -13q-154 0 -232.5 90t-78.5 252q0 161 95.5 260t233.5 99q54 0 108 -13h346v-131h-224v-134h212v-127h-212v-149h224v-134zM431 147v386q-37 13 -80 13q-66 0 -112 -52t-46 -152q0 -101 38.5 -156.5t116.5 -55.5q40 0 83 17z" />
<glyph unicode="&#x153;" horiz-adv-x="851" d="M817 278q0 -35 -4 -68h-296q0 -49 31 -76t92 -27q74 0 145 31l15 -115q-84 -34 -185 -34q-119 0 -181 68q-61 -68 -167 -68q-113 0 -176 60t-63 188q0 121 73.5 196t189.5 75q102 0 158 -60q59 61 153 61q107 0 161 -64t54 -167zM668 311q1 42 -17.5 64.5t-52.5 22.5 q-33 0 -55 -24t-26 -63h151zM371 250q0 128 -90 128q-40 0 -67.5 -31.5t-27.5 -92.5q0 -133 92 -133q42 0 67.5 34t25.5 95z" />
<glyph unicode="&#x178;" horiz-adv-x="578" d="M579 675l-214 -439v-236h-156v235l-211 440h170l77 -172q27 -60 43 -108h2q13 39 52 122l73 158h164zM461 790q0 -28 -20.5 -48.5t-48.5 -20.5t-48.5 20.5t-20.5 48.5t20.5 48.5t48.5 20.5t48.5 -20.5t20.5 -48.5zM244 790q0 -28 -20 -48.5t-49 -20.5t-49 20.5t-20 48.5 t20 48.5t49 20.5t49 -20.5t20 -48.5z" />
<glyph unicode="&#x2c6;" horiz-adv-x="422" d="M373 622l-57 -69l-106 79l-106 -79l-57 69l163 138z" />
<glyph unicode="&#x2da;" horiz-adv-x="354" d="M313 640q0 -55 -39.5 -92t-96.5 -37t-96.5 36.5t-39.5 92.5t39.5 93t96.5 37t96.5 -37t39.5 -93zM227 640q0 21 -14.5 36t-35.5 15t-35.5 -15t-14.5 -36q0 -20 14.5 -35t35.5 -15t35.5 15t14.5 35z" />
<glyph unicode="&#x2dc;" horiz-adv-x="448" d="M412 667q-46 -97 -129 -97q-37 0 -71.5 24t-48.5 24q-29 0 -53 -44l-71 54q48 97 129 97q37 0 72 -24t49 -24q29 0 52 44z" />
<glyph unicode="&#x3bc;" horiz-adv-x="638" d="M631 59q-51 -70 -143 -70t-101 85h-1q-37 -81 -127 -81q-33 0 -53 14l22 -244h-160v734h152v-314q0 -65 48 -65q42 0 69.5 38t27.5 97v244h152v-324q0 -43 5.5 -56.5t19.5 -13.5q19 0 38 26z" />
<glyph unicode="&#x2000;" horiz-adv-x="434" />
<glyph unicode="&#x2001;" horiz-adv-x="869" />
<glyph unicode="&#x2002;" horiz-adv-x="434" />
<glyph unicode="&#x2003;" horiz-adv-x="869" />
<glyph unicode="&#x2004;" horiz-adv-x="289" />
<glyph unicode="&#x2005;" horiz-adv-x="217" />
<glyph unicode="&#x2006;" horiz-adv-x="144" />
<glyph unicode="&#x2007;" horiz-adv-x="144" />
<glyph unicode="&#x2008;" horiz-adv-x="108" />
<glyph unicode="&#x2009;" horiz-adv-x="173" />
<glyph unicode="&#x200a;" horiz-adv-x="48" />
<glyph unicode="&#x2010;" horiz-adv-x="337" d="M294 210h-252v122h252v-122z" />
<glyph unicode="&#x2011;" horiz-adv-x="337" d="M294 210h-252v122h252v-122z" />
<glyph unicode="&#x2013;" d="M550 231h-550v134h550v-134z" />
<glyph unicode="&#x2014;" horiz-adv-x="1000" d="M894 231h-788v134h788v-134z" />
<glyph unicode="&#x2018;" horiz-adv-x="282" d="M248 704q-51 -55 -60 -92q-1 -8 -1 -16q0 -28 22 -52q20 -28 20 -60t-25 -56q-25 -26 -65 -26q-57 0 -82 54q-14 29 -14 62q0 49 31 107q36 70 112 134z" />
<glyph unicode="&#x2019;" horiz-adv-x="282" d="M142 750q57 0 83 -54q13 -28 13 -61q0 -49 -30 -107q-37 -71 -113 -136l-62 56q52 55 60 92q2 8 2 16q0 28 -22 52q-21 28 -21 60q0 31 26 56q25 26 64 26z" />
<glyph unicode="&#x201a;" horiz-adv-x="282" d="M142 172q57 0 83 -54q13 -28 13 -60q0 -50 -31 -109q-36 -70 -112 -134l-62 55q52 55 60 92q2 9 2 17q0 28 -22 51q-21 28 -21 60q0 31 26 56q25 26 64 26z" />
<glyph unicode="&#x201c;" horiz-adv-x="519" d="M486 704q-52 -55 -60 -92q-2 -8 -2 -16q0 -28 22 -52q21 -28 21 -60q0 -31 -25 -56q-26 -26 -65 -26q-57 0 -83 54q-13 28 -13 60q0 50 31 109q36 70 112 134zM248 704q-51 -55 -60 -92q-1 -8 -1 -16q0 -28 22 -52q20 -28 20 -60t-25 -56q-25 -26 -65 -26q-57 0 -82 54 q-14 29 -14 62q0 49 31 107q36 70 112 134z" />
<glyph unicode="&#x201d;" horiz-adv-x="519" d="M380 750q56 0 82 -54q13 -28 13 -61q0 -49 -30 -107q-37 -71 -113 -136l-62 56q52 55 60 92q2 8 2 16q0 28 -22 52q-20 28 -20 60t25 56q25 26 65 26zM142 750q57 0 83 -54q13 -28 13 -61q0 -49 -30 -107q-37 -71 -113 -136l-62 56q52 55 60 92q2 8 2 16q0 28 -22 52 q-21 28 -21 60q0 31 26 56q25 26 64 26z" />
<glyph unicode="&#x201e;" horiz-adv-x="519" d="M380 172q57 0 82 -54q13 -28 13 -60q0 -50 -31 -109q-36 -70 -112 -134l-62 55q52 56 60 93q2 8 2 16q0 28 -22 51q-20 28 -20 60q0 31 25 56q25 26 65 26zM142 172q57 0 83 -54q13 -28 13 -60q0 -50 -31 -109q-36 -70 -112 -134l-62 55q52 55 60 92q2 9 2 17 q0 28 -22 51q-21 28 -21 60q0 31 26 56q25 26 64 26z" />
<glyph unicode="&#x2022;" horiz-adv-x="424" d="M378 297q0 -68 -49 -117t-117 -49q-69 0 -117.5 49t-48.5 117t48.5 117t117.5 49q68 0 117 -49t49 -117z" />
<glyph unicode="&#x2026;" horiz-adv-x="762" d="M715 78q0 -37 -26.5 -63.5t-63.5 -26.5t-63.5 26t-26.5 64q0 37 26.5 63t63.5 26t63.5 -26t26.5 -63zM469 78q0 -38 -26.5 -64t-63.5 -26t-63.5 26.5t-26.5 63.5t26.5 63t63.5 26t63.5 -26t26.5 -63zM224 78q0 -37 -26.5 -63.5t-63.5 -26.5q-38 0 -64 26t-26 64 q0 37 26.5 63t63.5 26t63.5 -26t26.5 -63z" />
<glyph unicode="&#x202f;" horiz-adv-x="173" />
<glyph unicode="&#x2039;" horiz-adv-x="312" d="M264 145l-122 -54l-110 201l113 203l117 -53l-85 -150z" />
<glyph unicode="&#x203a;" horiz-adv-x="312" d="M280 294l-113 -203l-118 53l85 150l-87 147l123 54z" />
<glyph unicode="&#x205f;" horiz-adv-x="217" />
<glyph unicode="&#x20ac;" d="M525 19q-77 -32 -170 -32q-112 0 -179.5 50.5t-88.5 164.5h-76v92h67v23q0 26 1 40h-68v92h83q26 98 96.5 156t190.5 58q69 0 140 -26l-35 -120q-52 25 -113 25q-91 0 -122 -93h149v-92h-166q0 -4 -0.5 -14t-0.5 -15q0 -23 1 -34h166v-92h-151q13 -49 44 -71t83 -22 q58 0 115 26z" />
<glyph unicode="&#x2122;" horiz-adv-x="683" d="M658 394h-111l-15 104l-5 43l-7 -41l-25 -106h-95l-25 109l-7 38l-2 -36l-15 -111h-100l46 281h123l27 -102l7 -38l6 36l25 104h125zM249 583h-61v-189h-105v189h-64v92h230v-92z" />
</font>
</defs>
</svg>
