<?xml version="1.0" standalone="no"?>
<!DOCTYPE svg PUBLIC "-//W3C//DTD SVG 1.1//EN" "http://www.w3.org/Graphics/SVG/1.1/DTD/svg11.dtd" >
<svg xmlns="http://www.w3.org/2000/svg">
<metadata>
This is a custom SVG webfont generated by Font Squirrel.
</metadata>
<defs>
<font id="webfonthGCkA4mD" horiz-adv-x="550" >
<font-face units-per-em="1000" ascent="800" descent="-200" />
<missing-glyph horiz-adv-x="218" />
<glyph unicode=" "  horiz-adv-x="218" />
<glyph unicode="&#x09;" horiz-adv-x="218" />
<glyph unicode="&#xa0;" horiz-adv-x="218" />
<glyph unicode="!" horiz-adv-x="314" d="M307 703l-116 -535h-74l86 535h104zM191 52q0 -26 -17.5 -43.5t-43.5 -17.5q-25 0 -41.5 16.5t-16.5 40.5q0 26 18 43.5t44 17.5q25 0 41 -16.5t16 -40.5z" />
<glyph unicode="&#x22;" horiz-adv-x="358" d="M396 699l-58 -230h-65l30 230h93zM232 699l-58 -230h-64l29 230h93z" />
<glyph unicode="#" d="M564 474l-12 -62h-93l-50 -168h87l-12 -62h-93l-55 -182h-68l54 182h-146l-54 -182h-69l55 182h-88l12 62h94l50 168h-88l12 62h94l52 176h68l-51 -176h146l51 176h69l-52 -176h87zM390 412h-146l-49 -168h146z" />
<glyph unicode="$" d="M488 626l-17 -79q-54 17 -112 17q-65 0 -100.5 -27t-35.5 -67q0 -31 23.5 -53.5t57 -38.5t67 -34.5t57 -51.5t23.5 -79q0 -69 -56 -125t-145 -68l-20 -105h-67l19 101q-59 0 -117 15l18 84q55 -23 127 -23q65 0 104.5 30.5t39.5 70.5q0 29 -16.5 51t-41.5 35l-54 29 q-30 17 -55 33t-41.5 45.5t-16.5 67.5q0 68 53.5 119t138.5 61l18 96h68l-18 -92q47 -1 99 -12z" />
<glyph unicode="%" horiz-adv-x="735" d="M383 551q0 -92 -54 -148t-123 -56q-58 0 -88 28.5t-30 81.5q0 91 54 147t123 56q58 0 88 -28.5t30 -80.5zM713 625l-611 -646l-49 44l611 646zM681 194q0 -92 -54 -148t-123 -56q-58 0 -88 29t-30 81q0 92 54 147.5t123 55.5q118 0 118 -109zM311 542q0 57 -53 57 q-40 0 -68.5 -38.5t-28.5 -95.5q0 -58 52 -58q40 0 69 38.5t29 96.5zM609 186q0 57 -53 57q-40 0 -68.5 -38.5t-28.5 -95.5q0 -58 53 -58q40 0 68.5 38.5t28.5 96.5z" />
<glyph unicode="&#x26;" horiz-adv-x="779" d="M718 448q-25 -177 -144 -303q50 -49 118 -102l-62 -62q-60 47 -122 104q-122 -95 -276 -95q-95 0 -142.5 46t-47.5 117q0 79 48 137t134 118q-60 96 -60 153q0 72 55 123.5t140 51.5q73 0 109 -32t36 -86q0 -63 -42 -111t-124 -107q62 -87 177 -202q93 99 114 250h89z M414 606q0 28 -16.5 44.5t-47.5 16.5q-43 0 -70 -27.5t-27 -68.5q0 -40 45 -112q39 28 59 44.5t38.5 44.5t18.5 58zM449 139q-122 126 -182 210q-63 -45 -97 -85.5t-34 -91.5q0 -45 29 -75t87 -30q107 0 197 72z" />
<glyph unicode="'" horiz-adv-x="195" d="M232 699l-58 -230h-64l29 230h93z" />
<glyph unicode="(" horiz-adv-x="297" d="M375 749q-99 -124 -164 -292.5t-65 -321.5q0 -181 53 -312l-70 -32q-69 160 -69 338q0 165 67 335t187 318z" />
<glyph unicode=")" horiz-adv-x="297" d="M260 444q0 -165 -67 -335t-187 -318l-61 33q99 124 164 292.5t65 321.5q0 180 -53 312l70 32q69 -160 69 -338z" />
<glyph unicode="*" horiz-adv-x="366" d="M400 619l-110 -41l91 -51l-42 -54l-78 70l-12 -115l-67 9l33 106l-95 -61l-25 60l109 41l-91 51l41 54l78 -69l12 114l67 -9l-34 -106l98 62z" />
<glyph unicode="+" d="M526 335l-15 -75h-191l-38 -201h-85l38 201h-189l14 75h190l38 200h85l-38 -200h191z" />
<glyph unicode="," horiz-adv-x="224" d="M82 113q41 0 55 -40q5 -14 5 -30q0 -47 -46 -106q-36 -47 -97 -90l-33 38q76 65 76 114q0 16 -8 30q-8 13 -8 27t8 28q15 29 48 29z" />
<glyph unicode="-" horiz-adv-x="328" d="M298 324l-15 -74h-234l14 74h235z" />
<glyph unicode="." horiz-adv-x="226" d="M144 56q0 -28 -18.5 -46.5t-44.5 -18.5q-24 0 -41.5 18t-17.5 42q0 27 18.5 45.5t44.5 18.5q25 0 42 -17.5t17 -41.5z" />
<glyph unicode="/" horiz-adv-x="429" d="M525 757l-519 -918h-89l520 918h88z" />
<glyph unicode="0" d="M533 466q0 -72 -17 -150t-51 -153.5t-96.5 -124t-142.5 -48.5q-177 0 -177 194q0 72 17 150t51.5 153.5t97 124t142.5 48.5q176 0 176 -194zM438 459q0 63 -21.5 94t-72.5 31t-92 -45t-63 -111t-33 -127.5t-11 -108.5q0 -63 21.5 -94t73.5 -31q51 0 91.5 45t62.5 110.5 t33 127.5t11 109z" />
<glyph unicode="1" d="M465 81l-15 -81h-421l15 81h174l91 477l-171 -62l-1 84l209 70h74l-108 -569h153z" />
<glyph unicode="2" d="M507 504q0 -70 -43 -137.5t-167 -166.5l-144 -115v-1q82 2 206 2h96l-16 -86h-427l14 74l182 149q118 98 158 151.5t40 110.5q0 42 -27 68t-79 26q-82 0 -157 -51l-13 79q94 52 196 52q88 0 134.5 -43.5t46.5 -111.5z" />
<glyph unicode="3" d="M510 527q0 -62 -41.5 -109t-111.5 -66l-2 -1q54 -7 83.5 -41.5t29.5 -86.5q0 -39 -17.5 -78.5t-53 -75t-99 -57.5t-144.5 -22q-67 0 -119 16l20 81q52 -20 115 -20q97 0 147.5 43t50.5 101q0 43 -35 67.5t-103 24.5q-59 0 -103 -5l14 72h22q129 0 189 41t60 100 q0 34 -27 54t-76 20q-71 0 -150 -37l-2 78q89 34 172 34q89 0 135 -36t46 -97z" />
<glyph unicode="4" d="M499 650l-80 -418h108l-16 -82h-108l-28 -150h-89l28 150h-301l7 74l356 426h123zM394 557h-1l-276 -328q90 3 214 3z" />
<glyph unicode="5" d="M529 650l-17 -86h-267l-33 -170q36 2 54 2q102 0 154 -42t52 -110q0 -107 -87.5 -180t-222.5 -73q-74 0 -122 12l16 84q55 -19 117 -19q91 0 145.5 45t54.5 116q0 95 -151 95q-59 0 -109 -8l64 334h352z" />
<glyph unicode="6" d="M522 655l-14 -78q-32 5 -64 5q-185 0 -266 -205q-11 -27 -20 -52h1q28 40 74.5 62t97.5 22q84 0 128.5 -42t44.5 -112q0 -112 -77.5 -188.5t-193.5 -76.5q-89 0 -136 50.5t-47 144.5q0 47 11 103.5t40.5 123.5t73.5 121t118.5 90t167.5 36q37 0 61 -4zM410 237 q0 46 -27 72t-80 26q-70 0 -115.5 -48.5t-45.5 -111.5q0 -51 28 -81t82 -30q66 0 112 49.5t46 123.5z" />
<glyph unicode="7" d="M573 650l-15 -78q-205 -283 -356 -572h-108q179 320 357 564q-46 -2 -239 -2h-95l17 88h439z" />
<glyph unicode="8" d="M531 529q0 -63 -38 -106.5t-120 -85.5q52 -29 81 -61.5t29 -81.5q0 -91 -76 -147.5t-178 -56.5q-92 0 -142.5 36.5t-50.5 100.5q0 66 44 114t130 90q-94 53 -94 130q0 81 68.5 140t169.5 59q85 0 131 -35.5t46 -95.5zM437 515q0 34 -25.5 53.5t-69.5 19.5 q-60 0 -96.5 -34t-36.5 -79q0 -31 23.5 -53.5t68.5 -46.5q76 38 106 68.5t30 71.5zM388 182q0 38 -26.5 62t-78.5 49q-87 -41 -119.5 -77.5t-32.5 -75.5q0 -34 29 -55.5t82 -21.5q59 0 102.5 31.5t43.5 87.5z" />
<glyph unicode="9" d="M530 470q0 -30 -4.5 -65.5t-16.5 -83t-31 -92t-51.5 -88.5t-73.5 -76.5t-101 -53t-131 -20.5q-51 0 -86 7l15 81q40 -10 84 -10q190 0 262 196q15 38 17 42h-1q-67 -69 -164 -69q-80 0 -124.5 41.5t-44.5 115.5q0 105 73.5 185t191.5 80q88 0 137 -47t49 -143zM437 476 q0 49 -28 79.5t-79 30.5q-69 0 -113.5 -52.5t-44.5 -120.5q0 -47 26 -72.5t75 -25.5q67 0 115.5 46.5t48.5 114.5z" />
<glyph unicode=":" horiz-adv-x="285" d="M241 347q0 -27 -18.5 -45t-44.5 -18q-25 0 -43 17.5t-18 42.5q0 27 18.5 45.5t44.5 18.5t43.5 -18t17.5 -43zM185 55q0 -27 -18.5 -45.5t-44.5 -18.5q-25 0 -43 18t-18 42q0 27 18.5 45.5t44.5 18.5q25 0 43 -18t18 -42z" />
<glyph unicode=";" horiz-adv-x="285" d="M241 347q0 -27 -18.5 -45t-44.5 -18q-25 0 -43 17.5t-18 42.5q0 27 18.5 45.5t44.5 18.5t43.5 -18t17.5 -43zM124 113q41 0 55 -40q5 -14 5 -30q0 -47 -46 -106q-36 -47 -97 -90l-33 38q76 65 76 114q0 16 -8 30q-8 13 -8 27t8 28q15 29 48 29z" />
<glyph unicode="&#x3c;" d="M498 524l-299 -222l219 -225l-65 -58l-269 290l362 277z" />
<glyph unicode="=" d="M528 420l-13 -75h-439l14 75h438zM496 249l-14 -74h-439l15 74h438z" />
<glyph unicode="&#x3e;" d="M490 296l-362 -277l-52 62l298 222l-218 225l65 58z" />
<glyph unicode="?" horiz-adv-x="437" d="M425 529q0 -39 -17 -72.5t-42 -55.5l-54 -47q-28 -25 -51.5 -48t-36.5 -59q-8 -24 -8 -52q0 -13 2 -27h-88q-3 19 -3 36q0 37 12 68q17 46 47.5 75.5t62 54.5t54.5 54t23 61q0 44 -46.5 73.5t-122.5 37.5l27 82q114 -9 177.5 -60t63.5 -121zM212 52q0 -26 -17.5 -43.5 t-43.5 -17.5q-25 0 -41.5 16.5t-16.5 40.5q0 26 18 43.5t44 17.5q24 0 40.5 -16.5t16.5 -40.5z" />
<glyph unicode="@" horiz-adv-x="964" d="M895 443q0 -135 -70.5 -224.5t-179.5 -89.5q-59 0 -83 32q-16 22 -16 50q0 13 3 27h-3q-18 -37 -64 -73t-92 -36q-88 0 -88 107q0 37 8.5 76.5t27.5 79t47 70.5t71.5 50.5t95.5 19.5q70 0 122 -14l-59 -213q-8 -28 -8 -49q0 -53 54 -53q66 0 109.5 65.5t43.5 167.5 q0 96 -62 160.5t-191 64.5q-107 0 -196 -58t-139 -154t-50 -207q0 -118 70 -185.5t203 -67.5q84 0 171 26l5 -73q-90 -28 -192 -28q-163 0 -252 84.5t-89 233.5q0 134 64 249.5t175 183.5t241 68q159 0 241 -81.5t82 -208.5zM586 463q-22 6 -53 6q-60 0 -106.5 -65 t-46.5 -149q0 -52 34 -52q41 0 85 54t72 153z" />
<glyph unicode="A" horiz-adv-x="605" d="M548 0h-97l-24 158h-282l-85 -158h-96l370 675h100zM417 231l-42 248q-4 24 -11 93h-1q-27 -58 -45 -91l-135 -250h234z" />
<glyph unicode="B" horiz-adv-x="558" d="M543 548q0 -72 -39.5 -121t-100.5 -70v-1q47 -10 74 -45t27 -80q0 -99 -78.5 -166.5t-215.5 -67.5q-24 0 -87.5 1.5t-83.5 1.5l128 675q144 3 189 3q94 0 140.5 -34t46.5 -96zM447 528q0 37 -25.5 56.5t-89.5 19.5q-33 0 -89 -2l-42 -218q19 -1 58 -1q84 0 136 38.5 t52 106.5zM408 223q0 91 -144 91q-60 0 -76 -1l-45 -236q28 -5 82 -5q86 0 134.5 43.5t48.5 107.5z" />
<glyph unicode="C" horiz-adv-x="562" d="M591 661l-25 -83q-69 24 -138 24q-57 0 -103.5 -21.5t-78 -57t-53 -83t-31 -97.5t-9.5 -103q0 -80 38.5 -123t130.5 -43q79 0 155 33l3 -80q-90 -35 -184 -35q-243 0 -243 232q0 90 25.5 171.5t72.5 145.5t122 102t168 38q82 0 150 -20z" />
<glyph unicode="D" horiz-adv-x="664" d="M650 433q0 -85 -27 -162t-79.5 -139.5t-138 -99t-194.5 -36.5q-40 0 -95.5 2t-76.5 2l128 674q16 0 54.5 1.5t74.5 2t65 0.5q149 0 219 -65t70 -180zM553 424q0 179 -206 179q-27 0 -105 -3l-99 -520q37 -6 81 -6q85 0 151 31.5t103.5 83.5t56 111.5t18.5 123.5z" />
<glyph unicode="E" horiz-adv-x="491" d="M507 675l-15 -76h-250l-41 -214h239l-14 -74h-239l-44 -234h251l-15 -77h-340l128 675h340z" />
<glyph unicode="F" horiz-adv-x="459" d="M504 675l-15 -76h-247l-41 -219h234l-14 -74h-235l-58 -306h-89l128 675h337z" />
<glyph unicode="G" horiz-adv-x="668" d="M659 656l-26 -87q-83 36 -168 36q-137 0 -226.5 -101t-89.5 -246q0 -78 47.5 -132.5t146.5 -54.5q64 0 129 20l48 253h90l-60 -315q-104 -38 -222 -38q-136 0 -206 70t-70 188q0 189 121.5 312t301.5 123q103 0 184 -28z" />
<glyph unicode="H" horiz-adv-x="684" d="M683 675l-129 -675h-89l59 311h-337l-60 -311h-90l128 675h90l-54 -286h337l55 286h90z" />
<glyph unicode="I" horiz-adv-x="257" d="M256 675l-128 -675h-89l128 675h89z" />
<glyph unicode="J" horiz-adv-x="321" d="M323 675l-96 -504q-34 -178 -198 -178q-42 0 -74 8l16 80q29 -11 61 -11q43 0 69.5 24t37.5 83l94 498h90z" />
<glyph unicode="K" horiz-adv-x="551" d="M608 675l-322 -334l197 -341h-113l-179 334l-63 -334h-90l128 675h90l-61 -318l296 318h117z" />
<glyph unicode="L" horiz-adv-x="417" d="M380 79l-15 -79h-326l128 675h89l-112 -596h236z" />
<glyph unicode="M" horiz-adv-x="869" d="M806 675l-29 -675h-93l18 385q5 111 11 171h-2q-27 -66 -56 -122l-223 -434h-96l-55 406q-13 86 -13 150h-1q-30 -105 -52 -175l-118 -381h-95l225 675h108l58 -425q9 -63 11 -134h1q26 59 61 128l224 431h116z" />
<glyph unicode="N" horiz-adv-x="682" d="M683 675l-129 -675h-105l-173 413q-30 71 -50 143q-19 -125 -42 -251l-57 -305h-89l128 675h107l170 -404q25 -58 53 -148l41 241l57 311h89z" />
<glyph unicode="O" horiz-adv-x="691" d="M679 439q0 -191 -113 -320t-275 -129q-120 0 -180.5 64t-60.5 182q0 185 111.5 317t274.5 132q117 0 180 -64t63 -182zM582 429q0 82 -40.5 128.5t-120.5 46.5q-118 0 -196 -104.5t-78 -250.5q0 -83 40.5 -130t116.5 -47q115 0 196.5 104t81.5 253z" />
<glyph unicode="P" horiz-adv-x="512" d="M531 516q0 -112 -89 -186t-210 -74q-30 0 -55 3l-49 -259h-90l128 675q100 4 163 4q98 0 150 -43.5t52 -119.5zM436 503q0 101 -124 101q-30 0 -70 -2l-50 -265q20 -4 54 -4q77 0 133.5 49t56.5 121z" />
<glyph unicode="Q" horiz-adv-x="691" d="M679 439q0 -191 -113 -320t-275 -129q-120 0 -180.5 64t-60.5 182q0 186 111 317.5t275 131.5q117 0 180 -64t63 -182zM624 -103l-15 -78q-35 -5 -68 -5q-22 0 -43 2q-52 6 -85 17t-79 17q-24 4 -48 4q-22 0 -45 -3l14 77q23 3 47 3q63 0 138 -19q74 -18 135 -18 q26 0 49 3zM582 429q0 82 -40.5 128.5t-120.5 46.5q-118 0 -196 -104.5t-78 -250.5q0 -83 40.5 -130t116.5 -47q115 0 196.5 104t81.5 253z" />
<glyph unicode="R" horiz-adv-x="542" d="M528 531q0 -92 -68 -151t-167 -70l40 -71l133 -239h-108l-160 303h-13l-57 -303h-89l128 675q61 4 161 4q200 0 200 -148zM433 517q0 45 -28.5 66t-90.5 21q-35 0 -71 -2l-44 -230q22 -2 54 -2q78 0 129 39.5t51 107.5z" />
<glyph unicode="S" horiz-adv-x="454" d="M447 675l-17 -82q-44 16 -94 16q-70 0 -107.5 -33t-37.5 -78q0 -33 21 -60.5t51.5 -47.5t61 -42.5t51.5 -57t21 -78.5q0 -95 -75 -158.5t-192 -63.5q-66 0 -111 15l17 88q51 -22 102 -22q77 0 120 34.5t43 91.5q0 32 -21 58t-51.5 45.5t-60.5 41t-51 56t-21 79.5 q0 88 66 148t183 60q55 0 102 -10z" />
<glyph unicode="T" horiz-adv-x="506" d="M571 675l-14 -77h-190l-115 -598h-89l114 598h-191l14 77h471z" />
<glyph unicode="U" horiz-adv-x="677" d="M677 675l-81 -428q-48 -257 -308 -257q-213 0 -213 174q0 33 7 71l83 440h90l-85 -444q-6 -29 -6 -53q0 -45 20 -72q30 -40 117 -40q89 0 138.5 44t69.5 147l80 418h88z" />
<glyph unicode="V" horiz-adv-x="605" d="M677 675l-371 -675h-102l-110 675h96l66 -434q12 -79 16 -140h2q22 53 73 147l233 427h97z" />
<glyph unicode="W" horiz-adv-x="935" d="M985 675l-303 -675h-112l-39 454q-4 42 -4 84q0 16 1 33h-1q-20 -59 -46 -116l-209 -455h-109l-46 675h92l28 -441q2 -35 2 -72q0 -28 -1 -57h1q34 90 51 126l207 444h103l42 -448q4 -41 5 -88q0 -16 -1 -33h1q17 52 43 111l201 458h94z" />
<glyph unicode="X" horiz-adv-x="586" d="M631 675l-266 -328l157 -347h-108l-116 278l-219 -278h-109l286 351l-143 324h101l109 -256l202 256h106z" />
<glyph unicode="Y" horiz-adv-x="526" d="M599 675l-293 -432l-46 -243h-90l46 243l-124 432h94l62 -228q14 -52 28 -117h1q19 33 81 130l140 215h101z" />
<glyph unicode="Z" horiz-adv-x="518" d="M554 675l-14 -70l-366 -464q-25 -31 -50 -59q20 2 165 2h156l-16 -84h-430l13 68l348 446q18 22 70 81q-62 -2 -140 -2h-168l16 82h416z" />
<glyph unicode="[" horiz-adv-x="315" d="M380 771l-14 -69h-110l-159 -830h112l-14 -71h-194l185 970h194z" />
<glyph unicode="\" horiz-adv-x="433" d="M364 -161h-81l-171 918h78z" />
<glyph unicode="]" horiz-adv-x="315" d="M333 771l-185 -970h-194l14 71h111l158 830h-111l13 69h194z" />
<glyph unicode="^" d="M488 377l-69 -34l-91 265l-185 -265l-57 33l219 299h71z" />
<glyph unicode="_" d="M477 -178l-13 -71h-550l13 71h550z" />
<glyph unicode="`" horiz-adv-x="362" d="M326 616l-43 -46l-137 117l54 57z" />
<glyph unicode="a" horiz-adv-x="538" d="M503 490l-92 -490h-89q13 63 58 202l-2 1q-100 -213 -232 -213q-111 0 -111 151q0 71 18.5 134.5t55.5 115.5t98.5 83t139.5 31q79 0 156 -15zM403 425q-36 9 -71 9q-70 0 -118.5 -44.5t-68 -104.5t-19.5 -127q0 -91 51 -91q44 0 92.5 55.5t81.5 128t45 134.5z" />
<glyph unicode="b" horiz-adv-x="538" d="M508 356q0 -71 -19 -134.5t-55.5 -115.5t-98 -83t-140.5 -31t-155 17l137 721h89l-47 -242q-10 -50 -55 -191l2 -1q41 96 100 153.5t131 57.5q111 0 111 -151zM417 339q0 91 -51 91q-44 0 -92 -55.5t-81 -127t-45 -133.5l-8 -42q32 -9 71 -9q53 0 94 25.5t64.5 67 t35.5 88.5t12 95z" />
<glyph unicode="c" horiz-adv-x="412" d="M426 490l-20 -78q-43 19 -91 19q-87 0 -136 -79.5t-49 -175.5q0 -105 104 -105q60 0 109 23v-76q-67 -26 -134 -26q-173 0 -173 164q0 148 77.5 248.5t207.5 100.5q53 0 105 -15z" />
<glyph unicode="d" horiz-adv-x="538" d="M549 730l-105 -550q-1 -6 -16 -88t-17 -92h-88q11 60 57 202l-2 1q-100 -213 -232 -213q-111 0 -111 151q0 71 18.5 134.5t55.5 115.5t98.5 83t139.5 31q33 0 70 -6l43 231h89zM403 425q-36 9 -71 9q-70 0 -118.5 -44.5t-68 -104.5t-19.5 -127q0 -91 51 -91 q44 0 92.5 55.5t81.5 128t45 134.5z" />
<glyph unicode="e" horiz-adv-x="477" d="M456 393q0 -162 -322 -174q-5 -25 -5 -58q0 -57 23 -77t84 -20q70 0 139 28l3 -70q-78 -31 -173 -31q-86 0 -126.5 38.5t-40.5 122.5q0 148 76 251t196 103q74 0 110 -32t36 -81zM367 382q0 27 -18 41.5t-49 14.5q-56 0 -96.5 -43t-58.5 -110q115 4 168.5 28t53.5 69z " />
<glyph unicode="f" horiz-adv-x="339" d="M468 727l-22 -74q-37 10 -70 10q-54 0 -85 -31.5t-43 -100.5l-6 -34h135l-15 -70h-134l-86 -452q-23 -120 -79 -174.5t-149 -54.5q-46 0 -86 9l22 76q33 -10 70 -10q55 0 86 33.5t47 118.5l87 454h-101l15 70h99l7 35q36 204 225 204q41 0 83 -9z" />
<glyph unicode="g" horiz-adv-x="536" d="M503 490l-102 -536q-40 -209 -289 -209q-75 0 -134 19l21 87q59 -28 133 -28q80 0 125 35.5t61 117.5q15 79 60 222h-2q-98 -208 -230 -208q-111 0 -111 151q0 71 19 134.5t55.5 115.5t98 83t139.5 31q79 0 156 -15zM403 425q-36 9 -71 9q-70 0 -118.5 -44.5t-68 -104.5 t-19.5 -127q0 -91 51 -91q44 0 92.5 55.5t81.5 128t45 134.5z" />
<glyph unicode="h" horiz-adv-x="563" d="M500 338l-65 -338h-88l61 318q6 28 6 49q0 63 -50 63q-43 0 -91 -54.5t-81 -127t-45 -136.5l-21 -112h-88l139 730h88l-45 -233q-12 -66 -56 -196h2q40 89 99 147.5t131 58.5q67 0 93 -45q16 -28 16 -70q0 -25 -5 -54z" />
<glyph unicode="i" horiz-adv-x="254" d="M266 658q0 -26 -18 -44t-43 -18t-41 16t-16 39q0 26 18.5 44t43.5 18q24 0 40 -16.5t16 -38.5zM221 497l-95 -497h-88l95 497h88z" />
<glyph unicode="j" horiz-adv-x="258" d="M270 658q0 -26 -18.5 -44t-43.5 -18q-24 0 -40 16t-16 39q0 26 18 44t43 18q24 0 40.5 -16.5t16.5 -38.5zM225 497l-107 -559q-19 -98 -65.5 -145t-138.5 -47q-37 0 -64 8l18 78q28 -11 56 -11q49 0 71.5 28.5t37.5 106.5l104 541h88z" />
<glyph unicode="k" horiz-adv-x="475" d="M478 471l-212 -199l150 -272h-108l-132 263l-50 -263h-88l139 730h88l-85 -445l233 237z" />
<glyph unicode="l" horiz-adv-x="254" d="M265 730l-139 -730h-88l139 730h88z" />
<glyph unicode="m" horiz-adv-x="861" d="M797 338l-64 -338h-89l61 318q6 30 6 51q0 62 -46 62q-59 0 -126 -101t-89 -218l-21 -112h-88l61 318q6 29 6 51q0 62 -47 62q-58 0 -125 -101t-89 -218l-21 -112h-88l50 259q2 13 22.5 123t21.5 115h87q-12 -68 -55 -196h2q39 88 97 147t129 59q48 0 74 -25t26 -72 q0 -35 -24 -110l2 -1q39 90 97 149t129 59q66 0 91 -45q16 -27 16 -69q0 -25 -6 -55z" />
<glyph unicode="n" horiz-adv-x="563" d="M500 338l-65 -338h-88l61 318q6 28 6 49q0 63 -50 63q-43 0 -91 -54.5t-81 -127t-45 -136.5l-21 -112h-88l50 259q2 13 22.5 123t21.5 115h87q-12 -65 -55 -196h2q40 89 99 147.5t131 58.5q67 0 93 -45q16 -28 16 -70q0 -25 -5 -54z" />
<glyph unicode="o" horiz-adv-x="539" d="M510 327q0 -148 -87 -242t-204 -94q-182 0 -182 177q0 147 82.5 242.5t205.5 95.5q94 0 139.5 -48t45.5 -131zM416 317q0 113 -105 113q-79 0 -130.5 -74.5t-51.5 -172.5q0 -115 105 -115q74 0 128 71t54 178z" />
<glyph unicode="p" horiz-adv-x="538" d="M508 356q0 -71 -18.5 -134.5t-55.5 -115.5t-98.5 -82.5t-140.5 -30.5q-35 0 -70 6l-46 -246h-88l97 506l44 238h88q-14 -67 -56 -199l2 -1q41 95 100 152.5t131 57.5q111 0 111 -151zM417 339q0 91 -51 91q-44 0 -92 -55.5t-81 -127t-45 -133.5l-8 -38q36 -12 72 -12 q52 0 93 25.5t64.5 66.5t35.5 88t12 95z" />
<glyph unicode="q" horiz-adv-x="538" d="M503 490l-140 -737h-88l44 229q14 80 61 220l-2 1q-100 -213 -232 -213q-111 0 -111 151q0 71 18.5 134.5t55.5 115.5t98.5 83t139.5 31q79 0 156 -15zM403 425q-36 9 -71 9q-70 0 -118.5 -44.5t-68 -104.5t-19.5 -127q0 -91 51 -91q44 0 92.5 55.5t81.5 128t45 134.5z " />
<glyph unicode="r" horiz-adv-x="349" d="M381 506l-18 -87q-8 2 -17 2q-35 0 -73 -39q-47 -49 -79.5 -123.5t-46.5 -146.5l-21 -112h-88l50 259l44 238h86q-13 -68 -51 -183l2 -1q48 103 97 153q39 42 92 42q11 0 23 -2z" />
<glyph unicode="s" horiz-adv-x="381" d="M353 499l-16 -73q-36 12 -75 12q-47 0 -73 -20t-26 -53q0 -22 15.5 -41.5t37.5 -35.5l44 -34q23 -18 38.5 -44t15.5 -57q0 -67 -57 -114.5t-157 -47.5q-50 0 -85 7l16 81q40 -14 81 -14q50 0 79.5 20t29.5 58q0 22 -15.5 40.5t-37.5 34t-44 33t-37.5 44.5t-15.5 60 q0 66 51.5 108.5t145.5 42.5q41 0 85 -7z" />
<glyph unicode="t" horiz-adv-x="364" d="M376 497l-14 -70h-135l-49 -260q-5 -31 -5 -51q0 -18 4 -27q9 -20 46 -20t69 8l-6 -75q-48 -10 -93 -10q-75 0 -99 38q-14 22 -14 62q0 27 6 61l53 274h-101l14 70h100l31 161l93 21l-35 -182h135z" />
<glyph unicode="u" horiz-adv-x="563" d="M530 497l-50 -259q-4 -19 -23 -120.5t-21 -117.5h-88q17 82 55 196h-2q-40 -89 -98.5 -147.5t-130.5 -58.5q-68 0 -94 44q-16 29 -16 71q0 24 6 54l64 338h89l-61 -318q-6 -28 -6 -49q0 -63 49 -63q64 0 131.5 107.5t86.5 210.5l21 112h88z" />
<glyph unicode="v" horiz-adv-x="472" d="M505 489l-266 -489h-92l-88 497h95l46 -292q8 -49 11 -96h1l210 409z" />
<glyph unicode="w" horiz-adv-x="774" d="M803 490l-246 -490h-101l-39 282q-7 51 -8 100h-1l-188 -382h-97l-55 497h94l24 -265q8 -92 8 -124h1l190 389h93l36 -264q6 -52 11 -126h1l194 410z" />
<glyph unicode="x" horiz-adv-x="513" d="M533 475l-220 -229l129 -246h-105l-92 187l-196 -213l-70 49l226 232l-123 242h102l88 -185l194 210z" />
<glyph unicode="y" horiz-adv-x="486" d="M509 492q-209 -487 -380 -656q-90 -90 -179 -90q-42 0 -70 7l15 81q29 -10 63 -10q56 0 110 57q56 60 56 159q0 196 -73 457h100q56 -219 56 -390q0 -27 -7 -62h1q115 202 225 472z" />
<glyph unicode="z" horiz-adv-x="430" d="M426 497l-13 -63l-285 -353q54 2 127 2h96l-16 -83h-334l12 63l288 356q-58 -2 -122 -2h-93l16 80h324z" />
<glyph unicode="{" horiz-adv-x="335" d="M406 771l-13 -69q-52 0 -76 -26t-37 -96l-22 -116q-25 -135 -120 -148v-2q69 -10 69 -93q0 -24 -6 -53l-34 -174q-6 -34 -6 -57q0 -26 7 -39q14 -26 64 -26l-13 -71h-18q-81 0 -108 49q-16 30 -16 75q0 31 8 71l35 175q4 21 4 38q0 30 -12 45q-20 24 -75 27l14 71 q59 3 86 25.5t39 82.5l22 117q35 194 189 194h19z" />
<glyph unicode="|" horiz-adv-x="279" d="M272 753l-190 -1000h-70l190 1000h70z" />
<glyph unicode="}" horiz-adv-x="335" d="M334 352l-14 -71q-59 -3 -86 -26t-39 -84l-33 -174q-19 -102 -63 -148.5t-126 -46.5h-19l13 71q52 0 75.5 25.5t37.5 95.5l33 174q26 137 120 149v2q-69 10 -69 90q0 25 6 55l23 117q6 34 6 58q0 25 -7 37q-13 26 -64 26l13 70h16q125 0 125 -123q0 -32 -8 -71l-23 -118 q-5 -22 -5 -39q0 -28 12 -43q20 -23 76 -26z" />
<glyph unicode="~" d="M556 574q-4 -72 -43 -114t-101 -42q-31 0 -54 11.5t-37 27.5t-26 32t-27.5 27.5t-34.5 11.5q-30 0 -47.5 -24.5t-21.5 -64.5h-67q4 72 43 114.5t101 42.5q37 0 64.5 -17.5t40.5 -38t32 -38t42 -17.5q30 0 47.5 24.5t21.5 64.5h67z" />
<glyph unicode="&#xa1;" horiz-adv-x="314" d="M246 449q0 -26 -17.5 -43.5t-43.5 -17.5q-25 0 -41.5 16.5t-16.5 40.5q0 26 18 43.5t44 17.5q25 0 41 -16.5t16 -40.5zM202 329l-87 -535h-104l116 535h75z" />
<glyph unicode="&#xa2;" d="M518 539l-31 -74q-50 25 -109 25q-85 0 -138.5 -58.5t-53.5 -147.5q0 -106 125 -106q65 0 128 30l12 -72q-63 -28 -129 -33l-19 -103h-71l20 103q-161 14 -161 164q0 124 69.5 201t178.5 92l17 90h71l-18 -87q55 -2 109 -24z" />
<glyph unicode="&#xa3;" d="M529 643l-28 -77q-55 20 -103 20q-43 0 -71 -18t-41 -53.5t-18 -71t-5 -86.5h160l-13 -70h-150q-1 -72 -25 -119t-81 -92q44 2 79 2h217l-15 -78h-408l12 62q81 61 105.5 105t24.5 120h-106l13 70h96q1 50 5.5 88.5t20 80.5t40.5 70t68.5 46t103.5 18q63 0 119 -17z" />
<glyph unicode="&#xa4;" d="M560 547l-96 -97q15 -22 15 -66q0 -101 -67 -172l64 -104l-73 -48l-61 108q-44 -24 -90 -24q-41 0 -67 13l-89 -97l-61 51l90 90q-20 29 -20 79q0 106 73 175l-59 97l74 46l55 -101q37 18 84 18q48 0 77 -17l94 101zM398 370q0 78 -81 78q-59 0 -94 -47t-35 -108 q0 -82 79 -82q57 0 94 49.5t37 109.5z" />
<glyph unicode="&#xa5;" d="M596 650l-245 -354h143l-11 -61h-166l-13 -70h165l-11 -61h-166l-19 -104h-91l20 104h-164l11 61h165l13 70h-165l12 61h144l-105 354h96l56 -201q13 -47 26 -112h1q25 45 73 118l131 195h100z" />
<glyph unicode="&#xa6;" horiz-adv-x="279" d="M272 753l-70 -368h-70l70 368h70zM153 131l-71 -378h-70l71 378h70z" />
<glyph unicode="&#xa7;" horiz-adv-x="509" d="M454 728l-18 -76q-34 10 -63 10q-56 0 -80.5 -30t-24.5 -66q0 -27 24.5 -62.5t54.5 -67t54.5 -79t24.5 -96.5q0 -101 -105 -169q20 -37 20 -75q0 -74 -56.5 -128t-151.5 -54q-45 0 -83 11l18 77q38 -13 72 -13q55 0 81.5 31t26.5 66q0 29 -25 65.5t-54.5 67.5t-54.5 77.5 t-25 92.5q0 100 106 173q-22 41 -22 79q0 26 11 54.5t33.5 56t64 45.5t95.5 18q42 0 77 -8zM342 246q0 18 -5 35t-18 37l-21 34l-31 40l-31 39q-62 -40 -62 -106q0 -14 4.5 -30t10 -27.5t18.5 -30.5t21 -29l26 -32l26 -32q62 39 62 102z" />
<glyph unicode="&#xa8;" horiz-adv-x="535" d="M453 657q0 -24 -16 -40t-39 -16q-22 0 -37.5 15t-15.5 37q0 23 16.5 39t39.5 16q22 0 37 -15t15 -36zM261 657q0 -24 -16 -40t-39 -16q-22 0 -37.5 15t-15.5 36q0 24 16.5 40t39.5 16q22 0 37 -15t15 -36z" />
<glyph unicode="&#xa9;" horiz-adv-x="741" d="M723 351q0 -148 -104 -249.5t-245 -101.5q-138 0 -230.5 92t-92.5 227q0 148 104 249t246 101q136 0 229 -92t93 -226zM652 348q0 104 -74 178.5t-180 74.5q-112 0 -193.5 -80t-81.5 -199q0 -105 74 -179.5t180 -74.5q112 0 193.5 80.5t81.5 199.5zM512 500l-20 -63 q-27 15 -68 15q-42 0 -70 -26.5t-38.5 -60.5t-10.5 -71q0 -72 69 -72q42 0 81 15l2 -62q-49 -17 -99 -17q-66 0 -98.5 32.5t-32.5 90.5q0 98 56 165t147 67q50 0 82 -13z" />
<glyph unicode="&#xaa;" horiz-adv-x="385" d="M407 672q-52 -268 -61 -329h-73q6 31 30 100h-1q-52 -106 -140 -106q-84 0 -84 102q0 101 56.5 171.5t158.5 70.5q64 0 114 -9zM359 282l-13 -71h-289l13 71h289zM325 616q-21 5 -47 5q-56 0 -90.5 -50.5t-34.5 -114.5q0 -54 34 -54q42 0 80.5 56.5t52.5 130.5z" />
<glyph unicode="&#xab;" horiz-adv-x="494" d="M469 435l-125 -141l79 -142l-72 -36l-96 182l152 175zM271 437l-118 -143l71 -145l-73 -35l-87 184l144 177z" />
<glyph unicode="&#xac;" d="M500 335l-44 -232h-79l30 157h-361l14 75h440z" />
<glyph unicode="&#xad;" horiz-adv-x="328" d="M298 324l-15 -74h-234l14 74h235z" />
<glyph unicode="&#xae;" horiz-adv-x="551" d="M548 540q0 -96 -68.5 -163t-159.5 -67q-88 0 -147.5 59t-59.5 146q0 99 68.5 165.5t160.5 66.5q88 0 147 -59t59 -148zM488 537q0 63 -43 109t-105 46q-66 0 -115.5 -49t-49.5 -121q0 -64 43 -110.5t105 -46.5q66 0 115.5 50t49.5 122zM425 595q0 -30 -19 -50t-49 -27 q7 -10 14 -30l28 -71h-55l-34 94h-7l-18 -94h-47l43 228h74q70 0 70 -50zM372 587q0 20 -27 20h-23l-12 -62h14q22 0 35 12t13 30z" />
<glyph unicode="&#xaf;" horiz-adv-x="387" d="M402 684l-12 -68h-247l12 68h247z" />
<glyph unicode="&#xb0;" horiz-adv-x="368" d="M392 619q0 -65 -42.5 -101.5t-100.5 -36.5q-59 0 -91.5 32.5t-32.5 84.5q0 63 43 100t99 37q62 0 93.5 -32.5t31.5 -83.5zM321 613q0 24 -14 44t-44 20q-29 0 -48 -20t-19 -53q0 -30 16 -47t44 -17t46.5 20t18.5 53z" />
<glyph unicode="&#xb1;" d="M540 410l-14 -74h-190l-38 -197h-85l38 197h-191l14 74h190l38 196h85l-37 -196h190zM475 75l-15 -75h-462l15 75h462z" />
<glyph unicode="&#xb2;" horiz-adv-x="311" d="M314 583q0 -34 -18.5 -62.5t-62.5 -61.5l-55 -41h118l-12 -62h-216l10 53l84 65q41 32 55.5 51.5t14.5 40.5q0 32 -38 32q-31 0 -59 -18l-14 55q48 23 95 23q48 0 73 -20.5t25 -54.5z" />
<glyph unicode="&#xb3;" horiz-adv-x="572" d="M303 593q0 -59 -59 -84q44 -6 44 -53t-40.5 -77.5t-113.5 -30.5q-35 0 -63 8l15 53q28 -8 49 -8q73 0 73 52q0 30 -54 30q-17 0 -39 -3l8 48h19q84 0 84 52q0 27 -38 27q-25 0 -55 -13l-9 48q38 16 87 16q46 0 69 -18t23 -47z" />
<glyph unicode="&#xb4;" horiz-adv-x="381" d="M341 682l-162 -112l-34 50l153 124z" />
<glyph unicode="&#xb5;" horiz-adv-x="616" d="M565 65q-46 -74 -117 -74q-72 0 -72 70q0 33 15 78l-2 1q-22 -53 -80 -100.5t-115 -47.5q-43 0 -69 30l-37 -269h-94l142 744h88l-61 -318q-4 -23 -4 -41q0 -26 8 -42q14 -29 44 -29q56 0 120 79.5t86 196.5l29 154h88l-67 -351q-6 -35 -6 -53q0 -8 1 -13q4 -15 21 -15 q26 0 48 35z" />
<glyph unicode="&#xb6;" horiz-adv-x="565" d="M588 675l-12 -70h-70l-133 -701h-151l13 70h72l133 701h148zM366 675l-81 -428q-91 0 -137 46t-46 123q0 101 72 180t192 79z" />
<glyph unicode="&#xb7;" horiz-adv-x="234" d="M193 300q0 -28 -20 -47.5t-47 -19.5q-26 0 -44 18.5t-18 43.5q0 27 20 46.5t47 19.5q26 0 44 -18t18 -43z" />
<glyph unicode="&#xb8;" horiz-adv-x="392" d="M199 -40q18 -32 18 -65q0 -63 -65 -130h-77q32 34 47 59.5t15 52t-18 55.5z" />
<glyph unicode="&#xb9;" horiz-adv-x="302" d="M282 650l-56 -294h-74l43 229l-75 -32l-4 58l98 39h68z" />
<glyph unicode="&#xba;" horiz-adv-x="411" d="M419 562q0 -105 -59.5 -165t-141.5 -60q-126 0 -126 119q0 94 54 161t142 67q131 0 131 -122zM352 282l-14 -71h-279l14 71h279zM338 551q0 67 -59 67q-53 0 -80 -47t-27 -101q0 -66 57 -66q48 0 78.5 43t30.5 104z" />
<glyph unicode="&#xbb;" horiz-adv-x="494" d="M463 292l-144 -177l-63 38l118 143l-70 145l73 35zM272 292l-152 -175l-62 38l125 141l-79 142l72 36z" />
<glyph unicode="&#xbc;" horiz-adv-x="693" d="M282 650l-56 -294h-74l43 229l-75 -32l-4 58l98 39h68zM673 625l-611 -646l-49 44l610 646zM613 111l-11 -56h-49l-11 -55h-68l11 55h-142l5 52l146 187h104l-35 -183h50zM521 244l-105 -133h79z" />
<glyph unicode="&#xbd;" horiz-adv-x="697" d="M620 226q0 -34 -19 -62t-62 -61l-55 -42h118l-13 -61h-215l10 52l84 66q40 31 55 50.5t15 40.5q0 33 -38 33q-30 0 -59 -19l-14 56q48 23 95 23q48 0 73 -21t25 -55zM673 625l-611 -646l-49 44l610 646zM282 650l-56 -294h-74l43 229l-75 -32l-4 58l98 39h68z" />
<glyph unicode="&#xbe;" horiz-adv-x="694" d="M523 244l-105 -133h79zM615 111l-11 -56h-49l-11 -55h-68l11 55h-142l5 52l146 187h104l-35 -183h50zM674 625l-611 -646l-49 44l610 646zM304 593q0 -59 -58 -84q44 -6 44 -53t-40.5 -77.5t-113.5 -30.5q-35 0 -63 8l15 53q28 -8 49 -8q73 0 73 52q0 30 -54 30 q-17 0 -39 -3l8 48h19q43 0 63.5 14.5t20.5 37.5q0 27 -38 27q-27 0 -55 -13l-9 48q38 16 86 16q47 0 69.5 -18t22.5 -47z" />
<glyph unicode="&#xbf;" horiz-adv-x="437" d="M349 449q0 -26 -18 -43.5t-44 -17.5q-25 0 -41.5 16.5t-16.5 40.5q0 26 18 43.5t44 17.5q25 0 41.5 -16.5t16.5 -40.5zM312 329q3 -19 3 -36q0 -37 -12 -68q-17 -46 -48 -75.5t-62.5 -54.5t-54.5 -54t-23 -61q0 -44 46.5 -73t122.5 -38l-26 -82q-115 9 -178 60t-63 121 q0 39 17 72.5t42 55.5l54 47q28 25 51.5 48t36.5 59q8 24 8 52q0 13 -2 27h88z" />
<glyph unicode="&#xc0;" horiz-adv-x="605" d="M548 0h-97l-24 158h-282l-85 -158h-96l370 675h100zM417 231l-42 248q-4 24 -11 93h-1q-27 -58 -45 -91l-135 -250h234zM444 777l-22 -52l-189 56l31 70z" />
<glyph unicode="&#xc1;" horiz-adv-x="605" d="M548 0h-97l-24 158h-282l-85 -158h-96l370 675h100zM417 231l-42 248q-4 24 -11 93h-1q-27 -58 -45 -91l-135 -250h234zM532 781l-194 -56l-13 52l190 74z" />
<glyph unicode="&#xc2;" horiz-adv-x="605" d="M548 0h-97l-24 158h-282l-85 -158h-96l370 675h100zM417 231l-42 248q-4 24 -11 93h-1q-27 -58 -45 -91l-135 -250h234zM545 774l-29 -50l-122 63l-140 -63l-20 48l167 85z" />
<glyph unicode="&#xc3;" horiz-adv-x="605" d="M548 0h-97l-24 158h-282l-85 -158h-96l370 675h100zM417 231l-42 248q-4 24 -11 93h-1q-27 -58 -45 -91l-135 -250h234zM567 808q-43 -73 -113 -73q-36 0 -72.5 26t-54.5 26q-35 0 -64 -45l-44 33q44 74 113 74q36 0 72.5 -26t54.5 -26q34 0 64 44z" />
<glyph unicode="&#xc4;" horiz-adv-x="605" d="M548 0h-97l-24 158h-282l-85 -158h-96l370 675h100zM417 231l-42 248q-4 24 -11 93h-1q-27 -58 -45 -91l-135 -250h234zM550 783q0 -22 -15 -37t-36 -15q-20 0 -34 14t-14 34q0 22 15 37t36 15t34.5 -14t13.5 -34zM341 783q0 -21 -15.5 -36.5t-35.5 -15.5q-21 0 -35 14 t-14 34q0 22 15.5 37t36.5 15t34.5 -14t13.5 -34z" />
<glyph unicode="&#xc5;" horiz-adv-x="605" d="M548 0h-97l-24 158h-282l-85 -158h-96l354 646q-41 26 -41 78q0 50 36 83.5t83 33.5q46 0 76 -30t30 -74q0 -32 -17.5 -58.5t-45.5 -39.5zM445 734q0 22 -14.5 38t-37.5 16t-40.5 -17.5t-17.5 -42.5q0 -23 14.5 -38.5t36.5 -15.5q24 0 41.5 17.5t17.5 42.5zM416 231 l-40 241q-9 46 -12 99h-2q-21 -48 -49 -100l-130 -240h233z" />
<glyph unicode="&#xc6;" horiz-adv-x="757" d="M773 675l-14 -76h-246l-41 -214h236l-14 -74h-236l-45 -234h255l-14 -77h-343l31 161h-218l-113 -161h-99l475 675h386zM426 599h-3q-41 -70 -91 -140l-161 -225h186z" />
<glyph unicode="&#xc7;" horiz-adv-x="562" d="M591 661l-25 -83q-69 24 -138 24q-57 0 -103.5 -21.5t-78 -57t-53 -83t-31 -97.5t-9.5 -103q0 -80 38.5 -123t130.5 -43q79 0 155 33l3 -80q-90 -35 -184 -35q-243 0 -243 232q0 90 25.5 171.5t72.5 145.5t122 102t168 38q82 0 150 -20zM297 -40q18 -32 18 -65 q0 -63 -65 -130h-77q32 34 47 59.5t15 52t-18 55.5z" />
<glyph unicode="&#xc8;" horiz-adv-x="491" d="M507 675l-15 -76h-250l-41 -214h239l-14 -74h-239l-44 -234h251l-15 -77h-340l128 675h340zM413 777l-22 -52l-189 56l31 70z" />
<glyph unicode="&#xc9;" horiz-adv-x="491" d="M507 675l-15 -76h-250l-41 -214h239l-14 -74h-239l-44 -234h251l-15 -77h-340l128 675h340zM489 781l-194 -56l-13 52l190 74z" />
<glyph unicode="&#xca;" horiz-adv-x="491" d="M507 675l-15 -76h-250l-41 -214h239l-14 -74h-239l-44 -234h251l-15 -77h-340l128 675h340zM506 774l-29 -50l-122 63l-140 -63l-20 48l167 85z" />
<glyph unicode="&#xcb;" horiz-adv-x="491" d="M507 675l-15 -76h-250l-41 -214h239l-14 -74h-239l-44 -234h251l-15 -77h-340l128 675h340zM501 783q0 -22 -15 -37t-36 -15q-20 0 -34 14t-14 34q0 22 15 37t36 15t34.5 -14t13.5 -34zM292 783q0 -21 -15 -36.5t-36 -15.5t-35 14t-14 34q0 22 15.5 37t36.5 15t34.5 -14 t13.5 -34z" />
<glyph unicode="&#xcc;" horiz-adv-x="257" d="M256 675l-128 -675h-89l128 675h89zM285 777l-22 -52l-189 56l31 70z" />
<glyph unicode="&#xcd;" horiz-adv-x="257" d="M256 675l-128 -675h-89l128 675h89zM369 781l-194 -56l-13 52l190 74z" />
<glyph unicode="&#xce;" horiz-adv-x="257" d="M256 675l-128 -675h-89l128 675h89zM382 774l-29 -50l-122 63l-140 -63l-20 48l167 85z" />
<glyph unicode="&#xcf;" horiz-adv-x="257" d="M256 675l-128 -675h-89l128 675h89zM381 783q0 -22 -15 -37t-36 -15q-20 0 -34 14t-14 34q0 22 15 37t36 15t34.5 -14t13.5 -34zM172 783q0 -21 -15 -36.5t-36 -15.5t-35 14t-14 34q0 22 15.5 37t36.5 15t34.5 -14t13.5 -34z" />
<glyph unicode="&#xd0;" horiz-adv-x="677" d="M659 433q0 -85 -27 -162t-79.5 -139.5t-138 -99t-194.5 -36.5q-40 0 -95 2t-77 2l59 312h-95l13 70h96l55 292q1 0 77 2t116 2q150 0 220 -65t70 -180zM563 424q0 179 -207 179q-26 0 -104 -3l-42 -218h140l-14 -70h-139l-44 -232q37 -6 81 -6q85 0 151 31.5t103.5 83.5 t56 111.5t18.5 123.5z" />
<glyph unicode="&#xd1;" horiz-adv-x="682" d="M683 675l-129 -675h-105l-173 413q-30 71 -50 143q-19 -125 -42 -251l-57 -305h-89l128 675h107l170 -404q25 -58 53 -148l41 241l57 311h89zM616 808q-43 -73 -113 -73q-36 0 -72.5 26t-54.5 26q-36 0 -64 -45l-44 33q44 74 113 74q36 0 72.5 -26t54.5 -26q34 0 64 44z " />
<glyph unicode="&#xd2;" horiz-adv-x="691" d="M679 439q0 -191 -113 -320t-275 -129q-120 0 -180.5 64t-60.5 182q0 185 111.5 317t274.5 132q117 0 180 -64t63 -182zM582 429q0 82 -40.5 128.5t-120.5 46.5q-118 0 -196 -104.5t-78 -250.5q0 -83 40.5 -130t116.5 -47q115 0 196.5 104t81.5 253zM509 777l-22 -52 l-189 56l31 70z" />
<glyph unicode="&#xd3;" horiz-adv-x="691" d="M679 439q0 -191 -113 -320t-275 -129q-120 0 -180.5 64t-60.5 182q0 185 111.5 317t274.5 132q117 0 180 -64t63 -182zM582 429q0 82 -40.5 128.5t-120.5 46.5q-118 0 -196 -104.5t-78 -250.5q0 -83 40.5 -130t116.5 -47q115 0 196.5 104t81.5 253zM605 781l-194 -56 l-13 52l190 74z" />
<glyph unicode="&#xd4;" horiz-adv-x="691" d="M679 439q0 -191 -113 -320t-275 -129q-120 0 -180.5 64t-60.5 182q0 185 111.5 317t274.5 132q117 0 180 -64t63 -182zM582 429q0 82 -40.5 128.5t-120.5 46.5q-118 0 -196 -104.5t-78 -250.5q0 -83 40.5 -130t116.5 -47q115 0 196.5 104t81.5 253zM615 774l-29 -50 l-122 63l-140 -63l-20 48l167 85z" />
<glyph unicode="&#xd5;" horiz-adv-x="691" d="M679 439q0 -191 -113 -320t-275 -129q-120 0 -180.5 64t-60.5 182q0 185 111.5 317t274.5 132q117 0 180 -64t63 -182zM582 429q0 82 -40.5 128.5t-120.5 46.5q-118 0 -196 -104.5t-78 -250.5q0 -83 40.5 -130t116.5 -47q115 0 196.5 104t81.5 253zM641 808 q-43 -73 -113 -73q-36 0 -72.5 26t-54.5 26q-35 0 -64 -45l-44 33q44 74 113 74q36 0 72.5 -26t54.5 -26q34 0 64 44z" />
<glyph unicode="&#xd6;" horiz-adv-x="691" d="M679 439q0 -191 -113 -320t-275 -129q-120 0 -180.5 64t-60.5 182q0 185 111.5 317t274.5 132q117 0 180 -64t63 -182zM582 429q0 82 -40.5 128.5t-120.5 46.5q-118 0 -196 -104.5t-78 -250.5q0 -83 40.5 -130t116.5 -47q115 0 196.5 104t81.5 253zM620 783 q0 -22 -15 -37t-36 -15q-20 0 -34 14t-14 34q0 22 15 37t36 15t34.5 -14t13.5 -34zM411 783q0 -21 -15.5 -36.5t-35.5 -15.5q-21 0 -35 14t-14 34q0 22 15.5 37t36.5 15t34.5 -14t13.5 -34z" />
<glyph unicode="&#xd7;" d="M538 463l-200 -168l136 -169l-60 -49l-135 168l-200 -168l-46 54l202 169l-137 169l60 48l136 -167l199 167z" />
<glyph unicode="&#xd8;" horiz-adv-x="691" d="M679 439q0 -191 -113 -320t-275 -129q-40 0 -78 10l-54 -101l-65 27l54 98q-98 59 -98 212q0 186 111 317.5t275 131.5q35 0 70 -8l51 93l64 -26l-50 -90q108 -58 108 -215zM584 430q0 96 -57 140l-271 -492q20 -5 44 -5q10 0 21 1q109 8 186 110t77 246zM464 600 q-27 4 -49 4h-9q-112 -7 -186.5 -111t-74.5 -245q0 -93 51 -135z" />
<glyph unicode="&#xd9;" horiz-adv-x="677" d="M677 675l-81 -428q-48 -257 -308 -257q-213 0 -213 174q0 33 7 71l83 440h90l-85 -444q-6 -29 -6 -53q0 -45 20 -72q30 -40 117 -40q89 0 138.5 44t69.5 147l80 418h88zM488 777l-22 -52l-189 56l31 70z" />
<glyph unicode="&#xda;" horiz-adv-x="677" d="M677 675l-81 -428q-48 -257 -308 -257q-213 0 -213 174q0 33 7 71l83 440h90l-85 -444q-6 -29 -6 -53q0 -45 20 -72q30 -40 117 -40q89 0 138.5 44t69.5 147l80 418h88zM594 781l-194 -56l-13 52l190 74z" />
<glyph unicode="&#xdb;" horiz-adv-x="677" d="M677 675l-81 -428q-48 -257 -308 -257q-213 0 -213 174q0 33 7 71l83 440h90l-85 -444q-6 -29 -6 -53q0 -45 20 -72q30 -40 117 -40q89 0 138.5 44t69.5 147l80 418h88zM593 774l-29 -50l-122 63l-140 -63l-20 48l167 85z" />
<glyph unicode="&#xdc;" horiz-adv-x="677" d="M677 675l-81 -428q-48 -257 -308 -257q-213 0 -213 174q0 33 7 71l83 440h90l-85 -444q-6 -29 -6 -53q0 -45 20 -72q30 -40 117 -40q89 0 138.5 44t69.5 147l80 418h88zM582 783q0 -22 -15 -37t-36 -15q-20 0 -34 14t-14 34q0 22 15 37t36 15t34.5 -14t13.5 -34zM373 783 q0 -21 -15.5 -36.5t-35.5 -15.5q-21 0 -35 14t-14 34q0 22 15.5 37t36.5 15t34.5 -14t13.5 -34z" />
<glyph unicode="&#xdd;" horiz-adv-x="526" d="M599 675l-293 -432l-46 -243h-90l46 243l-124 432h94l62 -228q14 -52 28 -117h1q19 33 81 130l140 215h101zM509 781l-194 -56l-13 52l190 74z" />
<glyph unicode="&#xde;" horiz-adv-x="517" d="M530 408q0 -113 -85.5 -193.5t-228.5 -80.5q-38 0 -62 4l-26 -138h-90l128 675h90l-19 -102q54 2 86 2q103 0 155 -44.5t52 -122.5zM435 393q0 107 -137 107q-48 0 -76 -5l-54 -281q28 -4 64 -4q94 0 148.5 53t54.5 130z" />
<glyph unicode="&#xdf;" horiz-adv-x="567" d="M540 618q0 -41 -17 -71.5t-41 -48.5t-48 -34t-41 -37.5t-17 -49.5q0 -23 12.5 -44t30.5 -39l36 -38q18 -19 30.5 -45.5t12.5 -56.5q0 -69 -56.5 -116t-151.5 -47q-48 0 -83 7l16 80q40 -14 77 -14q49 0 77 21.5t28 58.5q0 23 -12.5 44.5t-30.5 39.5l-34 36 q-18 19 -30.5 45t-12.5 56q0 38 17 67.5t40.5 47.5t47.5 34.5t41 39.5t17 52q0 26 -19 42.5t-55 16.5q-120 0 -151 -160l-101 -532q-24 -125 -78.5 -176.5t-149.5 -51.5q-29 0 -71 8l20 75q32 -8 63 -8q54 0 82 32.5t45 120.5l100 527q46 235 252 235q72 0 113.5 -32 t41.5 -85z" />
<glyph unicode="&#xe0;" horiz-adv-x="538" d="M503 490l-92 -490h-89q13 63 58 202l-2 1q-100 -213 -232 -213q-111 0 -111 151q0 71 18.5 134.5t55.5 115.5t98.5 83t139.5 31q79 0 156 -15zM403 425q-36 9 -71 9q-70 0 -118.5 -44.5t-68 -104.5t-19.5 -127q0 -91 51 -91q44 0 92.5 55.5t81.5 128t45 134.5zM427 616 l-43 -46l-137 117l54 57z" />
<glyph unicode="&#xe1;" horiz-adv-x="538" d="M503 490l-92 -490h-89q13 63 58 202l-2 1q-100 -213 -232 -213q-111 0 -111 151q0 71 18.5 134.5t55.5 115.5t98.5 83t139.5 31q79 0 156 -15zM403 425q-36 9 -71 9q-70 0 -118.5 -44.5t-68 -104.5t-19.5 -127q0 -91 51 -91q44 0 92.5 55.5t81.5 128t45 134.5zM518 682 l-162 -112l-34 50l153 124z" />
<glyph unicode="&#xe2;" horiz-adv-x="538" d="M503 490l-92 -490h-89q13 63 58 202l-2 1q-100 -213 -232 -213q-111 0 -111 151q0 71 18.5 134.5t55.5 115.5t98.5 83t139.5 31q79 0 156 -15zM403 425q-36 9 -71 9q-70 0 -118.5 -44.5t-68 -104.5t-19.5 -127q0 -91 51 -91q44 0 92.5 55.5t81.5 128t45 134.5zM504 614 l-43 -44l-83 85l-112 -85l-34 42l158 132z" />
<glyph unicode="&#xe3;" horiz-adv-x="538" d="M503 490l-92 -490h-89q13 63 58 202l-2 1q-100 -213 -232 -213q-111 0 -111 151q0 71 18.5 134.5t55.5 115.5t98.5 83t139.5 31q79 0 156 -15zM403 425q-36 9 -71 9q-70 0 -118.5 -44.5t-68 -104.5t-19.5 -127q0 -91 51 -91q44 0 92.5 55.5t81.5 128t45 134.5zM539 672 q-42 -78 -112 -78q-35 0 -69 27.5t-52 27.5q-32 0 -62 -47l-44 36q42 77 111 77q34 0 69.5 -27t53.5 -27q33 0 61 46z" />
<glyph unicode="&#xe4;" horiz-adv-x="538" d="M503 490l-92 -490h-89q13 63 58 202l-2 1q-100 -213 -232 -213q-111 0 -111 151q0 71 18.5 134.5t55.5 115.5t98.5 83t139.5 31q79 0 156 -15zM403 425q-36 9 -71 9q-70 0 -118.5 -44.5t-68 -104.5t-19.5 -127q0 -91 51 -91q44 0 92.5 55.5t81.5 128t45 134.5zM511 657 q0 -24 -16 -40t-39 -16q-22 0 -37.5 15t-15.5 37q0 23 16.5 39t39.5 16q22 0 37 -15t15 -36zM319 657q0 -24 -16 -40t-39 -16q-22 0 -37.5 15t-15.5 36q0 24 16.5 40t39.5 16q22 0 37 -15t15 -36z" />
<glyph unicode="&#xe5;" horiz-adv-x="538" d="M503 490l-92 -490h-89q13 63 58 202l-2 1q-100 -213 -232 -213q-111 0 -111 151q0 71 18.5 134.5t55.5 115.5t98.5 83t139.5 31q79 0 156 -15zM403 425q-36 9 -71 9q-70 0 -118.5 -44.5t-68 -104.5t-19.5 -127q0 -91 51 -91q44 0 92.5 55.5t81.5 128t45 134.5zM500 669 q0 -49 -35.5 -82.5t-83.5 -33.5q-45 0 -75.5 29t-30.5 74q0 50 36 83t83 33q46 0 76 -29.5t30 -73.5zM442 666q0 22 -14 38t-37 16q-24 0 -41.5 -18t-17.5 -43q0 -23 15 -38.5t37 -15.5q24 0 41 17.5t17 43.5z" />
<glyph unicode="&#xe6;" horiz-adv-x="763" d="M743 393q0 -76 -72 -119.5t-252 -52.5q-4 -30 -4 -60q0 -57 23.5 -77t83.5 -20q72 0 141 29v-72q-76 -30 -171 -30q-74 0 -108.5 28.5t-47.5 82.5q-26 -46 -79 -78.5t-113 -32.5q-63 0 -94 29t-31 77q0 50 24 86t70.5 56.5t101 31t128.5 14.5l7 33q5 24 5 42q0 29 -11 47 q-19 29 -78 29q-77 0 -150 -42v78q85 35 167 35q66 0 97.5 -20.5t44.5 -56.5q28 32 74 54t97 22q75 0 111 -32t36 -81zM653 382q0 27 -18.5 42t-48.5 15q-56 0 -96 -42.5t-58 -109.5q110 7 165.5 27t55.5 68zM330 221q-72 -4 -116.5 -13t-75 -32t-30.5 -61q0 -24 16.5 -38.5 t42.5 -14.5q60 0 105.5 47t57.5 112z" />
<glyph unicode="&#xe7;" horiz-adv-x="412" d="M426 490l-20 -78q-43 19 -91 19q-87 0 -136 -79.5t-49 -175.5q0 -105 104 -105q60 0 109 23v-76q-67 -26 -134 -26q-173 0 -173 164q0 148 77.5 248.5t207.5 100.5q53 0 105 -15zM205 -40q18 -32 18 -65q0 -63 -65 -130h-77q32 34 47 59.5t15 52t-18 55.5z" />
<glyph unicode="&#xe8;" horiz-adv-x="477" d="M456 393q0 -162 -322 -174q-5 -25 -5 -58q0 -57 23 -77t84 -20q70 0 139 28l3 -70q-78 -31 -173 -31q-86 0 -126.5 38.5t-40.5 122.5q0 148 76 251t196 103q74 0 110 -32t36 -81zM367 382q0 27 -18 41.5t-49 14.5q-56 0 -96.5 -43t-58.5 -110q115 4 168.5 28t53.5 69z M395 616l-43 -46l-137 117l54 57z" />
<glyph unicode="&#xe9;" horiz-adv-x="477" d="M456 393q0 -162 -322 -174q-5 -25 -5 -58q0 -57 23 -77t84 -20q70 0 139 28l3 -70q-78 -31 -173 -31q-86 0 -126.5 38.5t-40.5 122.5q0 148 76 251t196 103q74 0 110 -32t36 -81zM367 382q0 27 -18 41.5t-49 14.5q-56 0 -96.5 -43t-58.5 -110q115 4 168.5 28t53.5 69z M467 682l-162 -112l-34 50l153 124z" />
<glyph unicode="&#xea;" horiz-adv-x="477" d="M456 393q0 -162 -322 -174q-5 -25 -5 -58q0 -57 23 -77t84 -20q70 0 139 28l3 -70q-78 -31 -173 -31q-86 0 -126.5 38.5t-40.5 122.5q0 148 76 251t196 103q74 0 110 -32t36 -81zM367 382q0 27 -18 41.5t-49 14.5q-56 0 -96.5 -43t-58.5 -110q115 4 168.5 28t53.5 69z M460 614l-43 -44l-83 85l-112 -85l-34 42l158 132z" />
<glyph unicode="&#xeb;" horiz-adv-x="477" d="M456 393q0 -162 -322 -174q-5 -25 -5 -58q0 -57 23 -77t84 -20q70 0 139 28l3 -70q-78 -31 -173 -31q-86 0 -126.5 38.5t-40.5 122.5q0 148 76 251t196 103q74 0 110 -32t36 -81zM367 382q0 27 -18 41.5t-49 14.5q-56 0 -96.5 -43t-58.5 -110q115 4 168.5 28t53.5 69z M488 657q0 -24 -16 -40t-39 -16q-22 0 -37.5 15t-15.5 37q0 23 16.5 39t39.5 16q22 0 37 -15t15 -36zM296 657q0 -24 -16 -40t-39 -16q-22 0 -37.5 15t-15.5 36q0 24 16.5 40t39.5 16q22 0 37 -15t15 -36z" />
<glyph unicode="&#xec;" horiz-adv-x="254" d="M221 497l-95 -497h-88l95 497h88zM267 616l-43 -46l-137 117l54 57z" />
<glyph unicode="&#xed;" horiz-adv-x="254" d="M221 497l-95 -497h-88l95 497h88zM308 682l-162 -112l-34 50l153 124z" />
<glyph unicode="&#xee;" horiz-adv-x="254" d="M221 497l-95 -497h-88l95 497h88zM331 614l-43 -44l-83 85l-112 -85l-34 42l158 132z" />
<glyph unicode="&#xef;" horiz-adv-x="254" d="M221 497l-95 -497h-88l95 497h88zM356 657q0 -24 -16 -40t-39 -16q-22 0 -37.5 15t-15.5 37q0 23 16.5 39t39.5 16q22 0 37 -15t15 -36zM164 657q0 -24 -16 -40t-39 -16q-22 0 -37.5 15t-15.5 36q0 24 16.5 40t39.5 16q22 0 37 -15t15 -36z" />
<glyph unicode="&#xf0;" horiz-adv-x="535" d="M536 673l-103 -43q76 -118 76 -262q0 -161 -80 -269t-207 -108q-90 0 -139 45t-49 135q0 137 79.5 235.5t202.5 98.5q80 0 101 -45q-11 33 -20 51q-22 51 -46 85l-111 -46l-29 49l103 43q-23 25 -64 63l88 39q37 -35 61 -66l110 45zM413 321q0 51 -26.5 80.5t-77.5 29.5 q-81 0 -131.5 -73t-50.5 -167q0 -59 28 -91.5t78 -32.5q49 0 86 28t56 70t28.5 82t9.5 74z" />
<glyph unicode="&#xf1;" horiz-adv-x="563" d="M500 338l-65 -338h-88l61 318q6 28 6 49q0 63 -50 63q-43 0 -91 -54.5t-81 -127t-45 -136.5l-21 -112h-88l50 259q2 13 22.5 123t21.5 115h87q-12 -65 -55 -196h2q40 89 99 147.5t131 58.5q67 0 93 -45q16 -28 16 -70q0 -25 -5 -54zM524 672q-42 -78 -112 -78 q-35 0 -69 27.5t-52 27.5q-32 0 -62 -47l-44 36q42 77 111 77q34 0 69.5 -27t53.5 -27q33 0 61 46z" />
<glyph unicode="&#xf2;" horiz-adv-x="539" d="M510 327q0 -148 -87 -242t-204 -94q-182 0 -182 177q0 147 82.5 242.5t205.5 95.5q94 0 139.5 -48t45.5 -131zM416 317q0 113 -105 113q-79 0 -130.5 -74.5t-51.5 -172.5q0 -115 105 -115q74 0 128 71t54 178zM409 616l-43 -46l-137 117l54 57z" />
<glyph unicode="&#xf3;" horiz-adv-x="539" d="M510 327q0 -148 -87 -242t-204 -94q-182 0 -182 177q0 147 82.5 242.5t205.5 95.5q94 0 139.5 -48t45.5 -131zM416 317q0 113 -105 113q-79 0 -130.5 -74.5t-51.5 -172.5q0 -115 105 -115q74 0 128 71t54 178zM489 682l-162 -112l-34 50l153 124z" />
<glyph unicode="&#xf4;" horiz-adv-x="539" d="M510 327q0 -148 -87 -242t-204 -94q-182 0 -182 177q0 147 82.5 242.5t205.5 95.5q94 0 139.5 -48t45.5 -131zM416 317q0 113 -105 113q-79 0 -130.5 -74.5t-51.5 -172.5q0 -115 105 -115q74 0 128 71t54 178zM492 614l-43 -44l-83 85l-112 -85l-34 42l158 132z" />
<glyph unicode="&#xf5;" horiz-adv-x="539" d="M510 327q0 -148 -87 -242t-204 -94q-182 0 -182 177q0 147 82.5 242.5t205.5 95.5q94 0 139.5 -48t45.5 -131zM416 317q0 113 -105 113q-79 0 -130.5 -74.5t-51.5 -172.5q0 -115 105 -115q74 0 128 71t54 178zM524 672q-42 -78 -112 -78q-35 0 -69 27.5t-52 27.5 q-32 0 -62 -47l-44 36q42 77 111 77q34 0 69.5 -27t53.5 -27q33 0 61 46z" />
<glyph unicode="&#xf6;" horiz-adv-x="539" d="M510 327q0 -148 -87 -242t-204 -94q-182 0 -182 177q0 147 82.5 242.5t205.5 95.5q94 0 139.5 -48t45.5 -131zM416 317q0 113 -105 113q-79 0 -130.5 -74.5t-51.5 -172.5q0 -115 105 -115q74 0 128 71t54 178zM507 657q0 -24 -16 -40t-39 -16q-22 0 -37.5 15t-15.5 37 q0 23 16.5 39t39.5 16q22 0 37 -15t15 -36zM315 657q0 -24 -16 -40t-39 -16q-22 0 -37.5 15t-15.5 36q0 24 16.5 40t39.5 16q22 0 37 -15t15 -36z" />
<glyph unicode="&#xf7;" d="M382 500q0 -26 -17.5 -44t-42.5 -18t-42 17.5t-17 41.5q0 26 18 44t43 18q24 0 41 -17.5t17 -41.5zM526 335l-15 -75h-465l14 75h466zM304 97q0 -26 -17.5 -44t-42.5 -18t-42 17.5t-17 41.5q0 26 17.5 44t43.5 18q24 0 41 -17.5t17 -41.5z" />
<glyph unicode="&#xf8;" horiz-adv-x="539" d="M510 327q0 -148 -87 -242t-204 -94q-37 0 -61 8l-58 -102l-53 27l54 97q-64 42 -64 147q0 146 80.5 242t207.5 96q24 0 49 -5l56 100l53 -26l-52 -92q79 -44 79 -156zM421 317q0 63 -35 89l-189 -336q18 -5 39 -5h7q74 4 126 76.5t52 175.5zM334 431q-9 2 -32 2 q-76 -3 -127 -76t-51 -171q0 -56 24 -84z" />
<glyph unicode="&#xf9;" horiz-adv-x="563" d="M530 497l-50 -259q-4 -19 -23 -120.5t-21 -117.5h-88q17 82 55 196h-2q-40 -89 -98.5 -147.5t-130.5 -58.5q-68 0 -94 44q-16 29 -16 71q0 24 6 54l64 338h89l-61 -318q-6 -28 -6 -49q0 -63 49 -63q64 0 131.5 107.5t86.5 210.5l21 112h88zM386 616l-43 -46l-137 117 l54 57z" />
<glyph unicode="&#xfa;" horiz-adv-x="563" d="M530 497l-50 -259q-4 -19 -23 -120.5t-21 -117.5h-88q17 82 55 196h-2q-40 -89 -98.5 -147.5t-130.5 -58.5q-68 0 -94 44q-16 29 -16 71q0 24 6 54l64 338h89l-61 -318q-6 -28 -6 -49q0 -63 49 -63q64 0 131.5 107.5t86.5 210.5l21 112h88zM488 682l-162 -112l-34 50 l153 124z" />
<glyph unicode="&#xfb;" horiz-adv-x="563" d="M530 497l-50 -259q-4 -19 -23 -120.5t-21 -117.5h-88q17 82 55 196h-2q-40 -89 -98.5 -147.5t-130.5 -58.5q-68 0 -94 44q-16 29 -16 71q0 24 6 54l64 338h89l-61 -318q-6 -28 -6 -49q0 -63 49 -63q64 0 131.5 107.5t86.5 210.5l21 112h88zM485 614l-43 -44l-83 85 l-112 -85l-34 42l158 132z" />
<glyph unicode="&#xfc;" horiz-adv-x="563" d="M530 497l-50 -259q-4 -19 -23 -120.5t-21 -117.5h-88q17 82 55 196h-2q-40 -89 -98.5 -147.5t-130.5 -58.5q-68 0 -94 44q-16 29 -16 71q0 24 6 54l64 338h89l-61 -318q-6 -28 -6 -49q0 -63 49 -63q64 0 131.5 107.5t86.5 210.5l21 112h88zM503 657q0 -24 -16 -40 t-39 -16q-22 0 -37.5 15t-15.5 37q0 23 16.5 39t39.5 16q22 0 37 -15t15 -36zM311 657q0 -24 -16 -40t-39 -16q-22 0 -37.5 15t-15.5 36q0 24 16.5 40t39.5 16q22 0 37 -15t15 -36z" />
<glyph unicode="&#xfd;" horiz-adv-x="486" d="M509 492q-209 -487 -380 -656q-90 -90 -179 -90q-42 0 -70 7l15 81q29 -10 63 -10q56 0 110 57q56 60 56 159q0 196 -73 457h100q56 -219 56 -390q0 -27 -7 -62h1q115 202 225 472zM442 682l-162 -112l-34 50l153 124z" />
<glyph unicode="&#xfe;" horiz-adv-x="538" d="M508 356q0 -71 -18.5 -134.5t-55.5 -115.5t-98.5 -82.5t-140.5 -30.5q-35 0 -70 6l-46 -246h-88l186 977h89l-38 -199q-20 -102 -63 -231l3 -1q41 93 99 150.5t130 57.5q111 0 111 -151zM417 339q0 91 -51 91q-44 0 -92 -55.5t-81 -127t-45 -133.5l-8 -38q36 -12 72 -12 q52 0 93 25.5t64.5 66.5t35.5 88t12 95z" />
<glyph unicode="&#xff;" horiz-adv-x="486" d="M509 492q-209 -487 -380 -656q-90 -90 -179 -90q-42 0 -70 7l15 81q29 -10 63 -10q56 0 110 57q56 60 56 159q0 196 -73 457h100q56 -219 56 -390q0 -27 -7 -62h1q115 202 225 472zM447 657q0 -24 -16 -40t-39 -16q-22 0 -37.5 15t-15.5 37q0 23 16.5 39t39.5 16 q22 0 37 -15t15 -36zM255 657q0 -24 -16 -40t-39 -16q-22 0 -37.5 15t-15.5 36q0 24 16.5 40t39.5 16q22 0 37 -15t15 -36z" />
<glyph unicode="&#x131;" horiz-adv-x="254" d="M221 497l-95 -497h-88l95 497h88z" />
<glyph unicode="&#x152;" horiz-adv-x="846" d="M862 675l-15 -76h-250l-41 -214h238l-14 -74h-238l-44 -234h250l-15 -77h-334q-60 -10 -108 -10q-120 0 -180.5 64t-60.5 182q0 185 111.5 317t274.5 132q51 0 99 -10h327zM505 590q-42 14 -84 14q-118 0 -196 -104.5t-78 -250.5q0 -83 40.5 -130t116.5 -47q56 0 106 14z " />
<glyph unicode="&#x153;" horiz-adv-x="837" d="M817 393q0 -162 -322 -174q-5 -25 -5 -58q0 -57 23 -77t84 -20q69 0 138 28l4 -70q-77 -31 -173 -31q-129 0 -151 95q-36 -45 -88 -70t-108 -25q-182 0 -182 177q0 147 82.5 242.5t205.5 95.5t162 -95q72 95 184 95q74 0 110 -32t36 -81zM728 382q0 27 -18 41.5t-49 14.5 q-56 0 -96.5 -43t-58.5 -110q115 4 168.5 28t53.5 69zM416 317q0 113 -105 113q-79 0 -130.5 -74.5t-51.5 -172.5q0 -115 105 -115q74 0 128 71t54 178z" />
<glyph unicode="&#x178;" horiz-adv-x="526" d="M599 675l-293 -432l-46 -243h-90l46 243l-124 432h94l62 -228q14 -52 28 -117h1q19 33 81 130l140 215h101zM510 783q0 -22 -15 -37t-36 -15q-20 0 -34 14t-14 34q0 22 15 37t36 15t34.5 -14t13.5 -34zM301 783q0 -21 -15.5 -36.5t-35.5 -15.5q-21 0 -35 14t-14 34 q0 22 15.5 37t36.5 15t34.5 -14t13.5 -34z" />
<glyph unicode="&#x2c6;" horiz-adv-x="424" d="M396 614l-43 -44l-83 85l-112 -85l-34 42l158 132z" />
<glyph unicode="&#x2da;" horiz-adv-x="375" d="M385 658q0 -49 -35.5 -82.5t-83.5 -33.5q-45 0 -75.5 29t-30.5 74q0 50 36 83t83 33q46 0 76 -29.5t30 -73.5zM327 655q0 22 -14 38t-37 16q-24 0 -41.5 -18t-17.5 -43q0 -23 15 -38.5t37 -15.5q24 0 41 17.5t17 43.5z" />
<glyph unicode="&#x2dc;" horiz-adv-x="486" d="M461 672q-42 -78 -112 -78q-35 0 -69 27.5t-52 27.5q-32 0 -62 -47l-44 36q42 77 111 77q34 0 69.5 -27t53.5 -27q33 0 61 46z" />
<glyph unicode="&#x3bc;" horiz-adv-x="616" d="M565 65q-46 -74 -117 -74q-72 0 -72 70q0 33 15 78l-2 1q-22 -53 -80 -100.5t-115 -47.5q-43 0 -69 30l-37 -269h-94l142 744h88l-61 -318q-4 -23 -4 -41q0 -26 8 -42q14 -29 44 -29q56 0 120 79.5t86 196.5l29 154h88l-67 -351q-6 -35 -6 -53q0 -8 1 -13q4 -15 21 -15 q26 0 48 35z" />
<glyph unicode="&#x2000;" horiz-adv-x="428" />
<glyph unicode="&#x2001;" horiz-adv-x="857" />
<glyph unicode="&#x2002;" horiz-adv-x="428" />
<glyph unicode="&#x2003;" horiz-adv-x="857" />
<glyph unicode="&#x2004;" horiz-adv-x="285" />
<glyph unicode="&#x2005;" horiz-adv-x="214" />
<glyph unicode="&#x2006;" horiz-adv-x="142" />
<glyph unicode="&#x2007;" horiz-adv-x="142" />
<glyph unicode="&#x2008;" horiz-adv-x="107" />
<glyph unicode="&#x2009;" horiz-adv-x="171" />
<glyph unicode="&#x200a;" horiz-adv-x="47" />
<glyph unicode="&#x2010;" horiz-adv-x="328" d="M298 324l-15 -74h-234l14 74h235z" />
<glyph unicode="&#x2011;" horiz-adv-x="328" d="M298 324l-15 -74h-234l14 74h235z" />
<glyph unicode="&#x2013;" d="M568 337l-15 -78h-550l15 78h550z" />
<glyph unicode="&#x2014;" horiz-adv-x="1000" d="M901 337l-15 -78h-765l15 78h765z" />
<glyph unicode="&#x2018;" horiz-adv-x="239" d="M289 709q-77 -64 -77 -113q0 -16 8 -30q9 -14 9 -28q0 -13 -7 -28q-16 -29 -50 -29q-42 0 -55 41q-5 14 -5 30q0 48 47 108q36 45 96 88z" />
<glyph unicode="&#x2019;" horiz-adv-x="239" d="M207 741q41 0 55 -40q5 -14 5 -30q0 -47 -46 -106q-36 -47 -98 -91l-33 39q76 63 76 112q0 16 -8 31q-8 13 -8 27t8 29q15 29 49 29z" />
<glyph unicode="&#x201a;" horiz-adv-x="239" d="M83 113q41 0 55 -40q5 -14 5 -30q0 -47 -46 -106q-36 -47 -97 -90l-34 38q77 65 77 114q0 16 -8 30q-9 14 -9 28q0 13 8 27q15 29 49 29z" />
<glyph unicode="&#x201c;" horiz-adv-x="425" d="M478 710q-76 -64 -76 -113q0 -16 8 -30q8 -13 8 -27t-8 -28q-15 -30 -48 -30q-42 0 -55 41q-5 14 -5 30q0 48 47 108q36 45 96 88zM289 710q-77 -64 -77 -113q0 -16 8 -30q9 -14 9 -28q0 -13 -7 -27q-16 -30 -50 -30q-42 0 -55 41q-5 14 -5 30q0 48 47 108q36 45 96 88z " />
<glyph unicode="&#x201d;" horiz-adv-x="425" d="M396 743q41 0 55 -40q5 -14 5 -30q0 -47 -46 -106q-36 -47 -98 -91l-33 39q77 63 77 112q0 16 -9 31q-8 14 -8 28t7 28q16 29 50 29zM207 743q41 0 55 -40q5 -14 5 -30q0 -47 -46 -106q-36 -47 -98 -91l-33 39q77 63 77 112q0 16 -9 31q-8 14 -8 28t8 28q15 29 49 29z " />
<glyph unicode="&#x201e;" horiz-adv-x="425" d="M273 113q41 0 55 -40q5 -14 5 -30q0 -47 -46 -106q-37 -47 -98 -90l-33 38q76 65 76 114q0 16 -8 30q-8 13 -8 27t8 28q15 29 49 29zM83 113q41 0 55 -40q5 -14 5 -30q0 -47 -46 -106q-36 -47 -97 -90l-34 38q77 65 77 114q0 16 -8 30q-9 14 -9 28q0 13 8 27q15 29 49 29 z" />
<glyph unicode="&#x2022;" horiz-adv-x="420" d="M342 301q0 -52 -36.5 -88.5t-86.5 -36.5t-84 34.5t-34 82.5q0 52 36 88.5t87 36.5q50 0 84 -34.5t34 -82.5z" />
<glyph unicode="&#x2026;" horiz-adv-x="652" d="M562 54q0 -27 -18.5 -45t-43.5 -18q-24 0 -40 17t-16 40q0 27 18.5 45.5t43.5 18.5q24 0 40 -17t16 -41zM352 54q0 -27 -18.5 -45t-43.5 -18q-24 0 -40.5 17t-16.5 40q0 27 18.5 45.5t43.5 18.5q24 0 40.5 -17t16.5 -41zM141 54q0 -27 -18.5 -45t-43.5 -18q-24 0 -40 17 t-16 40q0 27 18 45.5t44 18.5q24 0 40 -17t16 -41z" />
<glyph unicode="&#x202f;" horiz-adv-x="171" />
<glyph unicode="&#x2039;" horiz-adv-x="307" d="M274 435l-122 -141l72 -142l-71 -37l-89 184l148 175z" />
<glyph unicode="&#x203a;" horiz-adv-x="307" d="M269 290l-148 -175l-63 39l122 141l-72 142l71 37z" />
<glyph unicode="&#x205f;" horiz-adv-x="214" />
<glyph unicode="&#x20ac;" d="M578 633l-30 -74q-52 28 -115 28q-137 0 -200 -156h190l-11 -60h-201q-12 -40 -17 -89h200l-10 -60h-194v-13q0 -68 28 -103q30 -40 110 -40q62 0 133 29l15 -71q-80 -34 -168 -34q-119 0 -168 60q-44 55 -44 155v17h-88l11 60h82q5 45 18 89h-83l11 60h91 q39 102 115.5 165.5t195.5 63.5q64 0 129 -27z" />
<glyph unicode="&#x2122;" horiz-adv-x="685" d="M674 675l-10 -281h-68l6 147l4 54l-20 -46l-74 -155h-67l-14 157l-3 44l-10 -37l-54 -164h-63l96 281h85l14 -154l2 -46l16 42l76 158h84zM337 675l-10 -55h-71l-43 -226h-68l44 226h-73l10 55h211z" />
</font>
</defs>
</svg>
