<?xml version="1.0" standalone="no"?>
<!DOCTYPE svg PUBLIC "-//W3C//DTD SVG 1.1//EN" "http://www.w3.org/Graphics/SVG/1.1/DTD/svg11.dtd" >
<svg xmlns="http://www.w3.org/2000/svg">
<metadata>
This is a custom SVG webfont generated by Font Squirrel.
</metadata>
<defs>
<font id="webfontF6GXrFEo" horiz-adv-x="550" >
<font-face units-per-em="1000" ascent="800" descent="-200" />
<missing-glyph horiz-adv-x="218" />
<glyph unicode=" "  horiz-adv-x="218" />
<glyph unicode="&#x09;" horiz-adv-x="218" />
<glyph unicode="&#xa0;" horiz-adv-x="218" />
<glyph unicode="!" horiz-adv-x="320" d="M222 703l-15 -535h-75l-16 535h106zM229 50q0 -25 -17.5 -42t-42.5 -17q-26 0 -43.5 17t-17.5 42t17.5 42t43.5 17q25 0 42.5 -17t17.5 -42z" />
<glyph unicode="&#x22;" horiz-adv-x="366" d="M314 699l-14 -230h-67l-14 230h95zM147 699l-15 -230h-66l-14 230h95z" />
<glyph unicode="#" d="M519 412h-93l-17 -168h86v-62h-93l-19 -182h-69l20 182h-146l-20 -182h-68l19 182h-88v62h95l17 168h-88v62h94l19 176h68l-18 -176h146l19 176h68l-19 -176h87v-62zM357 412h-146l-17 -168h146z" />
<glyph unicode="$" d="M460 201q0 -67 -45 -117t-123 -64v-105h-67v101q-66 0 -125 14l9 84q57 -22 128 -22q58 0 93.5 24t35.5 73q0 30 -21 52t-52.5 34t-68 28t-68 33t-52.5 50t-21 79q0 64 44 111t116 57v97h67v-92q53 -1 108 -12l-10 -79q-57 17 -111 17q-64 0 -93.5 -26t-29.5 -62 q0 -34 29.5 -57.5t71.5 -39.5t84 -34.5t71.5 -54.5t29.5 -89z" />
<glyph unicode="%" horiz-adv-x="750" d="M706 153q0 -72 -41.5 -117.5t-108.5 -45.5q-141 0 -141 153q0 70 41.5 115t108.5 45q141 0 141 -150zM651 627l-497 -648l-58 42l497 648zM335 509q0 -72 -41.5 -117t-108.5 -45q-141 0 -141 153q0 70 41.5 115t108.5 45q141 0 141 -151zM632 146q0 97 -72 97 q-32 0 -51.5 -25.5t-19.5 -68.5q0 -98 74 -98q30 0 49.5 26t19.5 69zM261 502q0 50 -17.5 73.5t-54.5 23.5q-32 0 -51.5 -25.5t-19.5 -67.5q0 -99 74 -99q30 0 49.5 26.5t19.5 68.5z" />
<glyph unicode="&#x26;" horiz-adv-x="795" d="M739 50l-58 -69q-88 60 -142 106q-111 -97 -264 -97q-104 0 -161.5 55t-57.5 141q0 63 35 113t104 104q-52 60 -72.5 100.5t-20.5 81.5q0 64 47.5 107.5t130.5 43.5q76 0 118 -37.5t42 -97.5q0 -52 -29 -98.5t-96 -98.5q109 -113 221 -203v-1q69 97 69 224q0 12 -1 24h90 v-17q0 -161 -92 -280zM350 592q0 33 -19.5 54.5t-58.5 21.5q-35 0 -58 -22.5t-23 -56.5q0 -49 73 -133q44 36 65 67.5t21 68.5zM476 136q-131 107 -229 214q-99 -79 -99 -153q0 -54 39.5 -92t103.5 -38q105 0 185 69z" />
<glyph unicode="'" horiz-adv-x="199" d="M147 699l-15 -230h-66l-14 230h95z" />
<glyph unicode="(" horiz-adv-x="303" d="M283 -176l-67 -33q-146 231 -146 493q0 264 147 497l65 -31q-124 -213 -124 -461q0 -255 125 -465z" />
<glyph unicode=")" horiz-adv-x="303" d="M238 289q0 -266 -147 -498l-65 32q124 210 124 460q0 257 -125 466l68 32q145 -231 145 -492z" />
<glyph unicode="*" horiz-adv-x="374" d="M330 535l-34 -58l-90 66l11 -112h-67l11 112l-90 -66l-33 58l103 45l-103 46l34 58l90 -66l-11 112h67l-12 -112l91 66l33 -58l-103 -45z" />
<glyph unicode="+" d="M508 260h-191v-201h-85v201h-190v75h190v200h85v-200h191v-75z" />
<glyph unicode="," horiz-adv-x="228" d="M112 113q42 0 57 -44q6 -17 6 -35q0 -52 -46 -116q-26 -37 -65 -72l-38 34q57 61 57 105q0 21 -14 39q-13 16 -13 33q0 12 6 25q14 31 50 31z" />
<glyph unicode="-" horiz-adv-x="330" d="M283 250h-236v74h236v-74z" />
<glyph unicode="." horiz-adv-x="228" d="M176 53q0 -25 -18 -43.5t-44 -18.5t-44 18.5t-18 43.5t18 43.5t44 18.5t44 -18.5t18 -43.5z" />
<glyph unicode="/" horiz-adv-x="438" d="M439 757l-350 -918h-86l350 918h86z" />
<glyph unicode="0" d="M502 332q0 -174 -67 -258t-166 -84q-111 0 -166.5 78t-55.5 260q0 165 63.5 248.5t170.5 83.5q105 0 163 -75t58 -253zM405 326q0 141 -31 199.5t-100 58.5q-130 0 -130 -250q0 -141 29.5 -204t100.5 -63q63 0 97 65t34 194z" />
<glyph unicode="1" d="M496 0h-422v81h175v478l-160 -63l-16 84l197 70h72v-569h154v-81z" />
<glyph unicode="2" d="M484 0h-426v73l143 141q99 97 130 145.5t31 97.5q0 53 -34.5 87.5t-94.5 34.5q-82 0 -147 -51l-22 78q84 53 185 53t156 -54t55 -133q0 -66 -33 -124.5t-127 -147.5l-121 -115v-1q84 2 206 2h99v-86z" />
<glyph unicode="3" d="M474 199q0 -96 -74 -152.5t-199 -56.5q-65 0 -124 16l10 81q60 -20 123 -20q80 0 123 32.5t43 87.5q0 54 -42 85t-120 31q-56 0 -98 -5v72h23q224 0 224 120q0 44 -33 69.5t-90 25.5q-74 0 -143 -37l-9 79q82 33 168 33q97 0 149.5 -43.5t52.5 -112.5q0 -115 -124 -152 l-1 -1q61 -6 101 -49.5t40 -102.5z" />
<glyph unicode="4" d="M528 150h-107v-150h-89v150h-302l-7 73l276 427h122v-418h107v-82zM333 232v328h-1l-217 -331q60 3 218 3z" />
<glyph unicode="5" d="M475 213q0 -100 -74 -161t-196 -61q-64 0 -120 13v83q59 -19 127 -19q79 0 122.5 36t43.5 98q0 59 -45.5 90.5t-124.5 31.5q-57 0 -109 -8v334h352v-86h-268v-170q34 2 55 2q112 0 174.5 -51.5t62.5 -131.5z" />
<glyph unicode="6" d="M505 219q0 -103 -62 -166t-164 -63q-106 0 -166.5 72t-60.5 202q0 200 89.5 297.5t242.5 97.5q38 0 59 -3v-79q-33 5 -66 5q-187 0 -228 -209q-7 -35 -9 -49h1q51 85 162 85q95 0 148.5 -53.5t53.5 -136.5zM413 204q0 59 -33.5 95t-95.5 36q-59 0 -96 -39t-37 -85 q0 -64 36 -105.5t100 -41.5q59 0 92.5 38.5t33.5 101.5z" />
<glyph unicode="7" d="M495 572q-150 -280 -250 -572h-105q113 310 251 564q-46 -2 -247 -2h-88v88h439v-78z" />
<glyph unicode="8" d="M495 167q0 -80 -64 -128.5t-162 -48.5t-156.5 44.5t-58.5 118.5q0 57 37 97t102 78q-61 31 -92 68.5t-31 91.5q0 75 58.5 123.5t151.5 48.5q92 0 145.5 -44t53.5 -114q0 -51 -32.5 -88.5t-91.5 -72.5q66 -34 103 -73t37 -101zM387 494q0 44 -31 69t-83 25 q-51 0 -80.5 -26.5t-29.5 -65.5t26.5 -64.5t90.5 -56.5q53 30 80 56.5t27 62.5zM401 158q0 25 -10 45.5t-31.5 37t-40.5 27t-51 25.5q-58 -32 -89 -62t-31 -71q0 -43 34.5 -70t95.5 -27q53 0 88 25.5t35 69.5z" />
<glyph unicode="9" d="M494 386q0 -203 -90 -299t-243 -96q-44 0 -80 7v81q40 -10 90 -10q186 0 221 195q5 30 9 48h-1q-51 -74 -156 -74q-94 0 -146.5 54.5t-52.5 141.5q0 102 62.5 164t161.5 62q106 0 165.5 -67.5t59.5 -206.5zM394 440q0 65 -34.5 105.5t-97.5 40.5q-58 0 -92 -39.5 t-34 -98.5q0 -61 33.5 -97t92.5 -36q61 0 96.5 36t35.5 89z" />
<glyph unicode=":" horiz-adv-x="286" d="M220 346q0 -26 -18 -44t-44 -18t-44 18t-18 44t18 44t44 18t44 -18t18 -44zM220 53q0 -25 -18 -43.5t-44 -18.5t-44 18.5t-18 43.5t18 43.5t44 18.5t44 -18.5t18 -43.5z" />
<glyph unicode=";" horiz-adv-x="286" d="M220 346q0 -26 -18 -44t-44 -18t-44 18t-18 44t18 44t44 18t44 -18t18 -44zM157 113q42 0 57 -44q6 -17 6 -35q0 -52 -46 -116q-26 -37 -65 -72l-38 34q57 61 57 105q0 21 -14 39q-13 16 -13 33q0 12 6 25q14 31 50 31z" />
<glyph unicode="&#x3c;" d="M446 81l-58 -62l-316 283l316 284l58 -58l-259 -225z" />
<glyph unicode="=" d="M494 346h-438v74h438v-74zM494 175h-438v74h438v-74z" />
<glyph unicode="&#x3e;" d="M478 303l-316 -284l-58 58l259 225l-259 222l58 62z" />
<glyph unicode="?" horiz-adv-x="445" d="M385 516q0 -38 -15 -70t-36 -52l-44 -45q-24 -24 -41 -45.5t-23 -57.5q-1 -10 -1 -21q0 -27 9 -57h-87q-13 38 -13 70q0 8 1 16q4 38 19.5 63.5t38 50t43.5 43t35.5 44t14.5 52.5q0 50 -55 83.5t-147 37.5l11 82q134 -4 212 -60t78 -134zM252 50q0 -25 -17.5 -42 t-43.5 -17q-25 0 -42.5 17t-17.5 42t17.5 42t42.5 17q26 0 43.5 -17t17.5 -42z" />
<glyph unicode="@" horiz-adv-x="978" d="M883 406q0 -130 -63.5 -203.5t-163.5 -73.5q-58 0 -85 32q-21 25 -21 59q0 9 1 18h-3q-14 -37 -57.5 -73t-92.5 -36q-98 0 -98 135q0 116 59 192t168 76q68 0 122 -14l-38 -213q-3 -19 -3 -35q0 -67 62 -67q58 0 94.5 51.5t36.5 146.5q0 51 -16 96t-48 82.5t-88 59.5 t-130 22q-148 0 -249 -104t-101 -264q0 -143 79.5 -223.5t229.5 -80.5q84 0 168 26l13 -73q-87 -28 -192 -28q-180 0 -280.5 98.5t-100.5 268.5q0 195 128 323.5t310 128.5q88 0 158 -26.5t113 -72.5t65.5 -104t22.5 -124zM566 463q-24 6 -58 6q-43 0 -74.5 -32.5t-44.5 -74 t-13 -82.5q0 -77 43 -77q40 0 78.5 54t57.5 153z" />
<glyph unicode="A" horiz-adv-x="615" d="M606 0h-103l-56 158h-287l-56 -158h-94l246 675h102zM423 231l-90 249q-15 41 -29 92h-2q-13 -48 -28 -91l-90 -250h239z" />
<glyph unicode="B" horiz-adv-x="570" d="M519 202q0 -27 -6.5 -53t-25 -54t-46.5 -49t-75 -35t-108 -14q-23 0 -86.5 1.5t-86.5 1.5v675q147 3 197 3q107 0 161.5 -42.5t54.5 -119.5q0 -54 -31 -96t-85 -61v-2q67 -11 102 -55t35 -100zM402 501q0 103 -135 103q-36 0 -90 -2v-218q19 -1 61 -1q82 0 123 30.5 t41 87.5zM422 199q0 115 -182 115q-47 0 -63 -1v-236q28 -5 86 -5q79 0 119 34.5t40 92.5z" />
<glyph unicode="C" horiz-adv-x="583" d="M538 28q-87 -36 -185 -36q-156 0 -231.5 89t-75.5 240q0 163 83 261.5t247 98.5q83 0 155 -21l-15 -84q-76 26 -150 26q-110 0 -165 -74t-55 -192q0 -262 229 -262q80 0 148 34z" />
<glyph unicode="D" horiz-adv-x="678" d="M632 345q0 -169 -102.5 -259t-273.5 -90q-36 0 -92 2t-79 2v674q16 0 55.5 1.5t76.5 2t70 0.5q345 0 345 -333zM535 339q0 264 -257 264q-26 0 -101 -3v-520q37 -6 89 -6q124 0 196.5 66.5t72.5 198.5z" />
<glyph unicode="E" horiz-adv-x="501" d="M432 0h-347v675h347v-76h-255v-214h243v-74h-243v-234h255v-77z" />
<glyph unicode="F" horiz-adv-x="469" d="M429 599h-252v-219h239v-74h-239v-306h-92v675h344v-76z" />
<glyph unicode="G" horiz-adv-x="682" d="M601 30q-105 -39 -223 -39q-154 0 -244.5 88.5t-90.5 244.5q0 158 98.5 259t264.5 101q94 0 187 -29l-20 -83q-86 33 -175 33q-110 0 -183.5 -70.5t-73.5 -199.5q0 -125 67.5 -194.5t182.5 -69.5q60 0 119 18v255h91v-314z" />
<glyph unicode="H" horiz-adv-x="698" d="M613 0h-92v311h-344v-311h-92v675h92v-286h344v286h92v-675z" />
<glyph unicode="I" horiz-adv-x="262" d="M177 0h-92v675h92v-675z" />
<glyph unicode="J" horiz-adv-x="329" d="M245 176q0 -183 -169 -183q-41 0 -75 8v80q33 -11 69 -11q43 0 63 24t20 88v493h92v-499z" />
<glyph unicode="K" horiz-adv-x="584" d="M569 0h-125l-267 334v-334h-92v675h92v-318l268 318h113l-285 -326z" />
<glyph unicode="L" horiz-adv-x="426" d="M419 0h-334v675h92v-596h242v-79z" />
<glyph unicode="M" horiz-adv-x="889" d="M841 0h-97l-57 390q-16 113 -21 166h-2q-14 -63 -33 -122l-145 -434h-98l-137 406q-25 76 -43 150h-1q-3 -46 -19 -175l-46 -381h-94l99 675h113l142 -425q24 -73 38 -134h2q20 78 37 128l146 431h114z" />
<glyph unicode="N" horiz-adv-x="707" d="M622 0h-120l-257 418q-38 60 -77 140q7 -126 7 -341v-217h-90v675h121l251 -405q35 -57 83 -148q-7 145 -7 361v192h89v-675z" />
<glyph unicode="O" horiz-adv-x="705" d="M663 345q0 -164 -91.5 -259.5t-228.5 -95.5q-148 0 -224.5 91t-76.5 249q0 164 91.5 259.5t228.5 95.5q139 0 220 -88t81 -252zM565 334q0 129 -55.5 199.5t-157.5 70.5q-89 0 -150.5 -69.5t-61.5 -191.5q0 -125 53.5 -198t157.5 -73q89 0 151.5 69t62.5 193z" />
<glyph unicode="P" horiz-adv-x="524" d="M492 481q0 -99 -73 -162t-188 -63q-36 0 -54 2v-258h-92v675q100 4 166 4q115 0 178 -53.5t63 -144.5zM396 472q0 131 -155 131q-45 0 -64 -1v-266q23 -4 55 -4q75 1 119.5 38.5t44.5 101.5z" />
<glyph unicode="Q" horiz-adv-x="704" d="M663 345q0 -164 -91.5 -259.5t-228.5 -95.5q-148 0 -224.5 91t-76.5 249q0 164 91.5 259.5t228.5 95.5q139 0 220 -88t81 -252zM703 -185q-35 -5 -68 -5q-37 0 -71 6q-66 12 -126 26q-38 8 -75 8q-21 0 -43 -3v81q22 3 47 3q65 0 145 -19q79 -18 141 -18q27 0 50 3v-82z M565 334q0 129 -55.5 199.5t-157.5 70.5q-89 0 -150.5 -69.5t-61.5 -191.5q0 -125 53.5 -198t157.5 -73q89 0 151.5 69t62.5 193z" />
<glyph unicode="R" horiz-adv-x="553" d="M527 0h-117l-221 303h-12v-303h-92v675q61 4 169 4q229 0 229 -176q0 -83 -56.5 -133.5t-141.5 -56.5q6 -8 27 -33l31 -39zM387 491q0 60 -37 86.5t-112 26.5q-25 0 -61 -2v-230q20 -2 57 -2q72 0 112.5 33t40.5 88z" />
<glyph unicode="S" horiz-adv-x="503" d="M455 198q0 -91 -69 -149t-181 -58q-81 0 -148 19l11 88q68 -27 142 -27q64 0 105 28t41 87q0 35 -22.5 60.5t-56.5 39.5l-73 30q-40 17 -74 35.5t-56.5 55t-22.5 86.5q0 85 62.5 138t173.5 53q67 0 122 -13l-11 -81q-59 18 -116 18q-67 0 -101.5 -28t-34.5 -77 q0 -34 23 -58.5t57 -38.5l74 -30q41 -18 75 -37t57 -55t23 -86z" />
<glyph unicode="T" horiz-adv-x="516" d="M499 598h-195v-598h-92v598h-194v77h481v-77z" />
<glyph unicode="U" horiz-adv-x="693" d="M607 258q0 -132 -68.5 -200t-200.5 -68q-76 0 -128 19.5t-78 55t-36.5 74t-10.5 88.5v448h92v-441q0 -79 36.5 -123.5t130.5 -44.5q90 0 131.5 42.5t41.5 142.5v424h90v-417z" />
<glyph unicode="V" horiz-adv-x="618" d="M605 675l-248 -675h-103l-243 675h102l151 -434q32 -97 43 -138h2q17 65 47 145l155 427h94z" />
<glyph unicode="W" horiz-adv-x="952" d="M918 675l-178 -675h-113l-129 454q-15 53 -25 117h-1q-7 -57 -24 -116l-126 -455h-110l-178 675h98l114 -440q16 -59 27 -130h1q11 66 27 125l125 445h104l129 -449q17 -58 27 -119h1q11 64 23 110l117 458h91z" />
<glyph unicode="X" horiz-adv-x="599" d="M582 0h-115l-172 279l-171 -279h-107l222 348l-208 327h106l160 -258l157 258h104l-205 -324z" />
<glyph unicode="Y" horiz-adv-x="537" d="M527 675l-215 -432v-243h-92v243l-211 432h101l107 -228q29 -60 51 -117h1q16 41 58 129l104 216h96z" />
<glyph unicode="Z" horiz-adv-x="539" d="M495 0h-449v68l283 446q38 58 55 81q-64 -2 -147 -2h-181v82h435v-70l-298 -464l-40 -59q21 2 168 2h174v-84z" />
<glyph unicode="[" horiz-adv-x="322" d="M284 -199h-198v970h198v-69h-114v-830h114v-71z" />
<glyph unicode="\" horiz-adv-x="442" d="M448 -161h-87l-350 918h87z" />
<glyph unicode="]" horiz-adv-x="322" d="M236 -199h-198v71h114v830h-114v69h198v-970z" />
<glyph unicode="^" d="M474 377l-66 -34l-144 265l-138 -265l-62 33l165 299h73z" />
<glyph unicode="_" d="M550 -249h-550v71h550v-71z" />
<glyph unicode="`" horiz-adv-x="369" d="M283 619l-39 -49l-150 114l49 60z" />
<glyph unicode="a" horiz-adv-x="521" d="M437 0h-87q0 71 5 99h-2q-19 -47 -64 -77.5t-105 -30.5q-62 0 -100 37t-38 97q0 81 78.5 126t220.5 45v33q0 54 -25 80.5t-84 26.5q-77 0 -144 -37l-19 73q84 35 177 35q102 0 143.5 -42.5t41.5 -121.5v-200q0 -57 2 -143zM345 220v13q-211 0 -211 -95q0 -33 21 -54.5 t55 -21.5q58 0 96.5 48t38.5 110z" />
<glyph unicode="b" horiz-adv-x="558" d="M515 272q0 -130 -69.5 -204.5t-189.5 -74.5q-95 0 -171 20v717h90v-241q0 -55 -9 -93l2 -1q20 52 63.5 81.5t100.5 29.5q88 0 135.5 -60t47.5 -174zM421 264q0 168 -110 168q-63 0 -99.5 -59.5t-36.5 -131.5v-165q39 -12 88 -12q158 0 158 200z" />
<glyph unicode="c" horiz-adv-x="435" d="M407 19q-67 -27 -148 -27q-99 0 -158.5 56t-59.5 184q0 124 62.5 198.5t179.5 74.5q67 0 122 -21l-17 -77q-55 23 -113 23q-66 0 -102.5 -51t-36.5 -135q0 -174 141 -174q65 0 116 24z" />
<glyph unicode="d" horiz-adv-x="557" d="M472 0h-87q0 62 8 101l-2 1q-21 -51 -65 -81t-102 -30q-90 0 -136.5 61.5t-46.5 172.5q0 130 69.5 204.5t187.5 74.5q34 0 84 -5v231h90v-730zM382 257v165q-41 11 -88 11q-158 0 -158 -200q0 -168 110 -168q63 0 99.5 59.5t36.5 132.5z" />
<glyph unicode="e" horiz-adv-x="508" d="M462 297q0 -16 -3 -46h-325v-13q0 -174 157 -174q76 0 142 30l13 -72q-78 -31 -172 -31q-233 0 -233 255q0 115 59.5 187.5t162.5 72.5q100 0 149.5 -58.5t49.5 -150.5zM370 315v7q0 52 -28 84q-31 34 -83 34q-49 0 -81.5 -34t-40.5 -91h233z" />
<glyph unicode="f" horiz-adv-x="350" d="M382 727l-8 -75q-32 11 -73 11q-53 0 -77.5 -31t-24.5 -97v-38h138v-70h-138v-427h-90v427h-102v70h102v37q0 202 191 202q42 0 82 -9z" />
<glyph unicode="g" horiz-adv-x="541" d="M512 -67q0 -80 -74 -134.5t-189 -54.5q-97 0 -153 39t-56 110q0 42 23.5 77t59.5 55q-49 21 -49 74q0 26 15 49t40 35q-73 44 -73 137q0 79 56.5 132.5t154.5 53.5q33 0 70 -9h169v-71h-82q40 -32 40 -92q0 -80 -54 -130t-156 -50q-28 0 -53 7q-32 -15 -32 -42 q0 -20 19 -28.5t66 -10.5l91 -3q81 -3 124 -40t43 -104zM375 328q0 52 -29.5 81.5t-82.5 29.5q-55 0 -86.5 -31t-31.5 -80q0 -52 30 -80.5t85 -28.5q54 0 84.5 29t30.5 80zM421 -78q0 77 -102 80l-96 4q-21 0 -29 1q-64 -44 -64 -98q0 -43 37 -68.5t97 -25.5q74 0 115.5 30 t41.5 77z" />
<glyph unicode="h" horiz-adv-x="575" d="M491 0h-90v320q0 57 -19 84.5t-66 27.5q-61 0 -101 -55.5t-40 -138.5v-238h-90v730h90v-236q0 -66 -9 -99l2 -1q22 52 67 82t106 30q150 0 150 -159v-347z" />
<glyph unicode="i" horiz-adv-x="260" d="M190 654q0 -24 -17.5 -41t-42.5 -17t-42.5 16.5t-17.5 41.5t17.5 42t42.5 17t42.5 -17t17.5 -42zM175 0h-90v497h90v-497z" />
<glyph unicode="j" horiz-adv-x="266" d="M196 654q0 -24 -17.5 -41t-41.5 -17q-25 0 -42.5 16.5t-17.5 41.5t17.5 42t42.5 17q24 0 41.5 -17t17.5 -42zM181 -55q0 -103 -38 -151t-133 -48q-39 0 -69 9l8 79q33 -12 63 -12q46 0 63 24t17 91v560h89v-552z" />
<glyph unicode="k" horiz-adv-x="493" d="M474 0h-115l-184 256v-256h-90v730h90v-451l175 218h109l-191 -227z" />
<glyph unicode="l" horiz-adv-x="260" d="M175 0h-90v730h90v-730z" />
<glyph unicode="m" horiz-adv-x="879" d="M794 0h-90v319q0 56 -17.5 84.5t-63.5 28.5q-56 0 -97.5 -54.5t-41.5 -141.5v-236h-89v319q0 54 -17 83.5t-64 29.5q-58 0 -98.5 -56t-40.5 -140v-236h-90v497h87q0 -65 -8 -105l2 -1q22 53 68 84t105 31q37 0 64.5 -11.5t42 -30t21.5 -36t9 -35.5q20 44 62.5 78.5 t107.5 34.5q148 0 148 -163v-343z" />
<glyph unicode="n" horiz-adv-x="575" d="M491 0h-90v320q0 57 -19 84.5t-66 27.5q-61 0 -101 -55.5t-40 -138.5v-238h-90v497h87q0 -65 -8 -105h2q22 53 67.5 83.5t107.5 30.5q150 0 150 -159v-347z" />
<glyph unicode="o" horiz-adv-x="545" d="M505 257q0 -114 -67 -190t-176 -76q-105 0 -164 63t-59 190q0 112 66 187t176 75q102 0 163 -60.5t61 -188.5zM411 252q0 86 -35 132.5t-103 46.5q-59 0 -99.5 -45.5t-40.5 -132.5q0 -90 36 -138t104 -48q59 0 98.5 47t39.5 138z" />
<glyph unicode="p" horiz-adv-x="558" d="M515 272q0 -132 -67.5 -205t-188.5 -73q-49 0 -84 6v-247h-90v744h87q0 -64 -8 -101l2 -1q21 52 64.5 81.5t102.5 29.5q87 0 134.5 -60.5t47.5 -173.5zM421 264q0 168 -110 168q-63 0 -99.5 -59.5t-36.5 -132.5v-164q39 -12 88 -12q158 0 158 200z" />
<glyph unicode="q" horiz-adv-x="558" d="M473 -247h-89v258q0 54 7 89l-2 1q-20 -51 -63.5 -80.5t-98.5 -29.5q-89 0 -136.5 59t-47.5 174q0 131 69.5 206t192.5 75q79 0 168 -14v-738zM384 258v165q-43 10 -89 10q-157 0 -157 -200q0 -168 109 -168q63 0 100 60t37 133z" />
<glyph unicode="r" horiz-adv-x="355" d="M334 506l-4 -89q-16 3 -30 3q-56 0 -86 -44q-39 -55 -39 -176v-200h-90v497h87q0 -62 -11 -118h2q18 60 61 97q35 31 89 31q10 0 21 -1z" />
<glyph unicode="s" horiz-adv-x="425" d="M375 150q0 -70 -57 -114.5t-153 -44.5q-65 0 -110 13l8 80q49 -20 110 -20q49 0 78.5 20.5t29.5 55.5q0 30 -24 48t-57.5 27t-67.5 21.5t-58 42.5t-24 78q0 66 51 107.5t147 41.5q46 0 96 -10l-7 -74q-43 15 -97 15q-97 0 -97 -71q0 -30 24 -48t58 -27.5t68 -22.5t58 -42 t24 -76z" />
<glyph unicode="t" horiz-adv-x="371" d="M338 3q-46 -11 -100 -11q-75 0 -104 33.5t-29 115.5v286h-102v70h102v161l90 25v-186h139v-70h-139v-254q0 -62 14.5 -83t56.5 -21q34 0 63 8z" />
<glyph unicode="u" horiz-adv-x="575" d="M490 0h-87q0 57 8 105h-2q-22 -53 -67.5 -83.5t-107.5 -30.5q-149 0 -149 159v347h89v-320q0 -56 19 -84t66 -28q61 0 101.5 55.5t40.5 138.5v238h89v-497z" />
<glyph unicode="v" horiz-adv-x="486" d="M478 497l-190 -497h-93l-187 497h101l105 -296q19 -55 29 -94h2q16 59 28 91l108 299h97z" />
<glyph unicode="w" horiz-adv-x="793" d="M777 497l-161 -497h-101l-99 293q-13 39 -28 99h-1q-10 -45 -35 -125l-83 -267h-100l-153 497h99l76 -265q29 -102 36 -130h1q17 73 34 128l85 267h96l86 -264q25 -79 38 -132h1q17 71 34 128l80 268h95z" />
<glyph unicode="x" horiz-adv-x="518" d="M498 0h-116l-126 191l-126 -191h-109l183 249l-174 248h110l123 -187l125 187h101l-171 -245z" />
<glyph unicode="y" horiz-adv-x="480" d="M472 497l-204 -539q-45 -119 -97.5 -166t-136.5 -47q-26 0 -58 6l10 80q26 -8 60 -8q42 0 74 27t57 96l20 54l-188 497h102l94 -258q16 -45 38 -123h2q11 44 49 153l80 228h98z" />
<glyph unicode="z" horiz-adv-x="447" d="M396 0h-348v63l238 356q-56 -2 -131 -2h-102v80h338v-63l-235 -353q54 2 135 2h105v-83z" />
<glyph unicode="{" horiz-adv-x="341" d="M309 -199h-18q-84 0 -120 47.5t-36 147.5v175q0 59 -24 83t-82 27v71q60 3 83 25.5t23 82.5v117q0 194 156 194h18v-69q-52 0 -71.5 -26t-19.5 -96v-116q0 -129 -93 -146v-2q93 -14 93 -148v-174q0 -70 19.5 -96t71.5 -26v-71z" />
<glyph unicode="|" horiz-adv-x="285" d="M177 -247h-71v1000h71v-1000z" />
<glyph unicode="}" horiz-adv-x="338" d="M318 281q-58 -3 -82 -27t-24 -83v-175q0 -100 -36 -147.5t-120 -47.5h-18v71q52 0 71.5 26t19.5 96v174q0 134 93 148v2q-93 12 -93 142v120q0 70 -19.5 96t-71.5 26v69h18q156 0 156 -194v-113q0 -63 23 -86t83 -26v-71z" />
<glyph unicode="~" d="M497 564q0 -65 -36 -105.5t-97 -40.5q-31 0 -54.5 11.5t-38 27.5t-27 32t-28 27.5t-34.5 11.5q-59 0 -61 -89h-67v10q0 66 36.5 106.5t97.5 40.5q37 0 65 -17.5t41.5 -38t33 -38t42.5 -17.5q58 0 60 89h67v-10z" />
<glyph unicode="&#xa1;" horiz-adv-x="320" d="M211 447q0 -25 -17.5 -42t-42.5 -17t-42.5 17t-17.5 42t17.5 42t42.5 17t42.5 -17t17.5 -42zM204 -206h-107l15 535h76z" />
<glyph unicode="&#xa2;" d="M470 136q-59 -29 -122 -33v-103h-70v103q-96 6 -147.5 64.5t-51.5 161.5q0 94 52.5 154.5t146.5 76.5v90h70v-87q59 -2 114 -23l-17 -75q-55 25 -115 25q-73 0 -115 -40.5t-42 -117.5q0 -71 37.5 -112.5t117.5 -41.5q67 0 119 30z" />
<glyph unicode="&#xa3;" d="M480 0h-407v62q94 80 94 153q0 30 -7 72h-106v70h96q-12 74 -12 110q0 193 198 193q61 0 120 -17l-20 -77q-58 20 -107 20q-100 0 -100 -109q0 -33 13 -120h159v-70h-150q6 -35 6 -67q0 -44 -18 -77t-58 -67q44 2 81 2h218v-78z" />
<glyph unicode="&#xa4;" d="M501 110l-66 -50l-80 108q-39 -24 -88 -24q-37 0 -68 13l-72 -97l-67 49l73 90q-40 46 -40 130q0 77 45 125l-78 96l66 48l74 -101q33 18 82 18q46 0 80 -17l75 101l64 -49l-77 -97q33 -43 33 -118q0 -71 -40 -121zM376 334q0 114 -104 114q-42 0 -70 -32t-28 -85 q0 -54 24.5 -87t78.5 -33q41 0 70 33.5t29 89.5z" />
<glyph unicode="&#xa5;" d="M517 650l-176 -354h143v-61h-165v-70h165v-61h-165v-104h-91v104h-165v61h165v70h-165v61h144l-173 354h100l94 -201q17 -36 46 -115h2q19 54 52 121l93 195h96z" />
<glyph unicode="&#xa6;" horiz-adv-x="285" d="M177 385h-71v368h71v-368zM177 -247h-71v378h71v-378z" />
<glyph unicode="&#xa7;" horiz-adv-x="520" d="M434 235q0 -83 -79 -141q39 -53 39 -105q0 -64 -49 -109t-140 -45q-38 0 -79 11l7 76q39 -12 75 -12q43 0 67 21t24 55q0 29 -23.5 60.5t-56.5 61.5l-67 64q-33 33 -56.5 77t-23.5 90q0 82 79 142q-39 50 -39 103q0 66 45.5 109t134.5 43q38 0 75 -8l-7 -76 q-34 10 -69 10q-84 0 -84 -72q0 -28 23.5 -60t56.5 -63l67 -65q33 -33 56.5 -77t23.5 -90zM349 223q0 22 -7.5 42.5t-25.5 43t-32 38t-42 43.5l-42 41q-43 -32 -43 -81q0 -17 6.5 -35.5t14 -32t26.5 -34.5l28 -32l38 -37l37 -36q42 29 42 80z" />
<glyph unicode="&#xa8;" horiz-adv-x="546" d="M414 654q0 -22 -15 -37.5t-38 -15.5t-38.5 15.5t-15.5 37.5t15.5 38t38.5 16q22 0 37.5 -15.5t15.5 -38.5zM222 654q0 -22 -15 -37.5t-38 -15.5t-38.5 15.5t-15.5 37.5t15.5 38t38.5 16q22 0 37.5 -15.5t15.5 -38.5z" />
<glyph unicode="&#xa9;" horiz-adv-x="756" d="M712 336q0 -140 -98 -238t-238 -98q-142 0 -239 97t-97 237q0 139 98 237t238 98t238 -97t98 -236zM641 334q0 110 -77.5 188.5t-187.5 78.5t-187 -77.5t-77 -187.5t77.5 -189t186.5 -79q110 0 187.5 78t77.5 188zM475 175q-46 -17 -99 -17q-79 0 -118.5 46.5 t-39.5 125.5t42.5 131t131.5 52q43 0 79 -13l-8 -64q-32 16 -72 16q-96 0 -96 -119q0 -111 92 -111q42 0 78 15z" />
<glyph unicode="&#xaa;" horiz-adv-x="389" d="M320 343h-74q0 32 5 53l-2 1q-10 -25 -39 -43t-62 -18q-50 0 -75 23.5t-25 62.5q0 57 52.5 89.5t144.5 32.5v18q0 60 -65 60q-55 0 -105 -26l-7 66q55 21 123 21q69 0 98.5 -31t29.5 -80q0 -33 -0.5 -82t-0.5 -60q0 -53 2 -87zM345 211h-288v71h288v-71zM245 484v9 q-123 0 -123 -59q0 -17 11.5 -27.5t31.5 -10.5q37 0 58.5 30.5t21.5 57.5z" />
<glyph unicode="&#xab;" horiz-adv-x="509" d="M437 152l-68 -36l-122 177l123 180l66 -35l-100 -144zM237 150l-70 -36l-113 179l114 182l68 -35l-92 -146z" />
<glyph unicode="&#xac;" d="M482 103h-78v157h-362v75h440v-232z" />
<glyph unicode="&#xad;" horiz-adv-x="330" d="M283 250h-236v74h236v-74z" />
<glyph unicode="&#xae;" horiz-adv-x="562" d="M501 529q0 -90 -65 -154.5t-155 -64.5q-93 0 -157 63.5t-64 155.5q0 91 64.5 154.5t156.5 63.5t156 -63t64 -155zM441 527q0 67 -47 115.5t-113 48.5q-67 0 -113.5 -47t-46.5 -114t47 -115.5t113 -48.5t113 47.5t47 113.5zM373 416h-60l-53 95h-4v-95h-49v228h79 q78 0 78 -60q0 -56 -53 -66q5 -5 19 -29zM312 578q0 28 -35 28h-21v-63h14q22 0 32 10.5t10 24.5z" />
<glyph unicode="&#xaf;" horiz-adv-x="395" d="M324 616h-253v68h253v-68z" />
<glyph unicode="&#xb0;" horiz-adv-x="376" d="M319 609q0 -58 -41 -93t-96 -35q-59 0 -94 34t-35 92t40.5 93t94.5 35q64 0 97.5 -35.5t33.5 -90.5zM249 608q0 27 -15.5 48t-47.5 21q-27 0 -44.5 -19.5t-17.5 -49.5q0 -32 17 -50t44 -18q28 0 46 19t18 49z" />
<glyph unicode="&#xb1;" d="M508 336h-190v-197h-86v197h-190v74h190v196h86v-196h190v-74zM506 0h-462v75h462v-75z" />
<glyph unicode="&#xb2;" horiz-adv-x="317" d="M266 356h-220v52l73 65q32 28 43.5 45.5t11.5 36.5t-13 31t-36 12q-32 0 -56 -19l-20 56q44 23 95 23q56 0 84 -26t28 -64q0 -53 -64 -109l-48 -41h122v-62z" />
<glyph unicode="&#xb3;" horiz-adv-x="306" d="M252 443q0 -46 -37 -70.5t-103 -24.5q-34 0 -66 8l10 53q28 -8 53 -8q61 0 61 41q0 26 -22 35q-14 5 -40 5q-17 0 -39 -2v48h21q74 0 74 43q0 36 -47 36q-27 0 -53 -13l-14 48q35 16 86 16q53 0 79 -22t26 -55q0 -49 -46 -71q27 -4 42 -22.5t15 -44.5z" />
<glyph unicode="&#xb4;" horiz-adv-x="389" d="M286 684l-150 -114l-39 48l140 126z" />
<glyph unicode="&#xb5;" horiz-adv-x="628" d="M607 65q-34 -74 -116 -74q-46 0 -64 32q-12 22 -12 50q0 12 2 26h-1q-18 -48 -60.5 -77.5t-95.5 -29.5q-59 0 -91 29l14 -268h-95v744h90v-314q0 -58 20.5 -87.5t70.5 -29.5q57 0 96 51.5t39 124.5v255h90v-351q0 -48 6.5 -64.5t23.5 -16.5q27 0 43 36z" />
<glyph unicode="&#xb6;" horiz-adv-x="576" d="M516 605h-71v-701h-154v70h73v701h152v-70zM289 247q-109 0 -166 61t-57 155q0 93 62 152.5t161 59.5v-428z" />
<glyph unicode="&#xb7;" horiz-adv-x="234" d="M181 297q0 -26 -18.5 -45t-45.5 -19t-45.5 19t-18.5 45q0 27 18.5 45.5t45.5 18.5t45.5 -18.5t18.5 -45.5z" />
<glyph unicode="&#xb8;" horiz-adv-x="400" d="M258 -40q30 -40 30 -82q0 -55 -51 -113h-73q27 34 38 59q8 18 8 36q0 7 -2 15q-4 26 -27 55z" />
<glyph unicode="&#xb9;" horiz-adv-x="309" d="M207 356h-76v231l-70 -32l-17 56l94 39h69v-294z" />
<glyph unicode="&#xba;" horiz-adv-x="419" d="M368 515q0 -80 -47.5 -129t-121.5 -49q-152 0 -152 173q0 77 46.5 125.5t118.5 48.5q67 0 111.5 -38.5t44.5 -130.5zM354 211h-292v71h292v-71zM288 514q0 104 -80 104q-34 0 -57.5 -26.5t-23.5 -79.5q0 -108 78 -108q38 0 60.5 27.5t22.5 82.5z" />
<glyph unicode="&#xbb;" horiz-adv-x="509" d="M455 296l-115 -182l-67 35l92 146l-92 144l70 36zM263 296l-125 -180l-66 35l101 144l-100 142l68 36z" />
<glyph unicode="&#xbc;" horiz-adv-x="707" d="M530 111v134l-82 -134h82zM650 55h-51v-55h-69v55h-144l-4 51l113 188h104v-183h51v-56zM610 627l-497 -648l-58 42l497 648zM207 356h-76v231l-70 -32l-17 56l94 39h69v-294z" />
<glyph unicode="&#xbd;" horiz-adv-x="711" d="M647 0h-220v51l73 66q32 27 43.5 44.5t11.5 36.5t-13 31.5t-36 12.5q-30 0 -56 -19l-20 56q48 23 95 23q56 0 84 -26t28 -64q0 -55 -64 -109l-48 -42h122v-61zM610 627l-497 -648l-58 42l497 648zM207 356h-76v231l-70 -32l-17 56l94 39h69v-294z" />
<glyph unicode="&#xbe;" horiz-adv-x="708" d="M532 111v134l-83 -134h83zM652 55h-51v-55h-70v55h-144l-4 51l113 188h105v-183h51v-56zM612 627l-497 -648l-58 42l497 648zM254 443q0 -46 -37 -71t-103 -25q-34 0 -66 8l10 53q26 -7 53 -7q62 0 62 41q0 26 -23 35q-14 5 -39 5q-18 0 -40 -2v48h21q74 0 74 43 q0 36 -47 36q-27 0 -53 -13l-14 48q35 16 86 16q53 0 79 -22t26 -55q0 -49 -46 -71q27 -4 42 -22.5t15 -44.5z" />
<glyph unicode="&#xbf;" horiz-adv-x="445" d="M314 447q0 -25 -17.5 -42t-42.5 -17t-42.5 17t-17.5 42t17.5 42t42.5 17t42.5 -17t17.5 -42zM362 -131l-12 -82q-134 4 -212 60t-78 134q0 38 15 70t36 53l45 44q23 24 40 45.5t22 56.5q2 11 2 22q0 27 -9 57h88q12 -37 12 -68q0 -9 -1 -17q-4 -39 -19.5 -64.5t-38 -50 t-43.5 -43t-35.5 -44t-14.5 -52.5q0 -50 55 -83.5t148 -37.5z" />
<glyph unicode="&#xc0;" horiz-adv-x="615" d="M606 0h-103l-56 158h-287l-56 -158h-94l246 675h102zM423 231l-90 249q-15 41 -29 92h-2q-13 -48 -28 -91l-90 -250h239zM362 777l-18 -52l-190 56l26 70z" />
<glyph unicode="&#xc1;" horiz-adv-x="615" d="M606 0h-103l-56 158h-287l-56 -158h-94l246 675h102zM423 231l-90 249q-15 41 -29 92h-2q-13 -48 -28 -91l-90 -250h239zM446 781l-190 -56l-18 52l182 74z" />
<glyph unicode="&#xc2;" horiz-adv-x="615" d="M606 0h-103l-56 158h-287l-56 -158h-94l246 675h102zM423 231l-90 249q-15 41 -29 92h-2q-13 -48 -28 -91l-90 -250h239zM464 774l-27 -50l-135 63l-132 -63l-23 48l157 85z" />
<glyph unicode="&#xc3;" horiz-adv-x="615" d="M606 0h-103l-56 158h-287l-56 -158h-94l246 675h102zM423 231l-90 249q-15 41 -29 92h-2q-13 -48 -28 -91l-90 -250h239zM481 808q-42 -73 -112 -73q-37 0 -75.5 26t-56.5 26q-36 0 -63 -45l-46 33q41 74 112 74q37 0 75.5 -26t56.5 -26q34 0 63 44z" />
<glyph unicode="&#xc4;" horiz-adv-x="615" d="M606 0h-103l-56 158h-287l-56 -158h-94l246 675h102zM423 231l-90 249q-15 41 -29 92h-2q-13 -48 -28 -91l-90 -250h239zM461 781q0 -21 -14.5 -35.5t-35.5 -14.5t-35.5 14.5t-14.5 35.5t14.5 35.5t35.5 14.5t35.5 -14.5t14.5 -35.5zM248 781q0 -21 -15 -35.5t-36 -14.5 t-35.5 14.5t-14.5 35.5t14.5 35.5t35.5 14.5t36 -14.5t15 -35.5z" />
<glyph unicode="&#xc5;" horiz-adv-x="615" d="M606 0h-103l-56 158h-287l-56 -158h-94l235 644q-50 27 -50 87q0 46 33 78t80 32q48 0 81 -32t33 -78q0 -27 -14.5 -51t-38.5 -37zM363 731q0 23 -16 40t-39 17t-39 -17t-16 -40t16 -40t39 -17t39 17t16 40zM422 231l-87 242q-14 29 -31 98h-2q-14 -55 -31 -99l-87 -241 h238z" />
<glyph unicode="&#xc6;" horiz-adv-x="781" d="M711 0h-349v163h-224l-85 -163h-96l359 675h386v-76h-250v-214h240v-74h-240v-234h259v-77zM362 236v362h-2q-39 -87 -66 -137l-122 -225h190z" />
<glyph unicode="&#xc7;" horiz-adv-x="583" d="M538 28q-87 -36 -185 -36q-156 0 -231.5 89t-75.5 240q0 163 83 261.5t247 98.5q83 0 155 -21l-15 -84q-76 26 -150 26q-110 0 -165 -74t-55 -192q0 -262 229 -262q80 0 148 34zM357 -40q30 -40 30 -82q0 -55 -51 -113h-73q27 34 38 59q8 18 8 36q0 7 -2 15q-4 26 -27 55 z" />
<glyph unicode="&#xc8;" horiz-adv-x="501" d="M432 0h-347v675h347v-76h-255v-214h243v-74h-243v-234h255v-77zM322 777l-18 -52l-190 56l26 70z" />
<glyph unicode="&#xc9;" horiz-adv-x="501" d="M432 0h-347v675h347v-76h-255v-214h243v-74h-243v-234h255v-77zM403 781l-190 -56l-18 52l182 74z" />
<glyph unicode="&#xca;" horiz-adv-x="501" d="M432 0h-347v675h347v-76h-255v-214h243v-74h-243v-234h255v-77zM414 774l-27 -50l-135 63l-132 -63l-23 48l157 85z" />
<glyph unicode="&#xcb;" horiz-adv-x="501" d="M432 0h-347v675h347v-76h-255v-214h243v-74h-243v-234h255v-77zM410 781q0 -21 -14.5 -35.5t-35.5 -14.5t-35.5 14.5t-14.5 35.5t14.5 35.5t35.5 14.5t35.5 -14.5t14.5 -35.5zM197 781q0 -21 -15 -35.5t-36 -14.5t-35.5 14.5t-14.5 35.5t14.5 35.5t35.5 14.5t36 -14.5 t15 -35.5z" />
<glyph unicode="&#xcc;" horiz-adv-x="262" d="M177 0h-92v675h92v-675zM198 777l-18 -52l-190 56l26 70z" />
<glyph unicode="&#xcd;" horiz-adv-x="262" d="M177 0h-92v675h92v-675zM267 781l-190 -56l-18 52l182 74z" />
<glyph unicode="&#xce;" horiz-adv-x="262" d="M177 0h-92v675h92v-675zM291 774l-27 -50l-135 63l-132 -63l-23 48l157 85z" />
<glyph unicode="&#xcf;" horiz-adv-x="262" d="M177 0h-92v675h92v-675zM287 781q0 -21 -14.5 -35.5t-35.5 -14.5t-35.5 14.5t-14.5 35.5t14.5 35.5t35.5 14.5t35.5 -14.5t14.5 -35.5zM74 781q0 -21 -15 -35.5t-36 -14.5t-35.5 14.5t-14.5 35.5t14.5 35.5t35.5 14.5t36 -14.5t15 -35.5z" />
<glyph unicode="&#xd0;" horiz-adv-x="687" d="M641 345q0 -169 -102.5 -259t-273.5 -90q-36 0 -91.5 2t-78.5 2v312h-94v70h94v292q17 0 56 1.5t76 2t69 0.5q345 0 345 -333zM545 338q0 265 -257 265q-24 0 -102 -3v-218h140v-70h-140v-234q32 -4 90 -4q124 0 196.5 66t72.5 198z" />
<glyph unicode="&#xd1;" horiz-adv-x="707" d="M622 0h-120l-257 418q-38 60 -77 140q7 -126 7 -341v-217h-90v675h121l251 -405q35 -57 83 -148q-7 145 -7 361v192h89v-675zM522 808q-42 -73 -112 -73q-37 0 -75.5 26t-56.5 26q-36 0 -63 -45l-46 33q41 74 112 74q37 0 75.5 -26t56.5 -26q34 0 63 44z" />
<glyph unicode="&#xd2;" horiz-adv-x="705" d="M663 345q0 -164 -91.5 -259.5t-228.5 -95.5q-148 0 -224.5 91t-76.5 249q0 164 91.5 259.5t228.5 95.5q139 0 220 -88t81 -252zM565 334q0 129 -55.5 199.5t-157.5 70.5q-89 0 -150.5 -69.5t-61.5 -191.5q0 -125 53.5 -198t157.5 -73q89 0 151.5 69t62.5 193zM419 777 l-18 -52l-190 56l26 70z" />
<glyph unicode="&#xd3;" horiz-adv-x="705" d="M663 345q0 -164 -91.5 -259.5t-228.5 -95.5q-148 0 -224.5 91t-76.5 249q0 164 91.5 259.5t228.5 95.5q139 0 220 -88t81 -252zM565 334q0 129 -55.5 199.5t-157.5 70.5q-89 0 -150.5 -69.5t-61.5 -191.5q0 -125 53.5 -198t157.5 -73q89 0 151.5 69t62.5 193zM501 781 l-190 -56l-18 52l182 74z" />
<glyph unicode="&#xd4;" horiz-adv-x="705" d="M663 345q0 -164 -91.5 -259.5t-228.5 -95.5q-148 0 -224.5 91t-76.5 249q0 164 91.5 259.5t228.5 95.5q139 0 220 -88t81 -252zM565 334q0 129 -55.5 199.5t-157.5 70.5q-89 0 -150.5 -69.5t-61.5 -191.5q0 -125 53.5 -198t157.5 -73q89 0 151.5 69t62.5 193zM520 774 l-27 -50l-135 63l-132 -63l-23 48l157 85z" />
<glyph unicode="&#xd5;" horiz-adv-x="705" d="M663 345q0 -164 -91.5 -259.5t-228.5 -95.5q-148 0 -224.5 91t-76.5 249q0 164 91.5 259.5t228.5 95.5q139 0 220 -88t81 -252zM565 334q0 129 -55.5 199.5t-157.5 70.5q-89 0 -150.5 -69.5t-61.5 -191.5q0 -125 53.5 -198t157.5 -73q89 0 151.5 69t62.5 193zM526 808 q-42 -73 -112 -73q-37 0 -75.5 26t-56.5 26q-36 0 -63 -45l-46 33q41 74 112 74q37 0 75.5 -26t56.5 -26q34 0 63 44z" />
<glyph unicode="&#xd6;" horiz-adv-x="705" d="M663 345q0 -164 -91.5 -259.5t-228.5 -95.5q-148 0 -224.5 91t-76.5 249q0 164 91.5 259.5t228.5 95.5q139 0 220 -88t81 -252zM565 334q0 129 -55.5 199.5t-157.5 70.5q-89 0 -150.5 -69.5t-61.5 -191.5q0 -125 53.5 -198t157.5 -73q89 0 151.5 69t62.5 193zM509 781 q0 -21 -14.5 -35.5t-35.5 -14.5t-35.5 14.5t-14.5 35.5t14.5 35.5t35.5 14.5t35.5 -14.5t14.5 -35.5zM296 781q0 -21 -15 -35.5t-36 -14.5t-35.5 14.5t-14.5 35.5t14.5 35.5t35.5 14.5t36 -14.5t15 -35.5z" />
<glyph unicode="&#xd7;" d="M495 132l-55 -55l-168 168l-167 -168l-50 50l168 168l-168 167l55 55l167 -168l168 168l50 -50l-168 -167z" />
<glyph unicode="&#xd8;" horiz-adv-x="705" d="M663 343q0 -164 -91 -258.5t-232 -94.5q-42 0 -77 9l-38 -102l-68 22l37 102q-152 75 -152 311q0 162 91 257.5t228 95.5q36 0 71 -8l35 97l69 -23l-35 -94q77 -34 119.5 -113.5t42.5 -200.5zM568 333q0 177 -98 237l-180 -492q25 -7 53 -7h13q93 2 152.5 70.5 t59.5 191.5zM405 598q-23 6 -49 6q-9 0 -19 -1q-86 -6 -143 -74.5t-57 -187.5q0 -170 88 -230z" />
<glyph unicode="&#xd9;" horiz-adv-x="693" d="M607 258q0 -132 -68.5 -200t-200.5 -68q-76 0 -128 19.5t-78 55t-36.5 74t-10.5 88.5v448h92v-441q0 -79 36.5 -123.5t130.5 -44.5q90 0 131.5 42.5t41.5 142.5v424h90v-417zM411 777l-18 -52l-190 56l26 70z" />
<glyph unicode="&#xda;" horiz-adv-x="693" d="M607 258q0 -132 -68.5 -200t-200.5 -68q-76 0 -128 19.5t-78 55t-36.5 74t-10.5 88.5v448h92v-441q0 -79 36.5 -123.5t130.5 -44.5q90 0 131.5 42.5t41.5 142.5v424h90v-417zM489 781l-190 -56l-18 52l182 74z" />
<glyph unicode="&#xdb;" horiz-adv-x="693" d="M607 258q0 -132 -68.5 -200t-200.5 -68q-76 0 -128 19.5t-78 55t-36.5 74t-10.5 88.5v448h92v-441q0 -79 36.5 -123.5t130.5 -44.5q90 0 131.5 42.5t41.5 142.5v424h90v-417zM505 774l-27 -50l-135 63l-132 -63l-23 48l157 85z" />
<glyph unicode="&#xdc;" horiz-adv-x="693" d="M607 258q0 -132 -68.5 -200t-200.5 -68q-76 0 -128 19.5t-78 55t-36.5 74t-10.5 88.5v448h92v-441q0 -79 36.5 -123.5t130.5 -44.5q90 0 131.5 42.5t41.5 142.5v424h90v-417zM497 781q0 -21 -14.5 -35.5t-35.5 -14.5t-35.5 14.5t-14.5 35.5t14.5 35.5t35.5 14.5 t35.5 -14.5t14.5 -35.5zM284 781q0 -21 -15 -35.5t-36 -14.5t-35.5 14.5t-14.5 35.5t14.5 35.5t35.5 14.5t36 -14.5t15 -35.5z" />
<glyph unicode="&#xdd;" horiz-adv-x="537" d="M527 675l-215 -432v-243h-92v243l-211 432h101l107 -228q29 -60 51 -117h1q16 41 58 129l104 216h96zM421 781l-190 -56l-18 52l182 74z" />
<glyph unicode="&#xde;" horiz-adv-x="530" d="M512 367q0 -104 -76.5 -168.5t-197.5 -64.5q-36 0 -61 4v-138h-92v675h92v-102q54 2 84 2q119 0 185 -53.5t66 -154.5zM417 360q0 140 -173 140q-40 0 -67 -5v-281q27 -4 69 -4q80 0 125.5 39t45.5 111z" />
<glyph unicode="&#xdf;" horiz-adv-x="593" d="M552 149q0 -70 -54.5 -114.5t-144.5 -44.5q-53 0 -99 11l6 79q48 -17 92 -17q54 0 81 21.5t27 53.5q0 29 -20.5 50.5t-49 37t-57.5 33.5t-49.5 49.5t-20.5 74.5q0 33 14 58.5t33 40.5l40 30q20 15 34 35t14 45q0 36 -26 54.5t-69 18.5q-128 0 -128 -160v-505h-90v500 q0 122 61 178.5t162 56.5q85 0 133.5 -37t48.5 -98q0 -37 -14 -64.5t-34 -42.5t-40 -28t-34 -30.5t-14 -41.5q0 -28 20.5 -49.5t49.5 -37t58 -34t49.5 -49.5t20.5 -74z" />
<glyph unicode="&#xe0;" horiz-adv-x="521" d="M437 0h-87q0 71 5 99h-2q-19 -47 -64 -77.5t-105 -30.5q-62 0 -100 37t-38 97q0 81 78.5 126t220.5 45v33q0 54 -25 80.5t-84 26.5q-77 0 -144 -37l-19 73q84 35 177 35q102 0 143.5 -42.5t41.5 -121.5v-200q0 -57 2 -143zM345 220v13q-211 0 -211 -95q0 -33 21 -54.5 t55 -21.5q58 0 96.5 48t38.5 110zM325 619l-39 -49l-150 114l49 60z" />
<glyph unicode="&#xe1;" horiz-adv-x="521" d="M437 0h-87q0 71 5 99h-2q-19 -47 -64 -77.5t-105 -30.5q-62 0 -100 37t-38 97q0 81 78.5 126t220.5 45v33q0 54 -25 80.5t-84 26.5q-77 0 -144 -37l-19 73q84 35 177 35q102 0 143.5 -42.5t41.5 -121.5v-200q0 -57 2 -143zM345 220v13q-211 0 -211 -95q0 -33 21 -54.5 t55 -21.5q58 0 96.5 48t38.5 110zM381 684l-150 -114l-39 48l140 126z" />
<glyph unicode="&#xe2;" horiz-adv-x="521" d="M437 0h-87q0 71 5 99h-2q-19 -47 -64 -77.5t-105 -30.5q-62 0 -100 37t-38 97q0 81 78.5 126t220.5 45v33q0 54 -25 80.5t-84 26.5q-77 0 -144 -37l-19 73q84 35 177 35q102 0 143.5 -42.5t41.5 -121.5v-200q0 -57 2 -143zM345 220v13q-211 0 -211 -95q0 -33 21 -54.5 t55 -21.5q58 0 96.5 48t38.5 110zM395 614l-40 -44l-99 85l-100 -85l-39 42l140 132z" />
<glyph unicode="&#xe3;" horiz-adv-x="521" d="M437 0h-87q0 71 5 99h-2q-19 -47 -64 -77.5t-105 -30.5q-62 0 -100 37t-38 97q0 81 78.5 126t220.5 45v33q0 54 -25 80.5t-84 26.5q-77 0 -144 -37l-19 73q84 35 177 35q102 0 143.5 -42.5t41.5 -121.5v-200q0 -57 2 -143zM345 220v13q-211 0 -211 -95q0 -33 21 -54.5 t55 -21.5q58 0 96.5 48t38.5 110zM409 672q-41 -78 -109 -78q-35 0 -72 27.5t-55 27.5q-33 0 -59 -47l-45 36q41 77 109 77q35 0 72 -27t55 -27q33 0 60 46z" />
<glyph unicode="&#xe4;" horiz-adv-x="521" d="M437 0h-87q0 71 5 99h-2q-19 -47 -64 -77.5t-105 -30.5q-62 0 -100 37t-38 97q0 81 78.5 126t220.5 45v33q0 54 -25 80.5t-84 26.5q-77 0 -144 -37l-19 73q84 35 177 35q102 0 143.5 -42.5t41.5 -121.5v-200q0 -57 2 -143zM345 220v13q-211 0 -211 -95q0 -33 21 -54.5 t55 -21.5q58 0 96.5 48t38.5 110zM404 654q0 -22 -15 -37.5t-38 -15.5t-38.5 15.5t-15.5 37.5t15.5 38t38.5 16q22 0 37.5 -15.5t15.5 -38.5zM212 654q0 -22 -15 -37.5t-38 -15.5t-38.5 15.5t-15.5 37.5t15.5 38t38.5 16q22 0 37.5 -15.5t15.5 -38.5z" />
<glyph unicode="&#xe5;" horiz-adv-x="521" d="M437 0h-87q0 71 5 99h-2q-19 -47 -64 -77.5t-105 -30.5q-62 0 -100 37t-38 97q0 81 78.5 126t220.5 45v33q0 54 -25 80.5t-84 26.5q-77 0 -144 -37l-19 73q84 35 177 35q102 0 143.5 -42.5t41.5 -121.5v-200q0 -57 2 -143zM345 220v13q-211 0 -211 -95q0 -33 21 -54.5 t55 -21.5q58 0 96.5 48t38.5 110zM371 662q0 -45 -33.5 -77t-80.5 -32q-48 0 -80.5 31t-32.5 78t33.5 78.5t79.5 31.5q48 0 81 -31.5t33 -78.5zM313 662q0 23 -16.5 40t-39.5 17t-39 -17t-16 -40t16 -39.5t39 -16.5t39.5 16.5t16.5 39.5z" />
<glyph unicode="&#xe6;" horiz-adv-x="807" d="M761 297q0 -16 -3 -46h-324v-15q0 -172 156 -172q76 0 142 30l13 -72q-77 -31 -172 -31q-80 0 -130 31.5t-68 82.5h-1q-24 -49 -73 -81.5t-116 -32.5q-62 0 -100.5 37t-38.5 97q0 81 78.5 126t220.5 45v33q0 54 -25 80.5t-84 26.5q-77 0 -144 -37l-19 73q84 35 177 35 q118 0 154 -78h1q53 77 158 77q99 0 148.5 -58.5t49.5 -150.5zM669 315v7q0 52 -28 84q-30 34 -82 34q-49 0 -82 -34t-41 -91h233zM345 220v13q-211 0 -211 -95q0 -33 21 -54.5t55 -21.5q58 0 96.5 48t38.5 110z" />
<glyph unicode="&#xe7;" horiz-adv-x="435" d="M407 19q-67 -27 -148 -27q-99 0 -158.5 56t-59.5 184q0 124 62.5 198.5t179.5 74.5q67 0 122 -21l-17 -77q-55 23 -113 23q-66 0 -102.5 -51t-36.5 -135q0 -174 141 -174q65 0 116 24zM267 -40q30 -40 30 -82q0 -55 -51 -113h-73q27 34 38 59q8 18 8 36q0 7 -2 15 q-4 26 -27 55z" />
<glyph unicode="&#xe8;" horiz-adv-x="508" d="M462 297q0 -16 -3 -46h-325v-13q0 -174 157 -174q76 0 142 30l13 -72q-78 -31 -172 -31q-233 0 -233 255q0 115 59.5 187.5t162.5 72.5q100 0 149.5 -58.5t49.5 -150.5zM370 315v7q0 52 -28 84q-31 34 -83 34q-49 0 -81.5 -34t-40.5 -91h233zM329 619l-39 -49l-150 114 l49 60z" />
<glyph unicode="&#xe9;" horiz-adv-x="508" d="M462 297q0 -16 -3 -46h-325v-13q0 -174 157 -174q76 0 142 30l13 -72q-78 -31 -172 -31q-233 0 -233 255q0 115 59.5 187.5t162.5 72.5q100 0 149.5 -58.5t49.5 -150.5zM370 315v7q0 52 -28 84q-31 34 -83 34q-49 0 -81.5 -34t-40.5 -91h233zM386 684l-150 -114l-39 48 l140 126z" />
<glyph unicode="&#xea;" horiz-adv-x="508" d="M462 297q0 -16 -3 -46h-325v-13q0 -174 157 -174q76 0 142 30l13 -72q-78 -31 -172 -31q-233 0 -233 255q0 115 59.5 187.5t162.5 72.5q100 0 149.5 -58.5t49.5 -150.5zM370 315v7q0 52 -28 84q-31 34 -83 34q-49 0 -81.5 -34t-40.5 -91h233zM399 614l-40 -44l-99 85 l-100 -85l-39 42l140 132z" />
<glyph unicode="&#xeb;" horiz-adv-x="508" d="M462 297q0 -16 -3 -46h-325v-13q0 -174 157 -174q76 0 142 30l13 -72q-78 -31 -172 -31q-233 0 -233 255q0 115 59.5 187.5t162.5 72.5q100 0 149.5 -58.5t49.5 -150.5zM370 315v7q0 52 -28 84q-31 34 -83 34q-49 0 -81.5 -34t-40.5 -91h233zM412 654q0 -22 -15 -37.5 t-38 -15.5t-38.5 15.5t-15.5 37.5t15.5 38t38.5 16q22 0 37.5 -15.5t15.5 -38.5zM220 654q0 -22 -15 -37.5t-38 -15.5t-38.5 15.5t-15.5 37.5t15.5 38t38.5 16q22 0 37.5 -15.5t15.5 -38.5z" />
<glyph unicode="&#xec;" horiz-adv-x="260" d="M175 0h-90v497h90v-497zM217 619l-39 -49l-150 114l49 60z" />
<glyph unicode="&#xed;" horiz-adv-x="260" d="M175 0h-90v497h90v-497zM236 684l-150 -114l-39 48l140 126z" />
<glyph unicode="&#xee;" horiz-adv-x="260" d="M175 0h-90v497h90v-497zM270 614l-40 -44l-99 85l-100 -85l-39 42l140 132z" />
<glyph unicode="&#xef;" horiz-adv-x="260" d="M175 0h-90v497h90v-497zM279 654q0 -22 -15 -37.5t-38 -15.5t-38.5 15.5t-15.5 37.5t15.5 38t38.5 16q22 0 37.5 -15.5t15.5 -38.5zM87 654q0 -22 -15 -37.5t-38 -15.5t-38.5 15.5t-15.5 37.5t15.5 38t38.5 16q22 0 37.5 -15.5t15.5 -38.5z" />
<glyph unicode="&#xf0;" horiz-adv-x="546" d="M503 273q0 -138 -66 -210t-171 -72t-165.5 64t-60.5 189q0 113 64.5 187t170.5 74q77 0 105 -45q-4 8 -30 51q-26 45 -64 86l-102 -46l-38 47l94 42q-24 22 -81 66l90 38q43 -35 75 -68l100 44l39 -47l-98 -42q138 -165 138 -358zM410 261q0 79 -35.5 124.5t-102.5 45.5 q-59 0 -99 -46t-40 -134t38 -136t105 -48q60 0 97 47.5t37 146.5z" />
<glyph unicode="&#xf1;" horiz-adv-x="575" d="M491 0h-90v320q0 57 -19 84.5t-66 27.5q-61 0 -101 -55.5t-40 -138.5v-238h-90v497h87q0 -65 -8 -105h2q22 53 67.5 83.5t107.5 30.5q150 0 150 -159v-347zM461 672q-41 -78 -109 -78q-35 0 -72 27.5t-55 27.5q-33 0 -59 -47l-45 36q41 77 109 77q35 0 72 -27t55 -27 q33 0 60 46z" />
<glyph unicode="&#xf2;" horiz-adv-x="545" d="M505 257q0 -114 -67 -190t-176 -76q-105 0 -164 63t-59 190q0 112 66 187t176 75q102 0 163 -60.5t61 -188.5zM411 252q0 86 -35 132.5t-103 46.5q-59 0 -99.5 -45.5t-40.5 -132.5q0 -90 36 -138t104 -48q59 0 98.5 47t39.5 138zM347 619l-39 -49l-150 114l49 60z" />
<glyph unicode="&#xf3;" horiz-adv-x="545" d="M505 257q0 -114 -67 -190t-176 -76q-105 0 -164 63t-59 190q0 112 66 187t176 75q102 0 163 -60.5t61 -188.5zM411 252q0 86 -35 132.5t-103 46.5q-59 0 -99.5 -45.5t-40.5 -132.5q0 -90 36 -138t104 -48q59 0 98.5 47t39.5 138zM401 684l-150 -114l-39 48l140 126z" />
<glyph unicode="&#xf4;" horiz-adv-x="545" d="M505 257q0 -114 -67 -190t-176 -76q-105 0 -164 63t-59 190q0 112 66 187t176 75q102 0 163 -60.5t61 -188.5zM411 252q0 86 -35 132.5t-103 46.5q-59 0 -99.5 -45.5t-40.5 -132.5q0 -90 36 -138t104 -48q59 0 98.5 47t39.5 138zM411 614l-40 -44l-99 85l-100 -85l-39 42 l140 132z" />
<glyph unicode="&#xf5;" horiz-adv-x="545" d="M505 257q0 -114 -67 -190t-176 -76q-105 0 -164 63t-59 190q0 112 66 187t176 75q102 0 163 -60.5t61 -188.5zM411 252q0 86 -35 132.5t-103 46.5q-59 0 -99.5 -45.5t-40.5 -132.5q0 -90 36 -138t104 -48q59 0 98.5 47t39.5 138zM433 672q-41 -78 -109 -78 q-35 0 -72 27.5t-55 27.5q-33 0 -59 -47l-45 36q41 77 109 77q35 0 72 -27t55 -27q33 0 60 46z" />
<glyph unicode="&#xf6;" horiz-adv-x="545" d="M505 257q0 -114 -67 -190t-176 -76q-105 0 -164 63t-59 190q0 112 66 187t176 75q102 0 163 -60.5t61 -188.5zM411 252q0 86 -35 132.5t-103 46.5q-59 0 -99.5 -45.5t-40.5 -132.5q0 -90 36 -138t104 -48q59 0 98.5 47t39.5 138zM422 654q0 -22 -15 -37.5t-38 -15.5 t-38.5 15.5t-15.5 37.5t15.5 38t38.5 16q22 0 37.5 -15.5t15.5 -38.5zM230 654q0 -22 -15 -37.5t-38 -15.5t-38.5 15.5t-15.5 37.5t15.5 38t38.5 16q22 0 37.5 -15.5t15.5 -38.5z" />
<glyph unicode="&#xf7;" d="M334 498q0 -25 -17.5 -42.5t-42.5 -17.5t-43 17.5t-18 42.5t18 42.5t43 17.5t42.5 -17.5t17.5 -42.5zM508 260h-466v75h466v-75zM334 96q0 -25 -17.5 -43t-42.5 -18q-26 0 -43.5 17.5t-17.5 43.5q0 25 18 42.5t43 17.5t42.5 -17.5t17.5 -42.5z" />
<glyph unicode="&#xf8;" horiz-adv-x="545" d="M505 257q0 -114 -67 -190t-175 -76q-33 0 -63 8l-40 -103l-58 19l40 104q-103 61 -103 225q0 113 66 187.5t176 74.5q26 0 47 -4l36 94l58 -19l-36 -92q119 -57 119 -228zM418 252q0 112 -62 156l-128 -336q24 -8 53 -8q58 2 97.5 49.5t39.5 138.5zM300 431q-15 2 -28 2 h-9q-56 -3 -96.5 -46.5t-40.5 -133.5q0 -105 50 -150z" />
<glyph unicode="&#xf9;" horiz-adv-x="575" d="M490 0h-87q0 57 8 105h-2q-22 -53 -67.5 -83.5t-107.5 -30.5q-149 0 -149 159v347h89v-320q0 -56 19 -84t66 -28q61 0 101.5 55.5t40.5 138.5v238h89v-497zM355 619l-39 -49l-150 114l49 60z" />
<glyph unicode="&#xfa;" horiz-adv-x="575" d="M490 0h-87q0 57 8 105h-2q-22 -53 -67.5 -83.5t-107.5 -30.5q-149 0 -149 159v347h89v-320q0 -56 19 -84t66 -28q61 0 101.5 55.5t40.5 138.5v238h89v-497zM416 684l-150 -114l-39 48l140 126z" />
<glyph unicode="&#xfb;" horiz-adv-x="575" d="M490 0h-87q0 57 8 105h-2q-22 -53 -67.5 -83.5t-107.5 -30.5q-149 0 -149 159v347h89v-320q0 -56 19 -84t66 -28q61 0 101.5 55.5t40.5 138.5v238h89v-497zM424 614l-40 -44l-99 85l-100 -85l-39 42l140 132z" />
<glyph unicode="&#xfc;" horiz-adv-x="575" d="M490 0h-87q0 57 8 105h-2q-22 -53 -67.5 -83.5t-107.5 -30.5q-149 0 -149 159v347h89v-320q0 -56 19 -84t66 -28q61 0 101.5 55.5t40.5 138.5v238h89v-497zM432 654q0 -22 -15 -37.5t-38 -15.5t-38.5 15.5t-15.5 37.5t15.5 38t38.5 16q22 0 37.5 -15.5t15.5 -38.5z M240 654q0 -22 -15 -37.5t-38 -15.5t-38.5 15.5t-15.5 37.5t15.5 38t38.5 16q22 0 37.5 -15.5t15.5 -38.5z" />
<glyph unicode="&#xfd;" horiz-adv-x="480" d="M472 497l-204 -539q-45 -119 -97.5 -166t-136.5 -47q-26 0 -58 6l10 80q26 -8 60 -8q42 0 74 27t57 96l20 54l-188 497h102l94 -258q16 -45 38 -123h2q11 44 49 153l80 228h98zM382 684l-150 -114l-39 48l140 126z" />
<glyph unicode="&#xfe;" horiz-adv-x="558" d="M515 272q0 -132 -67.5 -205t-188.5 -73q-49 0 -84 6v-247h-90v977h90v-218q0 -73 -7 -111l2 -1q21 49 63.5 77.5t99.5 28.5q87 0 134.5 -60.5t47.5 -173.5zM421 264q0 168 -110 168q-63 0 -99.5 -59.5t-36.5 -132.5v-164q39 -12 88 -12q158 0 158 200z" />
<glyph unicode="&#xff;" horiz-adv-x="480" d="M472 497l-204 -539q-45 -119 -97.5 -166t-136.5 -47q-26 0 -58 6l10 80q26 -8 60 -8q42 0 74 27t57 96l20 54l-188 497h102l94 -258q16 -45 38 -123h2q11 44 49 153l80 228h98zM389 654q0 -22 -15 -37.5t-38 -15.5t-38.5 15.5t-15.5 37.5t15.5 38t38.5 16 q22 0 37.5 -15.5t15.5 -38.5zM197 654q0 -22 -15 -37.5t-38 -15.5t-38.5 15.5t-15.5 37.5t15.5 38t38.5 16q22 0 37.5 -15.5t15.5 -38.5z" />
<glyph unicode="&#x131;" horiz-adv-x="260" d="M175 0h-90v497h90v-497z" />
<glyph unicode="&#x152;" horiz-adv-x="863" d="M794 0h-341q-60 -10 -110 -10q-148 0 -224.5 91t-76.5 249q0 163 91 259t227 96q48 0 101 -10h333v-76h-256v-214h244v-74h-244v-234h256v-77zM447 86v504q-47 14 -93 14q-90 0 -152 -69.5t-62 -191.5q0 -125 53.5 -198t157.5 -73q49 0 96 14z" />
<glyph unicode="&#x153;" horiz-adv-x="872" d="M827 297q0 -16 -3 -46h-325v-13q0 -174 157 -174q76 0 142 30l13 -72q-77 -31 -172 -31q-138 0 -192 101q-63 -101 -185 -101q-105 0 -164 63t-59 190q0 112 66 187t176 75q124 0 178 -94q57 94 169 94q100 0 149.5 -58.5t49.5 -150.5zM735 315v7q0 52 -29 84 q-30 34 -82 34q-49 0 -81.5 -34t-40.5 -91h233zM411 252q0 86 -35 132.5t-103 46.5q-59 0 -99.5 -45.5t-40.5 -132.5q0 -90 36 -138t104 -48q59 0 98.5 47t39.5 138z" />
<glyph unicode="&#x178;" horiz-adv-x="537" d="M527 675l-215 -432v-243h-92v243l-211 432h101l107 -228q29 -60 51 -117h1q16 41 58 129l104 216h96zM422 781q0 -21 -14.5 -35.5t-35.5 -14.5t-35.5 14.5t-14.5 35.5t14.5 35.5t35.5 14.5t35.5 -14.5t14.5 -35.5zM209 781q0 -21 -15 -35.5t-36 -14.5t-35.5 14.5 t-14.5 35.5t14.5 35.5t35.5 14.5t36 -14.5t15 -35.5z" />
<glyph unicode="&#x2c6;" horiz-adv-x="433" d="M353 614l-40 -44l-99 85l-100 -85l-39 42l140 132z" />
<glyph unicode="&#x2da;" horiz-adv-x="383" d="M305 651q0 -45 -33.5 -77t-80.5 -32q-48 0 -80.5 31t-32.5 78t33.5 78.5t79.5 31.5q48 0 81 -31.5t33 -78.5zM247 651q0 23 -16.5 40t-39.5 17t-39 -17t-16 -40t16 -39.5t39 -16.5t39.5 16.5t16.5 39.5z" />
<glyph unicode="&#x2dc;" horiz-adv-x="496" d="M415 672q-41 -78 -109 -78q-35 0 -72 27.5t-55 27.5q-33 0 -59 -47l-45 36q41 77 109 77q35 0 72 -27t55 -27q33 0 60 46z" />
<glyph unicode="&#x3bc;" horiz-adv-x="628" d="M607 65q-34 -74 -116 -74q-46 0 -64 32q-12 22 -12 50q0 12 2 26h-1q-18 -48 -60.5 -77.5t-95.5 -29.5q-59 0 -91 29l14 -268h-95v744h90v-314q0 -58 20.5 -87.5t70.5 -29.5q57 0 96 51.5t39 124.5v255h90v-351q0 -48 6.5 -64.5t23.5 -16.5q27 0 43 36z" />
<glyph unicode="&#x2000;" horiz-adv-x="428" />
<glyph unicode="&#x2001;" horiz-adv-x="857" />
<glyph unicode="&#x2002;" horiz-adv-x="428" />
<glyph unicode="&#x2003;" horiz-adv-x="857" />
<glyph unicode="&#x2004;" horiz-adv-x="285" />
<glyph unicode="&#x2005;" horiz-adv-x="214" />
<glyph unicode="&#x2006;" horiz-adv-x="142" />
<glyph unicode="&#x2007;" horiz-adv-x="142" />
<glyph unicode="&#x2008;" horiz-adv-x="107" />
<glyph unicode="&#x2009;" horiz-adv-x="171" />
<glyph unicode="&#x200a;" horiz-adv-x="47" />
<glyph unicode="&#x2010;" horiz-adv-x="330" d="M283 250h-236v74h236v-74z" />
<glyph unicode="&#x2011;" horiz-adv-x="330" d="M283 250h-236v74h236v-74z" />
<glyph unicode="&#x2013;" d="M550 259h-550v78h550v-78z" />
<glyph unicode="&#x2014;" horiz-adv-x="1000" d="M882 259h-764v78h764v-78z" />
<glyph unicode="&#x2018;" horiz-adv-x="243" d="M203 715q-56 -61 -56 -105q0 -21 13 -38q13 -16 13 -34q0 -12 -6 -24q-15 -32 -51 -32q-42 0 -57 43q-5 16 -5 34q0 53 45 118q26 37 65 73z" />
<glyph unicode="&#x2019;" horiz-adv-x="243" d="M126 743q42 0 57 -43q5 -16 5 -34q0 -53 -45 -118q-26 -37 -65 -73l-39 35q56 61 56 105q0 21 -13 38q-13 16 -13 34q0 12 6 25q15 31 51 31z" />
<glyph unicode="&#x201a;" horiz-adv-x="243" d="M126 113q41 0 56 -43q6 -17 6 -36q0 -50 -44 -114q-26 -37 -66 -74l-39 34q57 61 57 105q0 21 -14 39q-13 15 -13 33q0 12 6 25q15 31 51 31z" />
<glyph unicode="&#x201c;" horiz-adv-x="433" d="M393 715q-56 -61 -56 -105q0 -21 13 -38q13 -16 13 -34q0 -12 -6 -24q-15 -32 -51 -32q-42 0 -57 43q-5 16 -5 34q0 53 45 118q26 37 65 73zM203 715q-56 -61 -56 -105q0 -21 13 -38q13 -16 13 -34q0 -12 -6 -24q-15 -32 -51 -32q-42 0 -57 43q-5 16 -5 34q0 53 45 118 q26 37 65 73z" />
<glyph unicode="&#x201d;" horiz-adv-x="433" d="M316 743q42 0 57 -43q5 -16 5 -34q0 -53 -45 -118q-26 -37 -65 -73l-39 35q56 61 56 105q0 21 -13 38q-13 16 -13 34q0 12 6 25q15 31 51 31zM126 743q42 0 57 -43q5 -16 5 -34q0 -53 -45 -118q-26 -37 -65 -73l-39 35q56 61 56 105q0 21 -13 38q-13 16 -13 34q0 12 6 25 q15 31 51 31z" />
<glyph unicode="&#x201e;" horiz-adv-x="433" d="M316 113q41 0 56 -43q6 -17 6 -36q0 -50 -44 -114q-26 -37 -66 -74l-39 34q57 61 57 105q0 21 -14 39q-13 15 -13 33q0 12 6 25q15 31 51 31zM126 113q41 0 56 -43q6 -17 6 -36q0 -50 -44 -114q-26 -37 -66 -74l-39 34q57 61 57 105q0 21 -14 39q-13 15 -13 33q0 12 6 25 q15 31 51 31z" />
<glyph unicode="&#x2022;" horiz-adv-x="420" d="M331 297q0 -50 -35.5 -85.5t-85.5 -35.5t-85.5 35.5t-35.5 85.5t35.5 85.5t85.5 35.5t85.5 -35.5t35.5 -85.5z" />
<glyph unicode="&#x2026;" horiz-adv-x="665" d="M603 51q0 -25 -18 -42.5t-43 -17.5t-42.5 17.5t-17.5 42.5t17.5 43t42.5 18q26 0 43.5 -18t17.5 -43zM388 51q0 -25 -18 -42.5t-43 -17.5t-42.5 17.5t-17.5 42.5t17.5 43t42.5 18t43 -18t18 -43zM173 51q0 -25 -17.5 -42.5t-42.5 -17.5t-43 17.5t-18 42.5t18 43t43 18 t42.5 -18t17.5 -43z" />
<glyph unicode="&#x202f;" horiz-adv-x="171" />
<glyph unicode="&#x2039;" horiz-adv-x="313" d="M240 152l-68 -37l-119 178l120 181l66 -36l-97 -144z" />
<glyph unicode="&#x203a;" horiz-adv-x="313" d="M260 296l-121 -181l-66 36l98 144l-97 142l68 37z" />
<glyph unicode="&#x205f;" horiz-adv-x="214" />
<glyph unicode="&#x20ac;" d="M514 24q-77 -34 -164 -34q-221 0 -251 232h-88v60h83q-1 10 -1 32q0 21 2 57h-84v60h93q20 106 85.5 167.5t179.5 61.5q71 0 136 -27l-22 -72q-57 26 -126 26q-128 0 -160 -156h190v-60h-200q0 -7 -0.5 -22.5t-0.5 -24.5q0 -29 1 -42h200v-60h-193q13 -80 54.5 -118 t118.5 -38q62 0 126 28z" />
<glyph unicode="&#x2122;" horiz-adv-x="699" d="M647 394h-69l-22 147l-7 54l-12 -46l-45 -155h-69l-44 157l-11 44l-3 -37l-24 -164h-64l44 281h86l45 -154l10 -46l9 42l47 158h86zM260 620h-73v-226h-69v226h-74v55h216v-55z" />
</font>
</defs>
</svg>
