<?xml version="1.0" standalone="no"?>
<!DOCTYPE svg PUBLIC "-//W3C//DTD SVG 1.1//EN" "http://www.w3.org/Graphics/SVG/1.1/DTD/svg11.dtd" >
<svg xmlns="http://www.w3.org/2000/svg">
<metadata>
This is a custom SVG webfont generated by Font Squirrel.
</metadata>
<defs>
<font id="webfonthjtT3iNt" horiz-adv-x="550" >
<font-face units-per-em="1000" ascent="800" descent="-200" />
<missing-glyph horiz-adv-x="218" />
<glyph unicode=" "  horiz-adv-x="218" />
<glyph unicode="&#x09;" horiz-adv-x="218" />
<glyph unicode="&#xa0;" horiz-adv-x="218" />
<glyph unicode="!" horiz-adv-x="313" d="M297 701l-115 -541h-61l90 541h86zM182 46q0 -23 -15.5 -38.5t-37.5 -15.5t-37 15t-15 36q0 23 15.5 38.5t38.5 15.5q22 0 36.5 -15t14.5 -36z" />
<glyph unicode="&#x22;" horiz-adv-x="343" d="M376 698l-55 -220h-53l28 220h80zM221 698l-55 -220h-53l28 220h80z" />
<glyph unicode="#" d="M560 470l-10 -51h-96l-53 -181h90l-10 -51h-96l-56 -187h-58l56 187h-155l-56 -187h-58l56 187h-92l10 51h97l54 181h-93l10 51h98l53 180h58l-52 -180h154l52 180h59l-53 -180h91zM396 419h-155l-53 -181h154z" />
<glyph unicode="$" d="M485 625l-15 -68q-51 17 -112 17q-70 0 -108.5 -29.5t-38.5 -73.5q0 -33 24 -57t58 -40.5t68 -35.5t58 -52t24 -78q0 -67 -54.5 -122t-145.5 -67l-20 -104h-58l20 101q-55 0 -119 16l16 71q54 -23 128 -23q69 0 111 33.5t42 77.5q0 36 -23.5 62t-57.5 43t-67.5 35.5 t-57 50t-23.5 76.5q0 67 53.5 116.5t138.5 58.5l18 97h58l-17 -94q56 -2 100 -11z" />
<glyph unicode="%" horiz-adv-x="731" d="M380 553q0 -92 -53 -148.5t-123 -56.5q-57 0 -85.5 28.5t-28.5 79.5q0 91 53 147t122 56q115 0 115 -106zM707 631l-611 -651l-42 37l610 651zM674 195q0 -91 -53 -147.5t-122 -56.5q-57 0 -86 28t-29 79q0 91 53 147.5t122 56.5q57 0 86 -28t29 -79zM316 544 q0 63 -58 63q-43 0 -73.5 -40.5t-30.5 -102.5q0 -63 57 -63q43 0 74 40.5t31 102.5zM610 187q0 62 -57 62q-43 0 -74 -40.5t-31 -102.5q0 -63 58 -63q43 0 73.5 41t30.5 103z" />
<glyph unicode="&#x26;" horiz-adv-x="778" d="M708 443q-27 -182 -144 -304q61 -58 120 -104l-53 -52q-61 47 -122 107q-123 -99 -280 -99q-92 0 -138.5 45.5t-46.5 113.5q0 43 15 81t45 71t57.5 55.5t69.5 52.5q-62 99 -62 154q0 71 52.5 121t135.5 50q69 0 103 -31t34 -82q0 -34 -12.5 -63.5t-40 -58.5t-51 -48 t-64.5 -49q66 -95 190 -219q43 46 75 113t43 146h74zM419 611q0 30 -18 48t-52 18q-48 0 -76.5 -29t-28.5 -74q0 -42 48 -121q33 23 49.5 36t38 34t30.5 42t9 46zM461 135q-122 124 -195 226q-69 -50 -106 -93.5t-37 -100.5q0 -48 30.5 -80t92.5 -32q117 0 215 80z" />
<glyph unicode="'" horiz-adv-x="188" d="M221 698l-55 -220h-53l28 220h80z" />
<glyph unicode="(" horiz-adv-x="296" d="M369 751q-99 -124 -165 -291.5t-66 -324.5q0 -183 55 -314l-59 -27q-68 160 -68 335q0 167 67 336t187 315z" />
<glyph unicode=")" horiz-adv-x="296" d="M252 444q0 -167 -67 -335.5t-187 -314.5l-49 28q99 124 165 291.5t66 324.5q0 183 -55 314l59 28q68 -160 68 -336z" />
<glyph unicode="*" horiz-adv-x="362" d="M392 627l-111 -44l92 -52l-35 -48l-82 69l-14 -116l-57 8l31 107l-96 -62l-23 52l110 44l-92 53l35 46l81 -67l14 116l57 -9l-32 -107l99 62z" />
<glyph unicode="+" d="M523 329l-13 -63h-197l-39 -207h-71l39 207h-195l12 63h196l39 206h71l-39 -206h197z" />
<glyph unicode="," horiz-adv-x="213" d="M75 99q37 0 48 -37q4 -12 4 -25q0 -48 -51 -108q-32 -39 -83 -75l-28 33q76 64 76 113q0 15 -7 28q-7 12 -7 24q0 11 7 23q13 24 41 24z" />
<glyph unicode="-" horiz-adv-x="327" d="M294 322l-12 -62h-231l12 62h231z" />
<glyph unicode="." horiz-adv-x="214" d="M129 48q0 -24 -16 -40t-39 -16q-22 0 -37 15.5t-15 36.5q0 24 16 40t39 16q22 0 37 -15.5t15 -36.5z" />
<glyph unicode="/" horiz-adv-x="419" d="M512 757l-519 -918h-73l519 918h73z" />
<glyph unicode="0" d="M528 468q0 -70 -17 -148t-50.5 -154t-95.5 -125.5t-141 -49.5q-171 0 -171 191q0 70 17 148t50.5 154t95.5 125.5t141 49.5q171 0 171 -191zM448 461q0 67 -24 101t-78 34q-55 0 -99 -46t-67 -114t-35 -132.5t-12 -114.5q0 -67 24 -100.5t80 -33.5q54 0 97.5 46 t66.5 113.5t35 132t12 114.5z" />
<glyph unicode="1" d="M458 68l-13 -68h-414l13 68h179l96 507l-177 -65l-2 70l209 70h63l-112 -582h158z" />
<glyph unicode="2" d="M502 506q0 -71 -42.5 -138t-166.5 -167l-163 -131v-1q78 2 215 2h103l-14 -71h-420l12 61l204 168q113 93 151.5 147.5t38.5 114.5q0 45 -29 73.5t-84 28.5q-41 0 -85 -15.5t-75 -37.5l-15 64q98 55 194 55q85 0 130.5 -43.5t45.5 -109.5z" />
<glyph unicode="3" d="M505 530q0 -64 -43 -112t-114 -67l-2 -1q56 -7 86 -41.5t30 -87.5q0 -40 -17.5 -78.5t-52 -73.5t-96 -56.5t-139.5 -21.5q-70 0 -118 16l17 69q52 -20 115 -20q103 0 155.5 47t52.5 108q0 46 -37.5 72.5t-107.5 26.5q-54 0 -101 -4l12 61h20q137 0 198 44.5t61 105.5 q0 37 -28.5 58.5t-79.5 21.5q-69 0 -152 -38l-2 66q88 34 168 34q86 0 130.5 -35t44.5 -94z" />
<glyph unicode="4" d="M491 650l-82 -428h115l-14 -68h-114l-29 -154h-74l29 154h-309l6 60l370 436h102zM403 572h-1l-300 -353q99 3 234 3z" />
<glyph unicode="5" d="M524 650l-14 -72h-274l-36 -187q40 2 61 2q101 0 153 -41.5t52 -109.5q0 -105 -85 -178t-220 -73q-67 0 -119 13l14 71q54 -19 116 -19q97 0 154.5 49t57.5 125q0 102 -156 102q-60 0 -110 -8l63 326h343z" />
<glyph unicode="6" d="M516 656l-12 -66q-34 4 -59 4q-198 0 -282 -225q-1 -3 -8 -22.5t-11 -32.5h1q29 44 78.5 68.5t103.5 24.5q83 0 127 -42t44 -111q0 -110 -76.5 -186.5t-189.5 -76.5q-87 0 -132.5 50t-45.5 143q0 35 7.5 78t23.5 99t47.5 107t74.5 94.5t109 70t146 26.5q24 0 54 -3z M420 240q0 49 -29 76.5t-86 27.5q-76 0 -124.5 -52.5t-48.5 -118.5q0 -56 30 -88t88 -32q71 0 120.5 53.5t49.5 133.5z" />
<glyph unicode="7" d="M571 650l-13 -66q-205 -279 -370 -584h-91q190 331 373 579q-42 -2 -252 -2h-97l14 73h436z" />
<glyph unicode="8" d="M524 531q0 -64 -39 -107t-126 -87q55 -30 86 -63.5t31 -84.5q0 -88 -74 -143t-175 -55q-88 0 -138 36t-50 98q0 64 46 113.5t137 92.5q-101 56 -101 134t66.5 136t165.5 58q82 0 126.5 -34.5t44.5 -93.5zM445 519q0 38 -27.5 58.5t-74.5 20.5q-65 0 -104 -36.5t-39 -84.5 q0 -34 25 -58t74 -50q82 40 114 73t32 77zM396 180q0 29 -17.5 52.5t-38 36.5t-56.5 31q-95 -44 -130 -83.5t-35 -81.5q0 -37 31.5 -59.5t88.5 -22.5q63 0 110 33t47 94z" />
<glyph unicode="9" d="M524 473q0 -27 -4 -61.5t-16 -82t-30.5 -92.5t-50.5 -90.5t-73 -79.5t-101 -55t-132 -21q-49 0 -81 7l12 69q40 -10 82 -10q198 0 276 213q13 37 17 45h-1q-68 -75 -172 -75q-80 0 -123.5 41t-43.5 115q0 104 72 183.5t188 79.5q85 0 133 -46t48 -140zM446 478 q0 53 -30 86t-86 33q-73 0 -121 -56.5t-48 -129.5q0 -51 28 -78.5t81 -27.5q72 0 124 50.5t52 122.5z" />
<glyph unicode=":" horiz-adv-x="281" d="M231 344q0 -24 -15.5 -40t-38.5 -16t-38.5 15.5t-15.5 38.5t16 39t39 16q22 0 37.5 -15.5t15.5 -37.5zM174 47q0 -23 -15.5 -39t-38.5 -16q-22 0 -37.5 15.5t-15.5 37.5q0 23 15.5 39t38.5 16q22 0 37.5 -15.5t15.5 -37.5z" />
<glyph unicode=";" horiz-adv-x="281" d="M231 344q0 -24 -15.5 -40t-38.5 -16t-38.5 15.5t-15.5 38.5t16 39t39 16q22 0 37.5 -15.5t15.5 -37.5zM121 99q38 0 49 -38q3 -12 3 -24q0 -49 -51 -109q-33 -38 -82 -74l-29 33q76 64 76 113q0 15 -7 28q-7 12 -6.5 23.5t6.5 23.5q13 24 41 24z" />
<glyph unicode="&#x3c;" d="M490 531l-307 -228l226 -231l-54 -48l-269 285l361 273z" />
<glyph unicode="=" d="M524 410l-11 -63h-437l12 63h436zM494 247l-12 -62h-437l12 62h437z" />
<glyph unicode="&#x3e;" d="M486 298l-361 -274l-43 52l308 227l-226 231l53 48z" />
<glyph unicode="?" horiz-adv-x="435" d="M416 528q0 -45 -24 -82t-57 -64l-65 -55q-32 -28 -50 -71q-14 -30 -14 -67q0 -14 2 -29h-74q-2 18 -2 35q0 38 12 71q18 47 48.5 77t62.5 56t55.5 56.5t23.5 64.5q0 45 -47 77t-122 41l22 69q108 -11 168.5 -61t60.5 -118zM202 46q0 -23 -15 -38.5t-38 -15.5 q-22 0 -37 15t-15 36q0 23 15.5 38.5t38.5 15.5q22 0 36.5 -15t14.5 -36z" />
<glyph unicode="@" horiz-adv-x="965" d="M893 439q0 -134 -69 -222t-173 -88q-62 0 -86 34q-16 22 -16 49q0 15 5 31h-3q-16 -37 -63.5 -75.5t-95.5 -38.5q-87 0 -87 104q0 37 8 76t27.5 79t47 71t70 50.5t93.5 19.5q70 0 123 -12l-62 -219q-8 -28 -8 -49q0 -57 60 -57q70 0 116 69t46 174q0 101 -65 169t-199 68 q-107 0 -199 -59t-145.5 -158.5t-53.5 -214.5q0 -122 73 -193t209 -71q83 0 167 24l4 -62q-84 -26 -185 -26q-161 0 -249.5 85.5t-88.5 235.5q0 134 65 249.5t175 182.5t237 67q158 0 240 -83t82 -210zM596 468q-22 7 -58 7q-64 0 -114.5 -67.5t-50.5 -158.5q0 -56 38 -56 q44 0 92 57t77 162z" />
<glyph unicode="A" horiz-adv-x="601" d="M540 0h-81l-26 166h-295l-90 -166h-82l375 675h81zM423 227l-46 270q-7 41 -12 93h-1q-23 -50 -45 -91l-149 -272h253z" />
<glyph unicode="B" horiz-adv-x="554" d="M534 550q0 -74 -41.5 -123.5t-103.5 -70.5v-1q49 -10 77.5 -45t28.5 -81q0 -98 -77 -165t-214 -67q-18 0 -44.5 0.5t-61 1.5t-54.5 1l128 675q132 3 180 3q93 0 137.5 -34.5t44.5 -93.5zM455 534q0 40 -27 61t-97 21q-36 0 -96 -2l-45 -235q21 -1 62 -1q91 0 147 41 t56 115zM416 222q0 98 -158 98q-62 0 -79 -1l-48 -254q36 -6 88 -6q92 0 144.5 47t52.5 116z" />
<glyph unicode="C" horiz-adv-x="567" d="M593 661l-21 -69q-72 25 -145 25t-130.5 -33.5t-91 -89t-50.5 -121.5t-17 -138q0 -83 40.5 -129t138.5 -46q84 0 161 35l5 -66q-90 -36 -188 -36q-240 0 -240 230q0 123 42.5 225.5t132 168t210.5 65.5q80 0 153 -21z" />
<glyph unicode="D" horiz-adv-x="669" d="M650 433q0 -85 -27 -161.5t-79.5 -139t-139 -99t-196.5 -36.5q-39 0 -92 1.5t-72 1.5l128 675q24 0 89 1.5t98 1.5q153 0 222 -65.5t69 -179.5zM570 424q0 90 -51 141t-172 51q-31 0 -112 -3l-104 -546q47 -7 88 -7q90 0 160 32t110.5 85.5t60.5 116t20 130.5z" />
<glyph unicode="E" horiz-adv-x="494" d="M504 675l-12 -62h-257l-45 -234h246l-12 -62h-245l-48 -253h257l-12 -64h-332l128 675h332z" />
<glyph unicode="F" horiz-adv-x="460" d="M502 675l-12 -63h-255l-45 -236h242l-12 -62h-242l-59 -314h-75l128 675h330z" />
<glyph unicode="G" horiz-adv-x="671" d="M655 656l-23 -74q-82 37 -167 37q-142 0 -236.5 -105.5t-94.5 -257.5q0 -82 50.5 -140.5t155.5 -58.5q70 0 141 22l50 261h75l-60 -312q-105 -37 -219 -37q-134 0 -203.5 70.5t-69.5 187.5q0 190 121.5 312.5t298.5 122.5q100 0 181 -28z" />
<glyph unicode="H" horiz-adv-x="689" d="M680 675l-128 -675h-75l61 318h-360l-61 -318h-75l128 675h75l-55 -293h360l55 293h75z" />
<glyph unicode="I" horiz-adv-x="254" d="M247 675l-128 -675h-75l128 675h75z" />
<glyph unicode="J" horiz-adv-x="319" d="M314 675l-97 -507q-16 -87 -61.5 -131t-129.5 -44q-34 0 -72 8l14 69q29 -12 64 -12q44 0 72 25.5t39 88.5l96 503h75z" />
<glyph unicode="K" horiz-adv-x="543" d="M596 675l-333 -334l209 -341h-95l-195 339l-64 -339h-75l128 675h75l-62 -323l313 323h99z" />
<glyph unicode="L" horiz-adv-x="416" d="M377 65l-13 -65h-320l128 675h75l-116 -610h246z" />
<glyph unicode="M" horiz-adv-x="871" d="M802 675l-30 -675h-78l20 411q4 88 11 174h-1q-23 -53 -54 -113l-244 -472h-84l-62 442q-12 84 -13 143h-1q-17 -63 -52 -177l-126 -408h-80l222 675h93l63 -456q10 -71 12 -131h1q23 53 60 124l241 463h102z" />
<glyph unicode="N" horiz-adv-x="686" d="M680 675l-129 -675h-87l-190 443q-36 83 -53 142q-18 -131 -46 -275l-57 -310h-75l128 675h89l188 -437q25 -58 54 -144l44 258l59 323h75z" />
<glyph unicode="O" horiz-adv-x="691" d="M676 440q0 -191 -112 -320t-274 -129q-118 0 -178 63.5t-60 181.5q0 185 110.5 316.5t272.5 131.5q116 0 178.5 -63.5t62.5 -180.5zM594 431q0 88 -43 137.5t-128 49.5q-124 0 -206.5 -109t-82.5 -263q0 -88 43 -138t123 -50q121 0 207.5 108t86.5 265z" />
<glyph unicode="P" horiz-adv-x="509" d="M524 520q0 -111 -89 -183.5t-208 -72.5q-32 0 -59 3l-50 -267h-75l128 675q72 3 156 3q97 0 147 -42.5t50 -115.5zM445 508q0 108 -134 108q-34 0 -76 -2l-54 -281q28 -5 60 -5q82 0 143 52t61 128z" />
<glyph unicode="Q" horiz-adv-x="692" d="M676 440q0 -191 -112 -320t-274 -129q-118 0 -178 63.5t-60 181.5q0 121 49.5 224t138 163.5t195.5 60.5q116 0 178.5 -63.5t62.5 -180.5zM623 -109l-13 -65q-32 -4 -61 -4q-37 0 -71 6q-62 13 -118 26q-34 9 -70 9q-21 0 -42 -3l12 65q25 3 49 3q27 0 52 -4 q49 -6 81.5 -16.5t81.5 -17.5q23 -3 47 -3q26 0 52 4zM594 431q0 88 -43 137.5t-128 49.5q-124 0 -206.5 -109t-82.5 -263q0 -88 43 -138t123 -50q121 0 207.5 108t86.5 265z" />
<glyph unicode="R" horiz-adv-x="537" d="M518 533q0 -94 -72.5 -152.5t-173.5 -64.5q12 -19 41 -71l143 -245h-92l-173 312h-14l-58 -312h-75l128 675q64 3 151 3q195 0 195 -145zM439 524q0 48 -30.5 70.5t-97.5 22.5q-46 0 -76 -3l-46 -243q22 -2 58 -2q84 0 138 40.5t54 114.5z" />
<glyph unicode="S" horiz-adv-x="451" d="M440 675l-14 -69q-46 15 -94 15q-74 0 -114.5 -36t-40.5 -84q0 -36 22 -65t53 -50l62 -43q31 -22 53 -56.5t22 -78.5q0 -94 -73.5 -155.5t-188.5 -61.5q-66 0 -107 14l15 75q45 -21 100 -21q82 0 128 37.5t46 99.5q0 34 -21.5 61t-52.5 47l-61 43q-31 22 -52.5 56.5 t-21.5 79.5q0 85 64.5 143t177.5 58q55 0 98 -9z" />
<glyph unicode="T" horiz-adv-x="508" d="M571 675l-11 -64h-198l-117 -611h-75l117 611h-199l12 64h471z" />
<glyph unicode="U" horiz-adv-x="682" d="M675 675l-81 -428q-50 -256 -305 -256q-136 0 -181 64q-30 43 -30 109q0 30 7 66l85 445h75l-85 -446q-6 -31 -6 -57q0 -47 20 -75q32 -43 126 -43t147.5 46.5t73.5 155.5l80 419h74z" />
<glyph unicode="V" horiz-adv-x="601" d="M669 675l-376 -675h-84l-113 675h80l71 -449q13 -92 18 -144h1q29 65 76 150l245 443h82z" />
<glyph unicode="W" horiz-adv-x="936" d="M981 675l-305 -675h-95l-44 486q-4 55 -4 93v15h-1q-20 -52 -45 -108l-226 -486h-93l-48 675h77l31 -468q3 -37 3 -81q0 -22 -1 -45h1q30 76 52 123l220 471h90l46 -477q5 -52 5 -100v-16h1q17 51 40 103l217 490h79z" />
<glyph unicode="X" horiz-adv-x="574" d="M616 675l-268 -326l159 -349h-89l-124 290l-232 -290h-91l290 352l-146 323h84l116 -265l212 265h89z" />
<glyph unicode="Y" horiz-adv-x="516" d="M586 675l-293 -430l-46 -245h-75l46 244l-124 431h78l66 -241q15 -48 29 -119h2q16 29 82 131l150 229h85z" />
<glyph unicode="Z" horiz-adv-x="517" d="M552 675l-11 -57l-386 -486q-14 -19 -54 -65q22 3 174 3h166l-14 -70h-428l10 56l366 465q30 37 76 88q-70 -2 -149 -2h-177l13 68h414z" />
<glyph unicode="[" horiz-adv-x="313" d="M376 769l-12 -57h-116l-162 -850h117l-12 -58h-184l184 965h185z" />
<glyph unicode="\" horiz-adv-x="418" d="M349 -161h-67l-170 918h65z" />
<glyph unicode="]" horiz-adv-x="313" d="M324 769l-184 -965h-185l11 58h116l162 850h-117l12 57h185z" />
<glyph unicode="^" d="M481 375l-58 -30l-94 272l-192 -272l-49 28l221 302h61z" />
<glyph unicode="_" d="M475 -191l-12 -59h-550l12 59h550z" />
<glyph unicode="`" horiz-adv-x="360" d="M313 612l-40 -37l-123 119l50 46z" />
<glyph unicode="a" horiz-adv-x="536" d="M495 490l-93 -490h-75q12 59 62 219l-2 1q-102 -230 -241 -230q-109 0 -109 150q0 70 18.5 133.5t54.5 116t97.5 83.5t139.5 31q71 0 148 -14zM411 435q-42 10 -77 10q-57 0 -101.5 -27t-69.5 -70.5t-37.5 -93t-12.5 -101.5q0 -99 56 -99q48 0 100 59.5t86.5 136 t47.5 142.5z" />
<glyph unicode="b" horiz-adv-x="536" d="M502 357q0 -70 -18.5 -133.5t-54.5 -116t-97 -83.5t-140 -31q-77 0 -147 15l138 722h73l-49 -254q-8 -44 -55 -196h2q41 101 102.5 164t136.5 63q109 0 109 -150zM426 344q0 99 -55 99q-49 0 -100.5 -59.5t-86 -135t-47.5 -141.5l-9 -45q38 -10 77 -10q76 0 128 47 t72.5 110.5t20.5 134.5z" />
<glyph unicode="c" horiz-adv-x="415" d="M428 488l-17 -65q-45 21 -97 21q-63 0 -109.5 -44t-67 -104.5t-20.5 -124.5q0 -113 109 -113q60 0 117 25l3 -62q-67 -28 -139 -28q-170 0 -170 161q0 147 77 248.5t206 101.5q57 0 108 -16z" />
<glyph unicode="d" horiz-adv-x="536" d="M541 730l-105 -550q-14 -70 -34 -180h-74q10 57 61 219l-2 1q-102 -230 -241 -230q-109 0 -109 150q0 70 18.5 133.5t54.5 116t97.5 83.5t139.5 31q37 0 76 -6l43 232h75zM411 435q-42 10 -77 10q-57 0 -101.5 -27t-69.5 -70.5t-37.5 -93t-12.5 -101.5q0 -99 56 -99 q48 0 100 59.5t86.5 136t47.5 142.5z" />
<glyph unicode="e" horiz-adv-x="473" d="M449 396q0 -158 -326 -171q-6 -32 -6 -65q0 -63 25 -85t89 -22q72 0 136 29l5 -60q-74 -31 -168 -31q-83 0 -123.5 37.5t-40.5 121.5q0 147 73.5 251.5t195.5 104.5q70 0 105 -31t35 -79zM373 387q0 29 -19.5 45t-53.5 16q-60 0 -103.5 -46t-62.5 -118q125 5 182 30 t57 73z" />
<glyph unicode="f" horiz-adv-x="336" d="M469 726l-19 -62q-34 10 -74 10q-59 0 -93 -34t-47 -109l-6 -34h144l-12 -59h-143l-89 -466q-23 -120 -78.5 -174.5t-146.5 -54.5q-45 0 -86 9l19 65q34 -11 75 -11q58 0 91.5 37t51.5 127l90 468h-107l12 59h106l6 34q37 204 222 204q41 0 84 -9z" />
<glyph unicode="g" horiz-adv-x="535" d="M495 490l-104 -542q-38 -205 -281 -205q-73 0 -130 18l17 75q60 -27 132 -27q83 0 130 37t64 126q19 100 64 242l-2 1q-100 -225 -239 -225q-109 0 -109 150q0 70 18.5 133.5t54.5 116t97.5 83.5t139.5 31q71 0 148 -14zM411 435q-42 10 -77 10q-57 0 -101.5 -27 t-69.5 -70.5t-37.5 -93t-12.5 -101.5q0 -99 56 -99q48 0 100 59.5t86.5 136t47.5 142.5z" />
<glyph unicode="h" horiz-adv-x="565" d="M494 337l-64 -337h-74l62 320q6 30 6 52q0 71 -55 71q-48 0 -99.5 -59t-86.5 -135.5t-47 -142.5l-20 -106h-73l139 730h73l-46 -242q-14 -71 -57 -203l2 -1q40 95 101.5 159t135.5 64q67 0 93 -45q16 -28 16 -70q0 -25 -6 -55z" />
<glyph unicode="i" horiz-adv-x="251" d="M256 660q0 -23 -15.5 -38.5t-36.5 -15.5t-35 14t-14 34q0 23 15.5 38.5t37.5 15.5q21 0 34.5 -14t13.5 -34zM211 497l-95 -497h-73l95 497h73z" />
<glyph unicode="j" horiz-adv-x="255" d="M260 660q0 -23 -15.5 -38.5t-37.5 -15.5q-21 0 -35 14t-14 34q0 23 16 38.5t37 15.5t35 -14t14 -34zM215 497l-108 -567q-19 -97 -63 -142t-131 -45q-30 0 -64 8l15 66q26 -10 58 -10q52 0 75.5 30t39.5 113l105 547h73z" />
<glyph unicode="k" horiz-adv-x="463" d="M461 475l-217 -202l156 -273h-90l-142 268l-52 -268h-73l139 730h73l-85 -448l239 238z" />
<glyph unicode="l" horiz-adv-x="251" d="M255 730l-139 -730h-73l139 730h73z" />
<glyph unicode="m" horiz-adv-x="865" d="M794 337l-64 -337h-74l62 320q6 31 6 54q0 69 -52 69q-64 0 -135 -106.5t-94 -230.5l-20 -106h-73l61 320q6 31 6 54q0 69 -52 69q-64 0 -135 -106.5t-94 -230.5l-20 -106h-73l50 259q1 8 22 120t22 118h74q-12 -69 -59 -212l2 -1q39 95 99.5 159t134.5 64 q48 0 73.5 -25.5t25.5 -71.5q0 -37 -28 -126l2 -1q39 95 99.5 159.5t134.5 64.5q64 0 89 -45q16 -27 16 -68q0 -26 -6 -57z" />
<glyph unicode="n" horiz-adv-x="565" d="M494 337l-64 -337h-74l62 320q6 30 6 52q0 71 -55 71q-48 0 -99.5 -59t-86.5 -135.5t-47 -142.5l-20 -106h-73l50 259q1 8 22 120t22 118h74q-12 -66 -59 -212l2 -1q40 95 101.5 159t135.5 64q67 0 93 -45q16 -28 16 -70q0 -25 -6 -55z" />
<glyph unicode="o" horiz-adv-x="537" d="M504 327q0 -148 -86 -242t-201 -94q-178 0 -178 176q0 146 81 242.5t203 96.5q91 0 136 -48t45 -131zM425 320q0 123 -113 123q-85 0 -140.5 -78.5t-55.5 -183.5q0 -126 114 -126q79 0 137 75t58 190z" />
<glyph unicode="p" horiz-adv-x="536" d="M502 357q0 -70 -18.5 -133.5t-54.5 -115.5t-97 -83t-140 -31q-40 0 -76 6l-47 -249h-74l98 507q1 8 22 120.5t22 118.5h74q-11 -61 -59 -216l2 -1q41 101 102.5 164t136.5 63q109 0 109 -150zM426 344q0 99 -55 99q-49 0 -100.5 -59.5t-86 -135t-47.5 -141.5l-8 -41 q36 -13 77 -13q57 0 101 26.5t69 70t37.5 93t12.5 101.5z" />
<glyph unicode="q" horiz-adv-x="536" d="M495 489l-141 -738h-73l45 238q14 76 63 230l-2 1q-102 -230 -241 -230q-109 0 -109 150q0 70 18.5 133.5t54.5 116t97.5 83.5t139.5 31q75 0 148 -15zM411 435q-42 10 -77 10q-57 0 -101.5 -27t-69.5 -70.5t-37.5 -93t-12.5 -101.5q0 -99 57 -99q48 0 99.5 59.5t86 136 t47.5 142.5z" />
<glyph unicode="r" horiz-adv-x="349" d="M376 506l-14 -73q-8 2 -17 2q-38 0 -79 -45q-50 -55 -83 -131.5t-45 -144.5l-22 -114h-73l50 259l44 238h73q-12 -69 -55 -197h2q50 109 101 164q41 44 94 44q12 0 24 -2z" />
<glyph unicode="s" horiz-adv-x="383" d="M350 498l-13 -63q-33 12 -79 12q-51 0 -79 -22t-28 -58q0 -24 16.5 -44.5t39.5 -36.5l47 -35q23 -18 39.5 -44t16.5 -57q0 -65 -56 -112t-153 -47q-39 0 -83 7l13 70q45 -14 83 -14q54 0 86.5 22.5t32.5 64.5q0 23 -16.5 43t-39.5 36l-47 34q-23 17 -39.5 44.5 t-16.5 60.5q0 64 50 105.5t141 41.5q45 0 85 -8z" />
<glyph unicode="t" horiz-adv-x="363" d="M373 497l-12 -59h-142l-52 -274q-7 -34 -7 -56q0 -18 5 -28q10 -22 50 -22q39 0 71 8l-3 -64q-47 -10 -90 -10q-73 0 -96 37q-14 22 -14 60q0 27 7 61l55 288h-107l12 59h107l31 165l78 18l-36 -183h143z" />
<glyph unicode="u" horiz-adv-x="564" d="M525 497l-50 -259q-2 -11 -23 -120t-22 -118h-74q17 83 59 212l-2 1q-40 -95 -101.5 -159t-135.5 -64q-66 0 -92 44q-16 29 -16 72q0 24 5 54l65 337h73l-61 -320q-6 -32 -6 -55.5t6 -37.5q12 -30 49 -30q47 0 98.5 58.5t86.5 135.5t47 143l20 106h74z" />
<glyph unicode="v" horiz-adv-x="464" d="M495 492l-269 -492h-76l-90 497h80l52 -322q7 -52 10 -88h1l224 431z" />
<glyph unicode="w" horiz-adv-x="771" d="M797 493l-248 -493h-86l-43 309q-8 59 -9 95h-1l-199 -404h-86l-55 497h78l28 -296q8 -88 8 -115h1l203 411h82l40 -295q9 -75 11 -117h1l207 432z" />
<glyph unicode="x" horiz-adv-x="508" d="M525 479l-225 -232l134 -247h-89l-101 196l-207 -220l-56 43l231 234l-127 244h86l96 -194l204 217z" />
<glyph unicode="y" horiz-adv-x="475" d="M495 495q-210 -492 -382 -663q-90 -88 -174 -88q-41 0 -68 7l13 69q27 -10 63 -10q58 0 116 64q61 65 61 171q0 192 -71 452h83q59 -231 59 -404q0 -29 -9 -69h2q117 202 238 493z" />
<glyph unicode="z" horiz-adv-x="428" d="M421 497l-11 -52l-305 -378q60 2 135 2h104l-14 -69h-329l10 53l306 379q-62 -2 -130 -2h-99l13 67h320z" />
<glyph unicode="{" horiz-adv-x="327" d="M397 769l-11 -57q-52 0 -77 -26.5t-39 -96.5l-24 -128q-26 -132 -120 -144v-2q43 -6 60 -43q9 -21 9 -50q0 -22 -5 -48l-36 -189q-7 -34 -7 -58q0 -25 7 -39q15 -26 67 -26l-11 -58h-17q-76 0 -100 48q-14 27 -14 69q0 30 7 67l37 191q4 21 4 38q0 29 -12 43 q-19 24 -77 28l12 60q63 4 89.5 26t37.5 82l24 130q36 183 177 183h19z" />
<glyph unicode="|" horiz-adv-x="278" d="M265 751l-190 -1000h-58l190 1000h58z" />
<glyph unicode="}" horiz-adv-x="328" d="M324 348l-12 -60q-62 -4 -89 -26.5t-38 -82.5l-35 -190q-18 -96 -59.5 -140.5t-117.5 -44.5h-19l12 59q52 0 76.5 26.5t38.5 95.5l35 189q25 133 120 145v2q-43 6 -60 42q-9 21 -9 50q0 22 5 48l25 129q7 34 7 58t-8 38q-14 27 -66 27l11 57h14q117 0 117 -117 q0 -30 -7 -67l-26 -130q-5 -22 -5 -39q0 -27 12 -41q20 -24 78 -28z" />
<glyph unicode="~" d="M550 571q-4 -68 -41 -108.5t-96 -40.5q-30 0 -53 11.5t-37 28t-26 33.5t-28.5 28.5t-36.5 11.5q-32 0 -51.5 -26t-22.5 -66h-56q3 67 40 107.5t96 40.5q30 0 53 -11.5t37 -28.5l26 -33q13 -17 29 -28.5t37 -11.5q32 0 51 26t23 67h56z" />
<glyph unicode="&#xa1;" horiz-adv-x="313" d="M239 454q0 -23 -15.5 -38.5t-38.5 -15.5q-22 0 -36.5 15t-14.5 36q0 23 15 38.5t38 15.5q22 0 37 -15t15 -36zM195 337l-90 -541h-87l116 541h61z" />
<glyph unicode="&#xa2;" d="M515 536l-26 -62q-52 26 -113 26q-90 0 -147.5 -62t-57.5 -158q0 -112 132 -112q69 0 136 32l10 -61q-68 -31 -134 -35l-20 -104h-60l20 105q-163 13 -163 161q0 127 71 203t179 90l17 91h60l-17 -89q56 -2 113 -25z" />
<glyph unicode="&#xa3;" d="M524 642l-24 -64q-55 20 -104 20q-37 0 -64 -14.5t-41.5 -36.5t-23.5 -57t-11.5 -66t-2.5 -73h164l-11 -59h-155q0 -80 -26 -130t-90 -98q44 2 82 2h225l-12 -66h-402l10 52q88 67 113 112t25 128h-111l11 59h102q0 51 4.5 90.5t19 82.5t39 71t67 46t100.5 18 q63 0 116 -17z" />
<glyph unicode="&#xa4;" d="M554 551l-98 -100q16 -24 16 -68q0 -103 -69 -172l66 -106l-59 -40l-62 110q-46 -27 -96 -27q-47 0 -71 15l-91 -98l-50 43l93 91q-22 30 -22 81q0 110 75 177l-60 98l60 39l55 -103q41 20 89 20q53 0 82 -19l97 102zM403 371q0 83 -87 83q-62 0 -98.5 -49.5 t-36.5 -113.5q0 -86 85 -86q59 0 98 51.5t39 114.5z" />
<glyph unicode="&#xa5;" d="M590 650l-253 -363h151l-11 -53h-169l-14 -75h169l-10 -53h-169l-20 -106h-75l20 106h-168l10 53h168l14 75h-168l10 53h151l-109 363h81l61 -215q11 -39 28 -117h1q32 59 77 125l141 207h84z" />
<glyph unicode="&#xa6;" horiz-adv-x="278" d="M265 751l-70 -368h-58l70 368h58zM146 129l-71 -378h-58l71 378h58z" />
<glyph unicode="&#xa7;" horiz-adv-x="506" d="M443 727l-15 -64q-33 11 -62 11q-58 0 -84 -33t-26 -71q0 -29 25 -66.5t54.5 -70t54.5 -81t25 -96.5q0 -99 -106 -168q21 -36 21 -76q0 -70 -54 -123t-140 -53q-42 0 -80 11l15 64q42 -13 71 -13q55 0 83 33.5t28 71.5q0 25 -16.5 54.5t-39.5 57.5l-46 58 q-23 30 -39.5 67.5t-16.5 75.5q0 98 106 171q-23 43 -23 79q0 25 10.5 52.5t31.5 54.5t60 44.5t90 17.5q39 0 73 -8zM344 245q0 23 -11.5 50t-23 44t-38.5 51.5t-37 49.5q-68 -42 -68 -112q0 -23 12 -50.5t21.5 -42t38.5 -53.5l37 -47q69 42 69 110z" />
<glyph unicode="&#xa8;" horiz-adv-x="535" d="M439 659q0 -21 -14.5 -35.5t-34.5 -14.5t-33.5 13.5t-13.5 32.5q0 21 14.5 35t35.5 14q19 0 32.5 -13.5t13.5 -31.5zM251 659q0 -21 -14.5 -35.5t-34.5 -14.5t-33.5 13.5t-13.5 32.5q0 21 14.5 35t35.5 14q19 0 32.5 -13.5t13.5 -31.5z" />
<glyph unicode="&#xa9;" horiz-adv-x="738" d="M718 351q0 -147 -103 -247.5t-243 -100.5q-138 0 -229.5 91.5t-91.5 225.5q0 146 103 246.5t244 100.5q135 0 227.5 -91.5t92.5 -224.5zM657 349q0 107 -76.5 183.5t-185.5 76.5q-115 0 -198.5 -82t-83.5 -204q0 -109 76 -186t186 -77q115 0 198.5 83.5t83.5 205.5z M510 501l-16 -55q-30 15 -72 15q-66 0 -97.5 -53t-31.5 -117q0 -78 75 -78q44 0 85 15l1 -53q-48 -17 -97 -17q-131 0 -131 122q0 99 55.5 166t146.5 67q48 0 82 -12z" />
<glyph unicode="&#xaa;" horiz-adv-x="378" d="M399 672q-52 -265 -60 -321h-63q8 36 31 104h-1q-53 -110 -142 -110q-82 0 -82 99q0 98 55.5 167t153.5 69q59 0 108 -8zM353 285l-11 -60h-279l11 60h279zM328 623q-22 6 -50 6q-60 0 -95.5 -52t-35.5 -119q0 -58 36 -58q45 0 85 58t55 137z" />
<glyph unicode="&#xab;" horiz-adv-x="483" d="M454 434l-128 -140l82 -141l-60 -32l-98 176l153 171zM265 436l-121 -142l74 -143l-60 -31l-90 178l145 172z" />
<glyph unicode="&#xac;" d="M495 329l-42 -223h-65l30 160h-371l12 63h436z" />
<glyph unicode="&#xad;" horiz-adv-x="327" d="M294 322l-12 -62h-231l12 62h231z" />
<glyph unicode="&#xae;" horiz-adv-x="551" d="M542 539q0 -94 -67.5 -159.5t-155.5 -65.5q-86 0 -143.5 58t-57.5 143q0 96 67 161.5t156 65.5q86 0 143.5 -58t57.5 -145zM488 536q0 64 -43.5 110.5t-105.5 46.5q-67 0 -117 -49.5t-50 -121.5q0 -65 43.5 -112t106.5 -47q67 0 116.5 50t49.5 123zM421 596 q0 -31 -20 -51.5t-52 -26.5q8 -12 16 -31l31 -72h-50l-39 98h-6l-19 -98h-42l43 230h70q68 0 68 -49zM375 589q0 21 -30 21h-25l-13 -66h15q25 0 39 13t14 32z" />
<glyph unicode="&#xaf;" horiz-adv-x="387" d="M397 680l-10 -57h-240l10 57h240z" />
<glyph unicode="&#xb0;" horiz-adv-x="364" d="M384 622q0 -62 -40.5 -97t-94.5 -35q-56 0 -87 31t-31 82q0 60 40.5 95.5t93.5 35.5q58 0 88.5 -31t30.5 -81zM323 617q0 26 -14.5 46.5t-47.5 20.5q-29 0 -49 -21t-20 -55q0 -31 16.5 -49.5t46.5 -18.5q29 0 48.5 21t19.5 56z" />
<glyph unicode="&#xb1;" d="M535 394l-12 -63h-196l-38 -201h-71l38 201h-196l11 63h196l39 200h71l-39 -200h197zM471 63l-12 -63h-461l12 63h461z" />
<glyph unicode="&#xb2;" horiz-adv-x="309" d="M308 583q0 -35 -18.5 -63.5t-62.5 -61.5l-61 -46h123l-11 -55h-210l9 45l92 72q40 32 55 52.5t15 43.5q0 35 -42 35q-33 0 -60 -19l-16 48q50 24 93 24q46 0 70 -20.5t24 -54.5z" />
<glyph unicode="&#xb3;" horiz-adv-x="613" d="M296 594q0 -59 -59 -84q44 -6 44 -53t-40 -77t-109 -30q-36 0 -60 7l14 49q28 -8 49 -8q78 0 78 56q0 32 -57 32q-17 0 -39 -3l8 44h21q44 0 64.5 15.5t20.5 39.5q0 29 -40 29q-29 0 -56 -12l-10 43q38 16 83 16q44 0 66 -18t22 -46z" />
<glyph unicode="&#xb4;" horiz-adv-x="379" d="M325 688l-152 -113l-31 41l144 124z" />
<glyph unicode="&#xb5;" horiz-adv-x="614" d="M559 66q-43 -75 -110 -75q-68 0 -68 69q0 34 17 86l-2 1q-21 -52 -82.5 -103.5t-121.5 -51.5q-48 0 -75 33l-41 -274h-79l143 746h73l-61 -320q-5 -26 -5 -46q0 -27 9 -45q16 -32 50 -32q60 0 128 82.5t91 208.5l29 152h73l-68 -358q-6 -33 -6 -51q0 -9 1 -15 q5 -17 23 -17q28 0 49 38z" />
<glyph unicode="&#xb6;" horiz-adv-x="558" d="M576 675l-9 -57h-72l-136 -714h-141l10 57h73l136 714h139zM364 675l-80 -421h-4q-85 0 -128 44q-45 45 -45 121q0 99 70 177.5t187 78.5z" />
<glyph unicode="&#xb7;" horiz-adv-x="220" d="M178 299q0 -24 -18 -41.5t-42 -17.5q-22 0 -38 16t-16 39q0 24 17.5 41.5t41.5 17.5q23 0 39 -16t16 -39z" />
<glyph unicode="&#xb8;" horiz-adv-x="392" d="M198 -41q19 -31 19 -64q0 -61 -64 -130h-68q49 52 60 87q3 11 3 23q0 27 -17 58z" />
<glyph unicode="&#xb9;" horiz-adv-x="299" d="M273 650l-55 -293h-64l44 236l-77 -34l-5 50l100 41h57z" />
<glyph unicode="&#xba;" horiz-adv-x="409" d="M411 565q0 -104 -58.5 -162.5t-136.5 -58.5q-121 0 -121 116q0 92 52 157.5t137 65.5q127 0 127 -118zM344 285l-12 -60h-267l12 60h267zM341 556q0 70 -64 70q-56 0 -84 -48.5t-28 -104.5q0 -70 61 -70q50 0 82.5 44t32.5 109z" />
<glyph unicode="&#xbb;" horiz-adv-x="483" d="M449 293l-145 -172l-52 34l121 141l-75 143l61 32zM267 293l-153 -171l-51 34l128 140l-82 142l60 31z" />
<glyph unicode="&#xbc;" horiz-adv-x="686" d="M273 650l-55 -293h-64l44 236l-77 -34l-5 50l100 41h57zM664 631l-611 -651l-42 37l610 651zM602 107l-10 -49h-52l-11 -58h-59l11 58h-143l5 45l150 190h92l-36 -186h53zM517 247l-111 -140h84z" />
<glyph unicode="&#xbd;" horiz-adv-x="691" d="M608 225q0 -34 -18.5 -63t-62.5 -61l-61 -47h124l-11 -54h-211l9 44l92 73q40 31 55 52t15 43q0 36 -42 36q-31 0 -59 -20l-16 49q46 23 93 23q46 0 69.5 -20.5t23.5 -54.5zM664 631l-611 -651l-42 37l610 651zM273 650l-55 -293h-64l44 236l-77 -34l-5 50l100 41h57z " />
<glyph unicode="&#xbe;" horiz-adv-x="686" d="M518 247l-112 -140h85zM603 107l-10 -49h-52l-11 -58h-60l12 58h-144l6 45l150 190h92l-36 -186h53zM663 631l-611 -651l-41 37l609 651zM297 594q0 -59 -59 -84q44 -6 44 -53t-40 -77t-109 -30q-35 0 -60 7l14 49q28 -8 50 -8q77 0 77 56q0 32 -57 32q-17 0 -39 -3l8 44 h21q44 0 64.5 15.5t20.5 39.5q0 29 -40 29q-29 0 -56 -12l-10 43q38 16 83 16q44 0 66 -18t22 -46z" />
<glyph unicode="&#xbf;" horiz-adv-x="435" d="M340 454q0 -23 -15 -38.5t-38 -15.5q-22 0 -37 15t-15 36q0 23 15.5 38.5t38.5 15.5q22 0 36.5 -15t14.5 -36zM303 337q3 -19 3 -36q0 -38 -12 -70q-18 -47 -49 -77t-62.5 -56t-55 -56.5t-23.5 -64.5q0 -45 47 -77t122 -41l-22 -69q-108 11 -168.5 61t-60.5 118 q0 33 13 62t33 50t44 41l47 41q23 21 41 44.5t26 56.5q6 21 6 44q0 14 -2 29h73z" />
<glyph unicode="&#xc0;" horiz-adv-x="601" d="M540 0h-81l-26 166h-295l-90 -166h-82l375 675h81zM423 227l-46 270q-7 41 -12 93h-1q-23 -50 -45 -91l-149 -272h253zM436 773l-19 -44l-182 57l29 61z" />
<glyph unicode="&#xc1;" horiz-adv-x="601" d="M540 0h-81l-26 166h-295l-90 -166h-82l375 675h81zM423 227l-46 270q-7 41 -12 93h-1q-23 -50 -45 -91l-149 -272h253zM524 786l-185 -57l-13 44l181 74z" />
<glyph unicode="&#xc2;" horiz-adv-x="601" d="M540 0h-81l-26 166h-295l-90 -166h-82l375 675h81zM423 227l-46 270q-7 41 -12 93h-1q-23 -50 -45 -91l-149 -272h253zM539 773l-27 -46l-120 64l-140 -64l-19 43l165 84z" />
<glyph unicode="&#xc3;" horiz-adv-x="601" d="M540 0h-81l-26 166h-295l-90 -166h-82l375 675h81zM423 227l-46 270q-7 41 -12 93h-1q-23 -50 -45 -91l-149 -272h253zM560 808q-40 -70 -108 -70q-36 0 -73 27t-56 27q-35 0 -66 -46l-37 29q40 70 107 70q36 0 73 -27t56 -27q34 0 66 46z" />
<glyph unicode="&#xc4;" horiz-adv-x="601" d="M540 0h-81l-26 166h-295l-90 -166h-82l375 675h81zM423 227l-46 270q-7 41 -12 93h-1q-23 -50 -45 -91l-149 -272h253zM543 781q0 -20 -13.5 -34t-33.5 -14q-19 0 -31.5 13t-12.5 32q0 20 14 33.5t33 13.5t31.5 -13t12.5 -31zM334 781q0 -20 -13.5 -34t-32.5 -14 t-31.5 13t-12.5 32t13.5 33t32.5 14t31.5 -13t12.5 -31z" />
<glyph unicode="&#xc5;" horiz-adv-x="601" d="M540 0h-81l-26 166h-295l-90 -166h-82l359 648q-44 24 -44 79q0 49 34.5 80.5t79.5 31.5q43 0 71.5 -28t28.5 -70q0 -33 -19 -60t-48 -39zM445 738q0 23 -15 39t-38 16q-24 0 -42 -18t-18 -44q0 -24 15 -40t38 -16q24 0 42 18.5t18 44.5zM423 227l-46 266q-6 39 -12 96 h-1q-29 -61 -48 -95l-146 -267h253z" />
<glyph unicode="&#xc6;" horiz-adv-x="755" d="M764 675l-11 -62h-252l-45 -234h243l-12 -62h-243l-49 -253h263l-12 -64h-336l32 168h-228l-120 -168h-85l486 675h369zM427 611h-3q-45 -72 -92 -137l-177 -245h199z" />
<glyph unicode="&#xc7;" horiz-adv-x="567" d="M593 661l-21 -69q-72 25 -145 25t-130.5 -33.5t-91 -89t-50.5 -121.5t-17 -138q0 -83 40.5 -129t138.5 -46q84 0 161 35l5 -66q-90 -36 -188 -36q-240 0 -240 230q0 123 42.5 225.5t132 168t210.5 65.5q80 0 153 -21zM292 -41q19 -31 19 -64q0 -61 -64 -130h-68 q49 52 60 87q3 11 3 23q0 27 -17 58z" />
<glyph unicode="&#xc8;" horiz-adv-x="494" d="M504 675l-12 -62h-257l-45 -234h246l-12 -62h-245l-48 -253h257l-12 -64h-332l128 675h332zM407 773l-19 -44l-182 57l29 61z" />
<glyph unicode="&#xc9;" horiz-adv-x="494" d="M504 675l-12 -62h-257l-45 -234h246l-12 -62h-245l-48 -253h257l-12 -64h-332l128 675h332zM481 786l-185 -57l-13 44l181 74z" />
<glyph unicode="&#xca;" horiz-adv-x="494" d="M504 675l-12 -62h-257l-45 -234h246l-12 -62h-245l-48 -253h257l-12 -64h-332l128 675h332zM505 773l-27 -46l-120 64l-140 -64l-19 43l165 84z" />
<glyph unicode="&#xcb;" horiz-adv-x="494" d="M504 675l-12 -62h-257l-45 -234h246l-12 -62h-245l-48 -253h257l-12 -64h-332l128 675h332zM496 781q0 -20 -13.5 -34t-33.5 -14q-19 0 -31.5 13t-12.5 32q0 20 13.5 33.5t33.5 13.5q19 0 31.5 -13t12.5 -31zM287 781q0 -20 -13.5 -34t-32.5 -14t-31.5 13t-12.5 32 t13.5 33t32.5 14t31.5 -13t12.5 -31z" />
<glyph unicode="&#xcc;" horiz-adv-x="254" d="M247 675l-128 -675h-75l128 675h75zM273 773l-19 -44l-182 57l29 61z" />
<glyph unicode="&#xcd;" horiz-adv-x="254" d="M247 675l-128 -675h-75l128 675h75zM365 786l-185 -57l-13 44l181 74z" />
<glyph unicode="&#xce;" horiz-adv-x="254" d="M247 675l-128 -675h-75l128 675h75zM376 773l-27 -46l-120 64l-140 -64l-19 43l165 84z" />
<glyph unicode="&#xcf;" horiz-adv-x="254" d="M247 675l-128 -675h-75l128 675h75zM374 781q0 -20 -13.5 -34t-33.5 -14q-19 0 -31.5 13t-12.5 32q0 20 13.5 33.5t33.5 13.5q19 0 31.5 -13t12.5 -31zM165 781q0 -20 -13.5 -34t-32.5 -14t-31.5 13t-12.5 32t13.5 33t32.5 14t31.5 -13t12.5 -31z" />
<glyph unicode="&#xd0;" horiz-adv-x="680" d="M659 433q0 -85 -27 -161.5t-79 -139t-138.5 -99t-196.5 -36.5q-39 0 -92 1.5t-72 1.5l60 319h-103l11 58h103l57 298q24 0 88.5 1.5t97.5 1.5q153 0 222 -65.5t69 -179.5zM580 424q0 192 -223 192q-31 0 -112 -3l-45 -236h147l-11 -58h-147l-48 -252q47 -7 88 -7 q90 0 160 32t110.5 85.5t60.5 116t20 130.5z" />
<glyph unicode="&#xd1;" horiz-adv-x="686" d="M680 675l-129 -675h-87l-190 443q-36 83 -53 142q-18 -131 -46 -275l-57 -310h-75l128 675h89l188 -437q25 -58 54 -144l44 258l59 323h75zM613 808q-40 -70 -108 -70q-36 0 -73 27t-56 27q-35 0 -66 -46l-37 29q40 70 107 70q36 0 73 -27t56 -27q34 0 66 46z" />
<glyph unicode="&#xd2;" horiz-adv-x="691" d="M676 440q0 -191 -112 -320t-274 -129q-118 0 -178 63.5t-60 181.5q0 185 110.5 316.5t272.5 131.5q116 0 178.5 -63.5t62.5 -180.5zM594 431q0 88 -43 137.5t-128 49.5q-124 0 -206.5 -109t-82.5 -263q0 -88 43 -138t123 -50q121 0 207.5 108t86.5 265zM500 773l-19 -44 l-182 57l29 61z" />
<glyph unicode="&#xd3;" horiz-adv-x="691" d="M676 440q0 -191 -112 -320t-274 -129q-118 0 -178 63.5t-60 181.5q0 185 110.5 316.5t272.5 131.5q116 0 178.5 -63.5t62.5 -180.5zM594 431q0 88 -43 137.5t-128 49.5q-124 0 -206.5 -109t-82.5 -263q0 -88 43 -138t123 -50q121 0 207.5 108t86.5 265zM602 786l-185 -57 l-13 44l181 74z" />
<glyph unicode="&#xd4;" horiz-adv-x="691" d="M676 440q0 -191 -112 -320t-274 -129q-118 0 -178 63.5t-60 181.5q0 185 110.5 316.5t272.5 131.5q116 0 178.5 -63.5t62.5 -180.5zM594 431q0 88 -43 137.5t-128 49.5q-124 0 -206.5 -109t-82.5 -263q0 -88 43 -138t123 -50q121 0 207.5 108t86.5 265zM613 773l-27 -46 l-120 64l-140 -64l-19 43l165 84z" />
<glyph unicode="&#xd5;" horiz-adv-x="691" d="M676 440q0 -191 -112 -320t-274 -129q-118 0 -178 63.5t-60 181.5q0 185 110.5 316.5t272.5 131.5q116 0 178.5 -63.5t62.5 -180.5zM594 431q0 88 -43 137.5t-128 49.5q-124 0 -206.5 -109t-82.5 -263q0 -88 43 -138t123 -50q121 0 207.5 108t86.5 265zM639 808 q-40 -70 -108 -70q-36 0 -73 27t-56 27q-35 0 -66 -46l-37 29q40 70 107 70q36 0 73 -27t56 -27q34 0 66 46z" />
<glyph unicode="&#xd6;" horiz-adv-x="691" d="M676 440q0 -191 -112 -320t-274 -129q-118 0 -178 63.5t-60 181.5q0 185 110.5 316.5t272.5 131.5q116 0 178.5 -63.5t62.5 -180.5zM594 431q0 88 -43 137.5t-128 49.5q-124 0 -206.5 -109t-82.5 -263q0 -88 43 -138t123 -50q121 0 207.5 108t86.5 265zM615 781 q0 -20 -13.5 -34t-33.5 -14q-19 0 -31.5 13t-12.5 32q0 20 14 33.5t33 13.5t31.5 -13t12.5 -31zM406 781q0 -20 -13.5 -34t-32.5 -14t-31.5 13t-12.5 32t13.5 33t32.5 14t31.5 -13t12.5 -31z" />
<glyph unicode="&#xd7;" d="M535 468l-206 -173l140 -174l-50 -41l-140 174l-206 -174l-38 46l207 174l-141 173l50 41l141 -173l205 173z" />
<glyph unicode="&#xd8;" horiz-adv-x="691" d="M676 440q0 -191 -112 -320t-274 -129q-45 0 -84 11l-55 -101l-54 24l54 99q-99 58 -99 212q0 121 49.5 224t138 163.5t195.5 60.5q41 0 76 -9l52 94l54 -24l-50 -91q109 -57 109 -214zM595 432q0 108 -65 154l-288 -519q23 -8 56 -8h13q117 5 200.5 112t83.5 261z M476 612q-27 6 -63 6q-79 -3 -143.5 -54t-100.5 -135t-36 -183q0 -105 58 -149z" />
<glyph unicode="&#xd9;" horiz-adv-x="682" d="M675 675l-81 -428q-50 -256 -305 -256q-136 0 -181 64q-30 43 -30 109q0 30 7 66l85 445h75l-85 -446q-6 -31 -6 -57q0 -47 20 -75q32 -43 126 -43t147.5 46.5t73.5 155.5l80 419h74zM483 773l-19 -44l-182 57l29 61z" />
<glyph unicode="&#xda;" horiz-adv-x="682" d="M675 675l-81 -428q-50 -256 -305 -256q-136 0 -181 64q-30 43 -30 109q0 30 7 66l85 445h75l-85 -446q-6 -31 -6 -57q0 -47 20 -75q32 -43 126 -43t147.5 46.5t73.5 155.5l80 419h74zM588 786l-185 -57l-13 44l181 74z" />
<glyph unicode="&#xdb;" horiz-adv-x="682" d="M675 675l-81 -428q-50 -256 -305 -256q-136 0 -181 64q-30 43 -30 109q0 30 7 66l85 445h75l-85 -446q-6 -31 -6 -57q0 -47 20 -75q32 -43 126 -43t147.5 46.5t73.5 155.5l80 419h74zM591 773l-27 -46l-120 64l-140 -64l-19 43l165 84z" />
<glyph unicode="&#xdc;" horiz-adv-x="682" d="M675 675l-81 -428q-50 -256 -305 -256q-136 0 -181 64q-30 43 -30 109q0 30 7 66l85 445h75l-85 -446q-6 -31 -6 -57q0 -47 20 -75q32 -43 126 -43t147.5 46.5t73.5 155.5l80 419h74zM579 781q0 -20 -13.5 -34t-33.5 -14q-19 0 -31.5 13t-12.5 32q0 20 14 33.5t33 13.5 t31.5 -13t12.5 -31zM370 781q0 -20 -13.5 -34t-32.5 -14t-31.5 13t-12.5 32t13.5 33t32.5 14t31.5 -13t12.5 -31z" />
<glyph unicode="&#xdd;" horiz-adv-x="516" d="M586 675l-293 -430l-46 -245h-75l46 244l-124 431h78l66 -241q15 -48 29 -119h2q16 29 82 131l150 229h85zM499 786l-185 -57l-13 44l181 74z" />
<glyph unicode="&#xde;" horiz-adv-x="511" d="M523 408q0 -110 -85 -189.5t-228 -79.5q-36 0 -65 3l-27 -142h-75l128 675h75l-19 -105q56 2 91 2q102 0 153.5 -44.5t51.5 -119.5zM443 395q0 114 -148 114q-52 0 -82 -5l-56 -298q42 -4 69 -4q102 0 159.5 56.5t57.5 136.5z" />
<glyph unicode="&#xdf;" horiz-adv-x="559" d="M530 623q0 -42 -17.5 -72.5t-43 -48.5t-50.5 -33.5t-42.5 -38t-17.5 -51.5t20 -57.5t43.5 -48.5t43.5 -52.5t20 -69.5q0 -68 -56 -114t-146 -46q-38 0 -82 7l14 69q42 -13 77 -13q54 0 84.5 23.5t30.5 64.5q0 29 -19.5 57t-43 47.5t-43 52t-19.5 69.5q0 39 17.5 68.5 t42.5 47.5l50 34q25 17 42.5 40.5t17.5 53.5q0 29 -20.5 46t-59.5 17q-127 0 -159 -168l-102 -537q-24 -126 -77.5 -176.5t-146.5 -50.5q-36 0 -71 8l17 64q32 -9 67 -9q58 0 88.5 34t48.5 129l101 533q44 233 245 233q68 0 107 -31t39 -81z" />
<glyph unicode="&#xe0;" horiz-adv-x="536" d="M495 490l-93 -490h-75q12 59 62 219l-2 1q-102 -230 -241 -230q-109 0 -109 150q0 70 18.5 133.5t54.5 116t97.5 83.5t139.5 31q71 0 148 -14zM411 435q-42 10 -77 10q-57 0 -101.5 -27t-69.5 -70.5t-37.5 -93t-12.5 -101.5q0 -99 56 -99q48 0 100 59.5t86.5 136 t47.5 142.5zM417 612l-40 -37l-123 119l50 46z" />
<glyph unicode="&#xe1;" horiz-adv-x="536" d="M495 490l-93 -490h-75q12 59 62 219l-2 1q-102 -230 -241 -230q-109 0 -109 150q0 70 18.5 133.5t54.5 116t97.5 83.5t139.5 31q71 0 148 -14zM411 435q-42 10 -77 10q-57 0 -101.5 -27t-69.5 -70.5t-37.5 -93t-12.5 -101.5q0 -99 56 -99q48 0 100 59.5t86.5 136 t47.5 142.5zM508 688l-152 -113l-31 41l144 124z" />
<glyph unicode="&#xe2;" horiz-adv-x="536" d="M495 490l-93 -490h-75q12 59 62 219l-2 1q-102 -230 -241 -230q-109 0 -109 150q0 70 18.5 133.5t54.5 116t97.5 83.5t139.5 31q71 0 148 -14zM411 435q-42 10 -77 10q-57 0 -101.5 -27t-69.5 -70.5t-37.5 -93t-12.5 -101.5q0 -99 56 -99q48 0 100 59.5t86.5 136 t47.5 142.5zM495 612l-38 -37l-82 86l-111 -86l-30 35l152 130z" />
<glyph unicode="&#xe3;" horiz-adv-x="536" d="M495 490l-93 -490h-75q12 59 62 219l-2 1q-102 -230 -241 -230q-109 0 -109 150q0 70 18.5 133.5t54.5 116t97.5 83.5t139.5 31q71 0 148 -14zM411 435q-42 10 -77 10q-57 0 -101.5 -27t-69.5 -70.5t-37.5 -93t-12.5 -101.5q0 -99 56 -99q48 0 100 59.5t86.5 136 t47.5 142.5zM530 673q-41 -73 -107 -73q-34 0 -69 28t-53 28q-33 0 -63 -47l-38 31q41 73 105 73q34 0 70 -28t55 -28q32 0 62 47z" />
<glyph unicode="&#xe4;" horiz-adv-x="536" d="M495 490l-93 -490h-75q12 59 62 219l-2 1q-102 -230 -241 -230q-109 0 -109 150q0 70 18.5 133.5t54.5 116t97.5 83.5t139.5 31q71 0 148 -14zM411 435q-42 10 -77 10q-57 0 -101.5 -27t-69.5 -70.5t-37.5 -93t-12.5 -101.5q0 -99 56 -99q48 0 100 59.5t86.5 136 t47.5 142.5zM497 659q0 -21 -14.5 -35.5t-34.5 -14.5t-33.5 13.5t-13.5 32.5q0 21 14.5 35t35.5 14q19 0 32.5 -13.5t13.5 -31.5zM309 659q0 -21 -14.5 -35.5t-34.5 -14.5t-33.5 13.5t-13.5 32.5q0 21 14.5 35t35.5 14q19 0 32.5 -13.5t13.5 -31.5z" />
<glyph unicode="&#xe5;" horiz-adv-x="536" d="M495 490l-93 -490h-75q12 59 62 219l-2 1q-102 -230 -241 -230q-109 0 -109 150q0 70 18.5 133.5t54.5 116t97.5 83.5t139.5 31q71 0 148 -14zM411 435q-42 10 -77 10q-57 0 -101.5 -27t-69.5 -70.5t-37.5 -93t-12.5 -101.5q0 -99 56 -99q48 0 100 59.5t86.5 136 t47.5 142.5zM492 668q0 -47 -34 -79.5t-79 -32.5q-43 0 -72 28t-29 70q0 49 34.5 80.5t79.5 31.5q43 0 71.5 -28t28.5 -70zM442 665q0 23 -15 39t-38 16q-24 0 -42 -18t-18 -45q0 -23 15 -39t38 -16q24 0 42 18.5t18 44.5z" />
<glyph unicode="&#xe6;" horiz-adv-x="763" d="M740 396q0 -48 -26 -81t-101 -57.5t-201 -31.5q-5 -40 -5 -66q0 -63 25 -85t89 -22q73 0 139 30v-62q-71 -30 -166 -30q-75 0 -109 30.5t-45 86.5q-26 -47 -80.5 -82t-117.5 -35q-61 0 -91.5 27.5t-30.5 74.5q0 51 24.5 87t73 56.5t102.5 30.5t129 15l7 35q5 27 5 48 q0 31 -11 49q-19 32 -81 32q-78 0 -152 -43v67q87 36 165 36q69 0 100 -22t42 -61q29 35 75 59t100 24q70 0 105.5 -31t35.5 -79zM664 387q0 29 -20 45.5t-54 16.5q-60 0 -103 -46t-62 -118q121 8 180 29t59 73zM338 225q-58 -4 -98 -10t-75 -18.5t-52 -34t-17 -52.5 q0 -26 18 -42t46 -16q64 0 114 51t64 122z" />
<glyph unicode="&#xe7;" horiz-adv-x="415" d="M428 488l-17 -65q-45 21 -97 21q-63 0 -109.5 -44t-67 -104.5t-20.5 -124.5q0 -113 109 -113q60 0 117 25l3 -62q-67 -28 -139 -28q-170 0 -170 161q0 147 77 248.5t206 101.5q57 0 108 -16zM198 -41q19 -31 19 -64q0 -61 -64 -130h-68q49 52 60 87q3 11 3 23 q0 27 -17 58z" />
<glyph unicode="&#xe8;" horiz-adv-x="473" d="M449 396q0 -158 -326 -171q-6 -32 -6 -65q0 -63 25 -85t89 -22q72 0 136 29l5 -60q-74 -31 -168 -31q-83 0 -123.5 37.5t-40.5 121.5q0 147 73.5 251.5t195.5 104.5q70 0 105 -31t35 -79zM373 387q0 29 -19.5 45t-53.5 16q-60 0 -103.5 -46t-62.5 -118q125 5 182 30 t57 73zM385 612l-40 -37l-123 119l50 46z" />
<glyph unicode="&#xe9;" horiz-adv-x="473" d="M449 396q0 -158 -326 -171q-6 -32 -6 -65q0 -63 25 -85t89 -22q72 0 136 29l5 -60q-74 -31 -168 -31q-83 0 -123.5 37.5t-40.5 121.5q0 147 73.5 251.5t195.5 104.5q70 0 105 -31t35 -79zM373 387q0 29 -19.5 45t-53.5 16q-60 0 -103.5 -46t-62.5 -118q125 5 182 30 t57 73zM462 688l-152 -113l-31 41l144 124z" />
<glyph unicode="&#xea;" horiz-adv-x="473" d="M449 396q0 -158 -326 -171q-6 -32 -6 -65q0 -63 25 -85t89 -22q72 0 136 29l5 -60q-74 -31 -168 -31q-83 0 -123.5 37.5t-40.5 121.5q0 147 73.5 251.5t195.5 104.5q70 0 105 -31t35 -79zM373 387q0 29 -19.5 45t-53.5 16q-60 0 -103.5 -46t-62.5 -118q125 5 182 30 t57 73zM453 612l-38 -37l-82 86l-111 -86l-30 35l152 130z" />
<glyph unicode="&#xeb;" horiz-adv-x="473" d="M449 396q0 -158 -326 -171q-6 -32 -6 -65q0 -63 25 -85t89 -22q72 0 136 29l5 -60q-74 -31 -168 -31q-83 0 -123.5 37.5t-40.5 121.5q0 147 73.5 251.5t195.5 104.5q70 0 105 -31t35 -79zM373 387q0 29 -19.5 45t-53.5 16q-60 0 -103.5 -46t-62.5 -118q125 5 182 30 t57 73zM479 659q0 -21 -14.5 -35.5t-34.5 -14.5t-33.5 13.5t-13.5 32.5q0 21 14.5 35t35.5 14q19 0 32.5 -13.5t13.5 -31.5zM291 659q0 -21 -14.5 -35.5t-34.5 -14.5t-33.5 13.5t-13.5 32.5q0 21 14.5 35t35.5 14q19 0 32.5 -13.5t13.5 -31.5z" />
<glyph unicode="&#xec;" horiz-adv-x="251" d="M211 497l-95 -497h-73l95 497h73zM264 612l-40 -37l-123 119l50 46z" />
<glyph unicode="&#xed;" horiz-adv-x="251" d="M211 497l-95 -497h-73l95 497h73zM302 688l-152 -113l-31 41l144 124z" />
<glyph unicode="&#xee;" horiz-adv-x="251" d="M211 497l-95 -497h-73l95 497h73zM323 612l-38 -37l-82 86l-111 -86l-30 35l152 130z" />
<glyph unicode="&#xef;" horiz-adv-x="251" d="M211 497l-95 -497h-73l95 497h73zM345 659q0 -21 -14.5 -35.5t-34.5 -14.5t-33.5 13.5t-13.5 32.5q0 21 14.5 35t35.5 14q19 0 32.5 -13.5t13.5 -31.5zM157 659q0 -21 -14.5 -35.5t-34.5 -14.5t-33.5 13.5t-13.5 32.5q0 21 14.5 35t35.5 14q19 0 32.5 -13.5t13.5 -31.5z " />
<glyph unicode="&#xf0;" horiz-adv-x="532" d="M532 674l-107 -44q77 -121 77 -266q0 -155 -77 -264t-206 -109q-88 0 -135.5 45t-47.5 134q0 135 77.5 235t202.5 100q86 0 109 -51q-6 21 -20 55q-25 57 -50 92l-115 -48l-24 45l106 44q-26 30 -65 66l74 34q35 -34 64 -70l113 47zM422 324q0 56 -28.5 88t-84.5 32 q-88 0 -142 -78.5t-54 -177.5q0 -64 30 -98.5t85 -34.5q52 0 92.5 29.5t61 74t30.5 87t10 78.5z" />
<glyph unicode="&#xf1;" horiz-adv-x="565" d="M494 337l-64 -337h-74l62 320q6 30 6 52q0 71 -55 71q-48 0 -99.5 -59t-86.5 -135.5t-47 -142.5l-20 -106h-73l50 259q1 8 22 120t22 118h74q-12 -66 -59 -212l2 -1q40 95 101.5 159t135.5 64q67 0 93 -45q16 -28 16 -70q0 -25 -6 -55zM522 673q-41 -73 -107 -73 q-34 0 -69 28t-53 28q-33 0 -63 -47l-38 31q41 73 105 73q34 0 70 -28t55 -28q32 0 62 47z" />
<glyph unicode="&#xf2;" horiz-adv-x="537" d="M504 327q0 -148 -86 -242t-201 -94q-178 0 -178 176q0 146 81 242.5t203 96.5q91 0 136 -48t45 -131zM425 320q0 123 -113 123q-85 0 -140.5 -78.5t-55.5 -183.5q0 -126 114 -126q79 0 137 75t58 190zM401 612l-40 -37l-123 119l50 46z" />
<glyph unicode="&#xf3;" horiz-adv-x="537" d="M504 327q0 -148 -86 -242t-201 -94q-178 0 -178 176q0 146 81 242.5t203 96.5q91 0 136 -48t45 -131zM425 320q0 123 -113 123q-85 0 -140.5 -78.5t-55.5 -183.5q0 -126 114 -126q79 0 137 75t58 190zM482 688l-152 -113l-31 41l144 124z" />
<glyph unicode="&#xf4;" horiz-adv-x="537" d="M504 327q0 -148 -86 -242t-201 -94q-178 0 -178 176q0 146 81 242.5t203 96.5q91 0 136 -48t45 -131zM425 320q0 123 -113 123q-85 0 -140.5 -78.5t-55.5 -183.5q0 -126 114 -126q79 0 137 75t58 190zM486 612l-38 -37l-82 86l-111 -86l-30 35l152 130z" />
<glyph unicode="&#xf5;" horiz-adv-x="537" d="M504 327q0 -148 -86 -242t-201 -94q-178 0 -178 176q0 146 81 242.5t203 96.5q91 0 136 -48t45 -131zM425 320q0 123 -113 123q-85 0 -140.5 -78.5t-55.5 -183.5q0 -126 114 -126q79 0 137 75t58 190zM516 673q-41 -73 -107 -73q-34 0 -69 28t-53 28q-33 0 -63 -47 l-38 31q41 73 105 73q34 0 70 -28t55 -28q32 0 62 47z" />
<glyph unicode="&#xf6;" horiz-adv-x="537" d="M504 327q0 -148 -86 -242t-201 -94q-178 0 -178 176q0 146 81 242.5t203 96.5q91 0 136 -48t45 -131zM425 320q0 123 -113 123q-85 0 -140.5 -78.5t-55.5 -183.5q0 -126 114 -126q79 0 137 75t58 190zM497 659q0 -21 -14.5 -35.5t-34.5 -14.5t-33.5 13.5t-13.5 32.5 q0 21 14.5 35t35.5 14q19 0 32.5 -13.5t13.5 -31.5zM309 659q0 -21 -14.5 -35.5t-34.5 -14.5t-33.5 13.5t-13.5 32.5q0 21 14.5 35t35.5 14q19 0 32.5 -13.5t13.5 -31.5z" />
<glyph unicode="&#xf7;" d="M374 500q0 -23 -15 -38.5t-38 -15.5q-22 0 -37 15t-15 37t15.5 38t37.5 16t37 -15.5t15 -36.5zM523 329l-13 -63h-463l12 63h464zM296 96q0 -22 -15.5 -38t-37.5 -16t-37 15.5t-15 37.5q0 23 15.5 38.5t37.5 15.5t37 -15.5t15 -37.5z" />
<glyph unicode="&#xf8;" horiz-adv-x="537" d="M504 327q0 -148 -86 -242t-201 -94q-37 0 -65 9l-58 -102l-47 25l55 98q-63 43 -63 146q0 145 79.5 242t204.5 97q27 0 51 -6l55 99l47 -24l-52 -92q80 -42 80 -156zM428 320q0 71 -41 100l-202 -360q20 -7 45 -7h6q78 2 135 78t57 189zM340 442q-15 3 -34 3 q-82 -2 -137.5 -79.5t-55.5 -182.5q0 -63 28 -94z" />
<glyph unicode="&#xf9;" horiz-adv-x="564" d="M525 497l-50 -259q-2 -11 -23 -120t-22 -118h-74q17 83 59 212l-2 1q-40 -95 -101.5 -159t-135.5 -64q-66 0 -92 44q-16 29 -16 72q0 24 5 54l65 337h73l-61 -320q-6 -32 -6 -55.5t6 -37.5q12 -30 49 -30q47 0 98.5 58.5t86.5 135.5t47 143l20 106h74zM396 612l-40 -37 l-123 119l50 46z" />
<glyph unicode="&#xfa;" horiz-adv-x="564" d="M525 497l-50 -259q-2 -11 -23 -120t-22 -118h-74q17 83 59 212l-2 1q-40 -95 -101.5 -159t-135.5 -64q-66 0 -92 44q-16 29 -16 72q0 24 5 54l65 337h73l-61 -320q-6 -32 -6 -55.5t6 -37.5q12 -30 49 -30q47 0 98.5 58.5t86.5 135.5t47 143l20 106h74zM482 688l-152 -113 l-31 41l144 124z" />
<glyph unicode="&#xfb;" horiz-adv-x="564" d="M525 497l-50 -259q-2 -11 -23 -120t-22 -118h-74q17 83 59 212l-2 1q-40 -95 -101.5 -159t-135.5 -64q-66 0 -92 44q-16 29 -16 72q0 24 5 54l65 337h73l-61 -320q-6 -32 -6 -55.5t6 -37.5q12 -30 49 -30q47 0 98.5 58.5t86.5 135.5t47 143l20 106h74zM479 612l-38 -37 l-82 86l-111 -86l-30 35l152 130z" />
<glyph unicode="&#xfc;" horiz-adv-x="564" d="M525 497l-50 -259q-2 -11 -23 -120t-22 -118h-74q17 83 59 212l-2 1q-40 -95 -101.5 -159t-135.5 -64q-66 0 -92 44q-16 29 -16 72q0 24 5 54l65 337h73l-61 -320q-6 -32 -6 -55.5t6 -37.5q12 -30 49 -30q47 0 98.5 58.5t86.5 135.5t47 143l20 106h74zM496 659 q0 -21 -14.5 -35.5t-34.5 -14.5t-33.5 13.5t-13.5 32.5q0 21 14.5 35t35.5 14q19 0 32.5 -13.5t13.5 -31.5zM308 659q0 -21 -14.5 -35.5t-34.5 -14.5t-33.5 13.5t-13.5 32.5q0 21 14.5 35t35.5 14q19 0 32.5 -13.5t13.5 -31.5z" />
<glyph unicode="&#xfd;" horiz-adv-x="475" d="M495 495q-210 -492 -382 -663q-90 -88 -174 -88q-41 0 -68 7l13 69q27 -10 63 -10q58 0 116 64q61 65 61 171q0 192 -71 452h83q59 -231 59 -404q0 -29 -9 -69h2q117 202 238 493zM428 688l-152 -113l-31 41l144 124z" />
<glyph unicode="&#xfe;" horiz-adv-x="536" d="M502 357q0 -70 -18.5 -133.5t-54.5 -115.5t-97 -83t-140 -31q-40 0 -76 6l-47 -249h-74l188 979h74l-42 -213q-16 -88 -62 -235l2 -1q42 101 102.5 163.5t136.5 62.5q108 0 108 -150zM426 344q0 99 -55 99q-49 0 -100.5 -59.5t-86 -135t-47.5 -141.5l-8 -41 q36 -13 77 -13q57 0 101 26.5t69 70t37.5 93t12.5 101.5z" />
<glyph unicode="&#xff;" horiz-adv-x="475" d="M495 495q-210 -492 -382 -663q-90 -88 -174 -88q-41 0 -68 7l13 69q27 -10 63 -10q58 0 116 64q61 65 61 171q0 192 -71 452h83q59 -231 59 -404q0 -29 -9 -69h2q117 202 238 493zM431 659q0 -21 -14.5 -35.5t-34.5 -14.5t-33.5 13.5t-13.5 32.5q0 21 14.5 35t35.5 14 q19 0 32.5 -13.5t13.5 -31.5zM243 659q0 -21 -14.5 -35.5t-34.5 -14.5t-33.5 13.5t-13.5 32.5q0 21 14.5 35t35.5 14q19 0 32.5 -13.5t13.5 -31.5z" />
<glyph unicode="&#x131;" horiz-adv-x="251" d="M211 497l-95 -497h-73l95 497h73z" />
<glyph unicode="&#x152;" horiz-adv-x="847" d="M857 675l-12 -62h-258l-44 -234h245l-11 -62h-246l-48 -253h258l-13 -64h-329q-54 -9 -109 -9q-118 0 -178 63.5t-60 181.5q0 185 110.5 316.5t272.5 131.5q55 0 98 -9h324zM510 604q-44 14 -87 14q-124 0 -206.5 -109t-82.5 -263q0 -88 43 -138t123 -50q56 0 110 13z " />
<glyph unicode="&#x153;" horiz-adv-x="840" d="M817 396q0 -158 -327 -171q-6 -48 -6 -65q0 -63 25 -85t89 -22q71 0 137 29l4 -60q-74 -31 -168 -31q-133 0 -152 103q-37 -48 -90.5 -75.5t-111.5 -27.5q-178 0 -178 176q0 146 81 242.5t203 96.5q127 0 163 -103q75 103 191 103q70 0 105 -31t35 -79zM741 387 q0 29 -20 45t-53 16q-60 0 -103.5 -46t-63.5 -118q125 5 182.5 30t57.5 73zM425 320q0 123 -113 123q-85 0 -140.5 -78.5t-55.5 -183.5q0 -126 114 -126q79 0 137 75t58 190z" />
<glyph unicode="&#x178;" horiz-adv-x="516" d="M586 675l-293 -430l-46 -245h-75l46 244l-124 431h78l66 -241q15 -48 29 -119h2q16 29 82 131l150 229h85zM499 781q0 -20 -13.5 -34t-33.5 -14q-19 0 -31.5 13t-12.5 32q0 20 14 33.5t33 13.5t31.5 -13t12.5 -31zM290 781q0 -20 -13.5 -34t-32.5 -14t-31.5 13t-12.5 32 t13.5 33t32.5 14t31.5 -13t12.5 -31z" />
<glyph unicode="&#x2c6;" horiz-adv-x="427" d="M387 612l-38 -37l-82 86l-111 -86l-30 35l152 130z" />
<glyph unicode="&#x2da;" horiz-adv-x="382" d="M383 661q0 -47 -34 -79.5t-79 -32.5q-43 0 -72 28t-29 70q0 49 34.5 80.5t79.5 31.5q43 0 71.5 -28t28.5 -70zM333 658q0 23 -15 39t-38 16q-24 0 -42 -18t-18 -45q0 -23 15 -39t38 -16q24 0 42 18.5t18 44.5z" />
<glyph unicode="&#x2dc;" horiz-adv-x="498" d="M456 673q-41 -73 -107 -73q-34 0 -69 28t-53 28q-33 0 -63 -47l-38 31q41 73 105 73q34 0 70 -28t55 -28q32 0 62 47z" />
<glyph unicode="&#x3bc;" horiz-adv-x="614" d="M559 66q-43 -75 -110 -75q-68 0 -68 69q0 34 17 86l-2 1q-21 -52 -82.5 -103.5t-121.5 -51.5q-48 0 -75 33l-41 -274h-79l143 746h73l-61 -320q-5 -26 -5 -46q0 -27 9 -45q16 -32 50 -32q60 0 128 82.5t91 208.5l29 152h73l-68 -358q-6 -33 -6 -51q0 -9 1 -15 q5 -17 23 -17q28 0 49 38z" />
<glyph unicode="&#x2000;" horiz-adv-x="427" />
<glyph unicode="&#x2001;" horiz-adv-x="854" />
<glyph unicode="&#x2002;" horiz-adv-x="427" />
<glyph unicode="&#x2003;" horiz-adv-x="854" />
<glyph unicode="&#x2004;" horiz-adv-x="284" />
<glyph unicode="&#x2005;" horiz-adv-x="213" />
<glyph unicode="&#x2006;" horiz-adv-x="142" />
<glyph unicode="&#x2007;" horiz-adv-x="142" />
<glyph unicode="&#x2008;" horiz-adv-x="106" />
<glyph unicode="&#x2009;" horiz-adv-x="170" />
<glyph unicode="&#x200a;" horiz-adv-x="47" />
<glyph unicode="&#x2010;" horiz-adv-x="327" d="M294 322l-12 -62h-231l12 62h231z" />
<glyph unicode="&#x2011;" horiz-adv-x="327" d="M294 322l-12 -62h-231l12 62h231z" />
<glyph unicode="&#x2013;" d="M566 330l-12 -65h-550l12 65h550z" />
<glyph unicode="&#x2014;" horiz-adv-x="1000" d="M895 330l-12 -65h-759l13 65h758z" />
<glyph unicode="&#x2018;" horiz-adv-x="230" d="M278 713q-76 -64 -76 -112q0 -15 8 -28q7 -12 7 -24t-7 -24q-14 -24 -42 -24q-38 0 -49 38q-3 11 -3 24q0 49 52 110q33 38 82 74z" />
<glyph unicode="&#x2019;" horiz-adv-x="230" d="M204 740q37 0 48 -37q4 -12 4 -25q0 -48 -51 -108q-32 -39 -83 -75l-28 33q75 64 75 112q0 15 -7 28q-6 12 -6 24t6 24q14 24 42 24z" />
<glyph unicode="&#x201a;" horiz-adv-x="230" d="M76 99q37 0 48 -37q4 -12 4 -25q0 -48 -51 -108q-32 -39 -83 -75l-28 33q75 63 75 112q0 15 -7 29q-6 12 -6 23q0 13 6 25q14 23 42 23z" />
<glyph unicode="&#x201c;" horiz-adv-x="404" d="M455 714q-75 -64 -75 -112q0 -15 7 -28q7 -12 7 -23.5t-7 -24.5q-13 -24 -41 -24q-38 0 -49 38q-3 12 -3 24q0 49 51 109q33 38 82 74zM278 714q-75 -64 -75 -112q0 -15 7 -28q6 -12 6 -24t-6 -24q-14 -24 -42 -24q-37 0 -48 37q-4 12 -4 25q0 48 51 108q32 39 83 75z " />
<glyph unicode="&#x201d;" horiz-adv-x="404" d="M380 741q38 0 49 -38q3 -11 3 -24q0 -49 -52 -109q-32 -38 -82 -74l-28 33q76 64 76 112q0 15 -7 28q-7 12 -7 24t6 24q14 24 42 24zM204 741q37 0 48 -37q4 -12 4 -25q0 -48 -51 -108q-32 -39 -83 -75l-28 33q75 64 75 112q0 15 -7 28q-6 12 -6 24t6 24q14 24 42 24z " />
<glyph unicode="&#x201e;" horiz-adv-x="404" d="M253 99q38 0 49 -38q3 -11 3 -24q0 -49 -52 -109q-32 -38 -82 -74l-28 33q76 64 76 113q0 15 -7 28q-7 12 -7 24q0 11 7 23q13 24 41 24zM76 99q37 0 48 -37q4 -12 4 -25q0 -48 -51 -108q-32 -39 -83 -75l-28 33q75 63 75 112q0 15 -7 29q-6 12 -6 23q0 13 6 25 q14 23 42 23z" />
<glyph unicode="&#x2022;" horiz-adv-x="419" d="M330 302q0 -48 -33.5 -81.5t-79.5 -33.5q-45 0 -76 31t-31 74q0 48 33.5 81.5t79.5 33.5q45 0 76 -31.5t31 -73.5z" />
<glyph unicode="&#x2026;" horiz-adv-x="629" d="M535 48q0 -24 -16.5 -40t-38.5 -16q-21 0 -35 15t-14 35q0 24 16 40t39 16q21 0 35 -14.5t14 -35.5zM331 48q0 -24 -16 -40t-39 -16q-21 0 -35 15t-14 35q0 24 16.5 40t38.5 16t35.5 -14.5t13.5 -35.5zM128 48q0 -24 -16.5 -40t-38.5 -16q-21 0 -35 15t-14 35q0 24 16 40 t39 16q21 0 35 -14.5t14 -35.5z" />
<glyph unicode="&#x202f;" horiz-adv-x="170" />
<glyph unicode="&#x2039;" horiz-adv-x="307" d="M268 434l-125 -140l76 -140l-59 -33l-92 178l149 170z" />
<glyph unicode="&#x203a;" horiz-adv-x="307" d="M263 291l-148 -170l-52 35l125 139l-76 141l59 33z" />
<glyph unicode="&#x205f;" horiz-adv-x="213" />
<glyph unicode="&#x20ac;" d="M573 632l-25 -63q-53 29 -117 29q-147 0 -213 -171h200l-10 -52h-209q-13 -49 -18 -96h209l-9 -52h-204v-19q0 -71 27 -110q32 -43 119 -43q63 0 136 30l13 -60q-80 -34 -166 -34q-120 0 -166 61q-42 56 -42 154v21h-90l9 52h86q8 59 19 96h-86l10 52h93 q39 103 114 167.5t193 64.5q66 0 127 -27z" />
<glyph unicode="&#x2122;" horiz-adv-x="689" d="M672 675l-12 -281h-58l7 158l3 56l-21 -48l-81 -166h-61l-16 168l-3 46l-11 -37l-58 -177h-54l94 281h77l16 -166l3 -48l16 43l84 171h75zM339 675l-9 -47h-74l-44 -234h-59l45 234h-76l9 47h208z" />
</font>
</defs>
</svg>
