<?xml version="1.0" standalone="no"?>
<!DOCTYPE svg PUBLIC "-//W3C//DTD SVG 1.1//EN" "http://www.w3.org/Graphics/SVG/1.1/DTD/svg11.dtd" >
<svg xmlns="http://www.w3.org/2000/svg">
<metadata>
This is a custom SVG webfont generated by Font Squirrel.
</metadata>
<defs>
<font id="webfontPD4efmhd" horiz-adv-x="550" >
<font-face units-per-em="1000" ascent="800" descent="-200" />
<missing-glyph horiz-adv-x="218" />
<glyph unicode=" "  horiz-adv-x="218" />
<glyph unicode="&#x09;" horiz-adv-x="218" />
<glyph unicode="&#xa0;" horiz-adv-x="218" />
<glyph unicode="!" horiz-adv-x="312" d="M290 699l-116 -545h-50l92 545h74zM175 40q0 -20 -13.5 -34t-33.5 -14t-33.5 13.5t-13.5 33.5t14 34t34 14q19 0 32.5 -13.5t13.5 -33.5z" />
<glyph unicode="&#x22;" horiz-adv-x="331" d="M361 697l-53 -213h-44l27 213h70zM212 697l-53 -213h-44l28 213h69z" />
<glyph unicode="#" d="M557 467l-8 -42h-99l-56 -192h94l-8 -43h-99l-57 -190h-51l57 190h-161l-57 -190h-50l57 190h-96l8 43h101l56 192h-96l9 42h100l54 183h50l-53 -183h161l53 183h50l-53 -183h94zM400 425h-161l-57 -192h161z" />
<glyph unicode="$" d="M483 623l-13 -58q-51 17 -112 17q-74 0 -115 -31.5t-41 -78.5q0 -34 24.5 -59.5t59.5 -42.5l68 -37q35 -19 59.5 -51.5t24.5 -77.5q0 -65 -54.5 -119t-145.5 -66l-20 -104h-51l20 102q-56 0 -120 16l14 61q55 -23 128 -23t117.5 36t44.5 82q0 38 -24 65.5t-59 45.5 l-68 36q-34 18 -58 49.5t-24 75.5q0 66 53 114.5t140 57.5l17 97h51l-18 -95q52 -1 102 -12z" />
<glyph unicode="%" horiz-adv-x="728" d="M377 555q0 -92 -52.5 -148.5t-121.5 -56.5q-56 0 -84 27.5t-28 77.5q0 91 52.5 147t121.5 56q56 0 84 -27t28 -76zM701 636l-610 -655l-36 31l610 655zM669 196q0 -91 -52.5 -147.5t-121.5 -56.5q-56 0 -84.5 27.5t-28.5 76.5q0 91 52.5 147.5t121.5 56.5q56 0 84.5 -27 t28.5 -77zM320 546q0 66 -61 66q-46 0 -78.5 -41.5t-32.5 -107.5q0 -67 61 -67q46 0 78.5 42t32.5 108zM612 188q0 66 -62 66q-46 0 -78.5 -41.5t-32.5 -107.5q0 -67 62 -67q46 0 78.5 42t32.5 108z" />
<glyph unicode="&#x26;" horiz-adv-x="778" d="M701 440q-28 -185 -145 -305q67 -64 121 -106l-45 -45q-57 46 -122 109q-123 -101 -282 -101q-90 0 -136 45t-46 111q0 44 15 82.5t45.5 72t59 56.5t71.5 53q-63 100 -63 155q0 70 50.5 119t130.5 49q66 0 98.5 -30.5t32.5 -79.5q0 -34 -12.5 -64t-40.5 -58.5t-51 -47 t-66 -49.5q74 -106 201 -233q44 45 76.5 114.5t43.5 152.5h64zM422 615q0 69 -74 69q-51 0 -81 -30.5t-30 -77.5q0 -44 51 -128q46 32 69 50.5t44 50.5t21 66zM471 131q-126 128 -206 239q-74 -52 -113.5 -98.5t-39.5 -108.5q0 -50 32.5 -84t97.5 -34q125 0 229 86z" />
<glyph unicode="'" horiz-adv-x="182" d="M212 697l-53 -213h-44l28 213h69z" />
<glyph unicode="(" horiz-adv-x="295" d="M365 753q-100 -123 -166.5 -290t-66.5 -327q0 -188 55 -317l-49 -24q-67 161 -67 335q0 167 67.5 335.5t185.5 312.5z" />
<glyph unicode=")" horiz-adv-x="295" d="M245 444q0 -168 -67 -336t-185 -313l-41 25q99 123 166 290.5t67 327.5q0 186 -56 316l49 24q67 -156 67 -334z" />
<glyph unicode="*" horiz-adv-x="359" d="M385 634l-111 -47l92 -53l-30 -42l-84 67l-15 -117l-50 8l30 107l-97 -62l-21 46l110 46l-92 54l29 40l83 -66l16 117l50 -7l-30 -108l99 61z" />
<glyph unicode="+" d="M520 324l-10 -53h-202l-41 -211h-59l40 211h-200l11 53h200l40 210h59l-40 -210h202z" />
<glyph unicode="," horiz-adv-x="204" d="M69 88q36 0 44 -36q2 -9 2 -19q0 -49 -56 -111q-29 -32 -70 -62l-25 29q76 63 76 111q0 14 -7 27q-5 10 -5 20q0 11 6 21q11 20 35 20z" />
<glyph unicode="-" horiz-adv-x="327" d="M291 320l-10 -52h-228l10 52h228z" />
<glyph unicode="." horiz-adv-x="204" d="M117 43q0 -22 -14 -36.5t-34 -14.5q-19 0 -32.5 14t-13.5 32q0 22 14 36.5t34 14.5t33 -13.5t13 -32.5z" />
<glyph unicode="/" horiz-adv-x="412" d="M502 757l-519 -918h-60l518 918h61z" />
<glyph unicode="0" d="M524 470q0 -54 -9.5 -114.5t-33 -126t-56.5 -117.5t-86 -86t-117 -34q-166 0 -166 188q0 69 16.5 146.5t50 154.5t95 127t139.5 50q85 0 126 -49.5t41 -138.5zM456 463q0 70 -25.5 106.5t-83.5 36.5t-104 -47t-70.5 -116.5t-37 -135.5t-12.5 -119q0 -71 25.5 -107 t85.5 -36q57 0 102.5 46.5t70 116t37 136t12.5 119.5z" />
<glyph unicode="1" d="M453 57l-11 -57h-409l11 57h182l101 531l-182 -67l-2 58l207 71h55l-114 -593h162z" />
<glyph unicode="2" d="M499 508q0 -71 -42.5 -138.5t-166.5 -167.5l-178 -143v-1q76 2 222 2h109l-12 -60h-415l9 51l222 183q108 89 146 144.5t38 117.5q0 49 -30.5 79t-87.5 30q-42 0 -87 -16.5t-76 -39.5l-17 53q94 56 193 56q83 0 128 -42.5t45 -107.5z" />
<glyph unicode="3" d="M501 532q0 -66 -44 -114t-117 -67l-1 -2q57 -7 88 -41.5t31 -88.5q0 -39 -17.5 -77.5t-52 -73t-94.5 -55.5t-136 -21q-64 0 -116 15l14 60q52 -20 116 -20q107 0 161.5 49.5t54.5 114.5q0 49 -39 77t-112 28q-54 0 -99 -4l10 53h18q144 0 205.5 46.5t61.5 110.5 q0 39 -30 61.5t-82 22.5q-70 0 -153 -39l-3 57q88 34 167 34q82 0 125.5 -34.5t43.5 -91.5z" />
<glyph unicode="4" d="M484 650l-82 -436h119l-12 -57h-119l-30 -157h-62l29 157h-314l6 49l380 444h85zM410 583h-1l-319 -371q142 2 249 2z" />
<glyph unicode="5" d="M519 650l-11 -61h-278l-39 -201q31 3 66 3q100 0 152 -41.5t52 -109.5q0 -102 -83 -175t-217 -73q-63 0 -117 12l11 61q54 -19 116 -19q101 0 161.5 52t60.5 132q0 108 -160 108q-72 0 -110 -8l61 320h335z" />
<glyph unicode="6" d="M512 656l-11 -56q-24 3 -55 3q-208 0 -294 -241q-2 -4 -9 -24t-11 -33h1q31 47 82.5 73.5t107.5 26.5q83 0 127 -41.5t44 -109.5q0 -110 -75.5 -186t-187.5 -76q-85 0 -129.5 49.5t-44.5 141.5q0 26 4.5 60.5t16.5 81t31 91t51 89.5t73 78t100.5 54t130.5 21q30 0 48 -2z M428 241q0 52 -30.5 81.5t-91.5 29.5q-80 0 -131.5 -55.5t-51.5 -125.5q0 -59 32 -93t93 -34q75 0 127.5 56t52.5 141z" />
<glyph unicode="7" d="M569 650l-11 -55q-218 -297 -382 -595h-76q194 332 385 590q-40 -2 -262 -2h-99l12 62h433z" />
<glyph unicode="8" d="M519 533q0 -66 -40 -108.5t-132 -88.5q58 -30 90.5 -64t32.5 -86q0 -87 -72.5 -140.5t-171.5 -53.5q-86 0 -135 35t-49 96q0 63 47 113t143 96q-50 26 -78.5 57.5t-28.5 78.5q0 76 65 133t163 57q80 0 123 -33.5t43 -91.5zM452 522q0 40 -29.5 62t-79.5 22 q-68 0 -109.5 -39t-41.5 -89q0 -36 26.5 -60.5t78.5 -53.5q87 43 121 77.5t34 80.5zM403 178q0 44 -30 71t-89 57q-101 -48 -137.5 -90t-36.5 -85q0 -39 33.5 -63t93.5 -24q66 0 116 35t50 99z" />
<glyph unicode="9" d="M520 475q0 -25 -4 -58t-15.5 -80.5t-29.5 -93t-50 -92t-72.5 -81t-101.5 -56.5t-133 -22q-44 0 -78 6l11 59q41 -9 79 -9q207 0 288 226q13 38 18 48h-1q-71 -81 -180 -81q-79 0 -122 41t-43 115q0 103 71.5 182t185.5 79q83 0 130 -45.5t47 -137.5zM453 479 q0 57 -31.5 92t-90.5 35q-77 0 -128 -60t-51 -137q0 -54 29.5 -83t85.5 -29q77 0 131.5 53t54.5 129z" />
<glyph unicode=":" horiz-adv-x="278" d="M223 341q0 -21 -14 -35t-34 -14t-33.5 14t-13.5 34t14 34t34 14t33.5 -14t13.5 -33zM165 41q0 -20 -14 -34.5t-33 -14.5q-20 0 -33.5 14t-13.5 34t13.5 34.5t33.5 14.5t33.5 -14t13.5 -34z" />
<glyph unicode=";" horiz-adv-x="278" d="M223 341q0 -21 -14 -35t-34 -14t-33.5 14t-13.5 34t14 34t34 14t33.5 -14t13.5 -33zM119 88q36 0 44 -36q2 -9 2 -19q0 -49 -56 -111q-29 -32 -70 -62l-25 29q76 63 76 111q0 14 -7 27q-5 10 -5 20q0 11 6 21q11 20 35 20z" />
<glyph unicode="&#x3c;" d="M484 536l-315 -232l232 -235l-44 -40l-269 280l360 270z" />
<glyph unicode="=" d="M521 402l-9 -53h-435l9 53h435zM492 246l-10 -54h-435l10 54h435z" />
<glyph unicode="&#x3e;" d="M483 299l-360 -270l-36 42l315 233l-232 235l44 40z" />
<glyph unicode="?" horiz-adv-x="433" d="M408 528q0 -38 -17.5 -70.5t-42.5 -53.5l-54 -48q-29 -26 -52.5 -51t-35.5 -64q-9 -25 -9 -54q0 -16 3 -33h-62q-2 18 -2 36q0 39 12 72q18 48 49 78.5t63 57t55.5 58.5t23.5 67q0 46 -46.5 80t-121.5 44l19 58q101 -12 159.5 -62t58.5 -115zM195 40q0 -20 -14 -34 t-34 -14q-19 0 -32.5 13.5t-13.5 33.5t13.5 34t33.5 14t33.5 -13.5t13.5 -33.5z" />
<glyph unicode="@" horiz-adv-x="965" d="M892 436q0 -133 -68.5 -220t-168.5 -87q-63 0 -87 35q-15 23 -15 50q0 16 5 33h-3q-14 -37 -63 -77.5t-98 -40.5q-86 0 -86 102q0 47 14 96t41 95t76 75.5t112 29.5q65 0 122 -11l-62 -223q-8 -28 -8 -50q0 -19 7 -33q14 -27 56 -27q73 0 121 71t48 180q0 104 -67 175.5 t-205 71.5q-166 0 -287 -130.5t-121 -312.5q0 -126 75 -199.5t213 -73.5q87 0 165 24l3 -54q-84 -25 -179 -25q-159 0 -247.5 86t-88.5 237q0 135 65 250t174.5 181.5t234.5 66.5q159 0 240.5 -83.5t81.5 -211.5zM604 472q-24 7 -61 7q-68 0 -121.5 -69t-53.5 -165 q0 -60 41 -60q47 0 98 60t81 169z" />
<glyph unicode="A" horiz-adv-x="598" d="M533 0h-69l-27 172h-304l-95 -172h-70l378 675h67zM429 224l-50 288q-9 53 -13 92h-1q-27 -57 -45 -90l-160 -290h269z" />
<glyph unicode="B" horiz-adv-x="551" d="M527 552q0 -75 -43.5 -126t-106.5 -71v-1q51 -9 81 -44.5t30 -81.5q0 -98 -76 -164.5t-213 -66.5q-1 0 -151 3l128 675q16 0 72 1t100 1q93 0 136 -33.5t43 -91.5zM461 539q0 42 -28.5 64.5t-102.5 22.5q-39 0 -101 -2l-48 -249q22 -1 66 -1q96 0 155 43.5t59 121.5z M421 221q0 104 -168 104q-64 0 -81 -1l-51 -269q38 -6 94 -6q97 0 151.5 49.5t54.5 122.5z" />
<glyph unicode="C" horiz-adv-x="572" d="M594 661l-18 -58q-75 25 -150 25t-134.5 -34t-94.5 -91.5t-53 -126.5t-18 -145q0 -87 42.5 -134.5t144.5 -47.5q85 0 166 36l7 -54q-93 -38 -191 -38q-238 0 -238 229q0 92 25 174t72 146.5t120.5 102t164.5 37.5q81 0 155 -21z" />
<glyph unicode="D" horiz-adv-x="672" d="M650 432q0 -85 -27 -161t-79.5 -138.5t-139.5 -99t-198 -36.5q-35 0 -86 2q-33 1 -54 1h-18l128 675q24 0 87.5 1.5t94.5 1.5q292 0 292 -246zM583 425q0 201 -235 201q-32 0 -119 -3l-108 -566q51 -7 94 -7q94 0 167 32.5t115.5 86.5t64 119t21.5 137z" />
<glyph unicode="E" horiz-adv-x="497" d="M502 675l-10 -52h-263l-48 -249h252l-10 -51h-251l-51 -270h263l-10 -53h-326l128 675h326z" />
<glyph unicode="F" horiz-adv-x="461" d="M501 675l-10 -52h-262l-48 -250h249l-10 -52h-248l-61 -321h-63l128 675h325z" />
<glyph unicode="G" horiz-adv-x="673" d="M651 655l-19 -62q-80 37 -168 37q-145 0 -243 -109t-98 -267q0 -86 52.5 -147t161.5 -61q73 0 152 24l51 267h63l-60 -310q-104 -35 -217 -35q-132 0 -201.5 70.5t-69.5 187.5q0 190 121.5 311.5t297.5 121.5q97 0 177 -28z" />
<glyph unicode="H" horiz-adv-x="692" d="M678 675l-128 -675h-63l62 324h-378l-62 -324h-63l128 675h63l-56 -298h378l56 298h63z" />
<glyph unicode="I" horiz-adv-x="251" d="M239 675l-128 -675h-63l128 675h63z" />
<glyph unicode="J" horiz-adv-x="317" d="M306 675l-97 -509q-16 -87 -60 -129.5t-126 -42.5q-33 0 -69 8l11 59q33 -13 66 -13q46 0 74.5 27t41.5 93l96 507h63z" />
<glyph unicode="K" horiz-adv-x="537" d="M586 675l-342 -333l219 -342h-81l-208 342l-64 -342h-63l128 675h63l-63 -327l327 327h84z" />
<glyph unicode="L" horiz-adv-x="416" d="M374 53l-11 -53h-315l128 675h63l-118 -622h253z" />
<glyph unicode="M" horiz-adv-x="873" d="M799 675l-32 -675h-64l21 432q4 105 12 176h-2q-14 -36 -51 -106l-262 -502h-74l-67 471q-13 91 -14 137h-1q-30 -106 -52 -177l-133 -431h-68l221 675h81l67 -480q9 -66 13 -129h1q28 63 59 120l255 489h90z" />
<glyph unicode="N" horiz-adv-x="689" d="M678 675l-129 -675h-74l-203 467q-38 87 -54 141q-17 -115 -49 -294l-59 -314h-63l128 675h75l202 -464q32 -74 55 -141q26 159 47 271l60 334h64z" />
<glyph unicode="O" horiz-adv-x="692" d="M673 440q0 -191 -111.5 -319.5t-271.5 -128.5q-117 0 -176.5 63t-59.5 181q0 186 110 316.5t271 130.5q114 0 176 -63.5t62 -179.5zM604 433q0 93 -45.5 144.5t-134.5 51.5q-128 0 -214.5 -112.5t-86.5 -272.5q0 -91 45.5 -144t128.5 -53q126 0 216.5 111.5t90.5 274.5z " />
<glyph unicode="P" horiz-adv-x="507" d="M518 523q0 -110 -88.5 -181t-205.5 -71q-35 0 -62 3l-52 -274h-63l128 675q69 3 150 3q96 0 144.5 -41.5t48.5 -113.5zM452 512q0 114 -142 114q-48 0 -82 -3l-56 -293q27 -6 66 -6q86 0 150 54t64 134z" />
<glyph unicode="Q" horiz-adv-x="693" d="M673 440q0 -191 -111.5 -319.5t-271.5 -128.5q-117 0 -176.5 63t-59.5 181q0 186 109.5 316.5t270.5 130.5q114 0 176.5 -63.5t62.5 -179.5zM622 -114l-11 -55q-29 -4 -56 -4q-39 0 -75 8q-60 13 -115 27q-35 8 -69 8l-41 -3l9 55q24 3 48 3q38 0 74 -8l116 -26 q36 -8 73 -8q23 0 47 3zM604 433q0 93 -45.5 144.5t-134.5 51.5q-128 0 -214.5 -112.5t-86.5 -272.5q0 -91 45.5 -144t128.5 -53q126 0 216.5 111.5t90.5 274.5z" />
<glyph unicode="R" horiz-adv-x="532" d="M510 535q0 -95 -76.5 -153.5t-178.5 -61.5q6 -9 42 -69l150 -251h-78l-184 319h-14l-60 -319h-63l128 675q62 3 143 3q191 0 191 -143zM444 529q0 51 -31.5 74.5t-102.5 23.5q-48 0 -81 -3l-48 -254q22 -2 61 -2q88 0 145 42t57 119z" />
<glyph unicode="S" horiz-adv-x="449" d="M434 674l-11 -58q-44 15 -94 15q-78 0 -120 -38.5t-42 -89.5q0 -38 22 -68t53 -51l64 -45q32 -23 54 -57t22 -78q0 -91 -72.5 -151.5t-184.5 -60.5q-63 0 -104 14l13 63q48 -21 98 -21q86 0 134.5 40.5t48.5 106.5q0 35 -22 63.5t-53 49.5l-62 44q-31 22 -53 57t-22 80 q0 81 63.5 137.5t173.5 56.5q51 0 94 -9z" />
<glyph unicode="T" horiz-adv-x="510" d="M572 675l-10 -53h-204l-119 -622h-63l119 622h-205l10 53h472z" />
<glyph unicode="U" horiz-adv-x="685" d="M673 675l-81 -428q-48 -255 -302 -255q-70 0 -116.5 18t-66 49.5t-25.5 74.5q-1 14 -1 29q0 30 7 63l86 449h63l-86 -448q-6 -33 -6 -59q0 -50 21 -79q34 -45 133 -45q98 0 154 48t78 164l80 419h62z" />
<glyph unicode="V" horiz-adv-x="598" d="M662 675l-379 -675h-70l-115 675h68l74 -462q12 -69 20 -146h1q18 42 77 152l254 456h70z" />
<glyph unicode="W" horiz-adv-x="937" d="M978 675l-307 -675h-81l-48 512q-4 53 -6 101h-1q-19 -54 -43 -102l-239 -511h-81l-50 675h65l34 -489q3 -54 3 -101v-23h1q27 68 51 121l231 492h80l50 -501q5 -51 5 -97v-15h1q19 51 39 97l229 516h67z" />
<glyph unicode="X" horiz-adv-x="565" d="M604 675l-270 -324l161 -351h-74l-131 300l-242 -300h-76l292 352l-148 323h71l121 -272l221 272h75z" />
<glyph unicode="Y" horiz-adv-x="508" d="M576 675l-293 -429l-47 -246h-63l47 246l-125 429h65l71 -251q16 -59 30 -122h1q19 35 84 133l157 240h73z" />
<glyph unicode="Z" horiz-adv-x="517" d="M550 675l-8 -46l-402 -505q-13 -18 -57 -68q23 2 180 2h174l-12 -58h-427l9 45l380 481q24 31 81 94q-76 -2 -157 -2h-184l11 57h412z" />
<glyph unicode="[" horiz-adv-x="311" d="M372 767l-10 -47h-119l-166 -866h121l-10 -49h-177l183 962h178z" />
<glyph unicode="\" horiz-adv-x="407" d="M338 -161h-56l-169 918h54z" />
<glyph unicode="]" horiz-adv-x="311" d="M316 767l-183 -962h-178l9 49h120l165 866h-120l9 47h178z" />
<glyph unicode="^" d="M476 373l-50 -26l-97 278l-197 -278l-42 25l222 303h52z" />
<glyph unicode="_" d="M473 -202l-10 -49h-550l10 49h550z" />
<glyph unicode="`" horiz-adv-x="359" d="M302 608l-37 -30l-112 121l48 38z" />
<glyph unicode="a" horiz-adv-x="535" d="M488 489l-93 -489h-64q11 60 65 233l-2 1q-16 -38 -34.5 -72.5t-49.5 -77t-73.5 -68t-90.5 -25.5q-107 0 -107 148q0 70 18 133t53.5 116t96.5 84t139 31t142 -14zM418 443q-42 11 -82 11q-61 0 -108 -27.5t-73 -73.5t-39 -97.5t-13 -105.5q0 -106 59 -106q52 0 107 62.5 t91 142.5t49 149z" />
<glyph unicode="b" horiz-adv-x="535" d="M498 358q0 -70 -18 -133t-54 -116t-97 -84t-139 -31q-71 0 -141 14l138 722h61l-50 -263q-10 -51 -56 -200l2 -1q42 107 105 173.5t141 66.5q108 0 108 -148zM434 347q0 106 -60 106q-52 0 -106.5 -62.5t-90 -141.5t-49.5 -147l-9 -48q39 -11 82 -11q61 0 107.5 27.5 t73 73.5t39.5 97.5t13 105.5z" />
<glyph unicode="c" horiz-adv-x="418" d="M429 486l-14 -54q-49 22 -102 22q-66 0 -115 -46.5t-70.5 -110t-21.5 -130.5q0 -119 115 -119q62 0 121 27l6 -52q-72 -29 -143 -29q-166 0 -166 158q0 148 76 250t205 102q57 0 109 -18z" />
<glyph unicode="d" horiz-adv-x="535" d="M534 730l-105 -550q-1 -2 -17 -90t-17 -90h-63q10 58 64 233l-2 1q-16 -38 -34.5 -72.5t-49.5 -77t-73.5 -68t-90.5 -25.5q-107 0 -107 148q0 70 18 133t53.5 116t96.5 84t139 31q40 0 81 -6l44 233h63zM418 443q-42 11 -82 11q-61 0 -108 -27.5t-73 -73.5t-39 -97.5 t-13 -105.5q0 -106 59 -106q52 0 107 62.5t91 142.5t49 149z" />
<glyph unicode="e" horiz-adv-x="470" d="M444 398q0 -155 -330 -168q-6 -34 -6 -71q0 -67 25.5 -90.5t92.5 -23.5q70 0 136 28l4 -51q-71 -30 -163 -30q-81 0 -121 36t-40 120q0 93 30 173t92 132t145 52q66 0 100.5 -30t34.5 -77zM379 391q0 31 -21.5 48t-56.5 17q-64 0 -109.5 -48t-66.5 -125q133 5 193.5 31.5 t60.5 76.5z" />
<glyph unicode="f" horiz-adv-x="333" d="M470 726l-17 -53q-36 10 -78 10q-61 0 -97.5 -36.5t-50.5 -114.5l-6 -35h151l-11 -50h-149l-91 -477q-23 -121 -78 -174.5t-146 -53.5q-45 0 -85 9l16 55q37 -11 79 -11q62 0 97.5 39t53.5 133l92 480h-112l11 50h111l6 34q37 204 220 204q40 0 84 -9z" />
<glyph unicode="g" horiz-adv-x="534" d="M488 489l-105 -545q-38 -203 -275 -203q-70 0 -126 18l13 65q62 -26 131 -26q86 0 134.5 38.5t66.5 132.5q21 109 67 259l-2 1q-15 -36 -33 -69.5t-49 -75.5t-73.5 -67.5t-90.5 -25.5q-107 0 -107 148q0 70 18 133.5t54 116t96.5 83.5t138.5 31t142 -14zM418 443 q-42 11 -82 11q-61 0 -108 -27.5t-73 -73.5t-39 -97.5t-13 -105.5q0 -106 59 -106q52 0 107 62.5t91 142.5t49 149z" />
<glyph unicode="h" horiz-adv-x="566" d="M490 335l-64 -335h-62l61 322q6 32 6 57q0 74 -59 74q-51 0 -105.5 -62t-90.5 -142t-49 -148l-19 -101h-61l139 730h61l-47 -250q-15 -77 -58 -208l2 -1q41 100 104 167.5t140 67.5q66 0 92 -44q16 -29 16 -71q0 -26 -6 -56z" />
<glyph unicode="i" horiz-adv-x="249" d="M249 661q0 -20 -13.5 -34t-32.5 -14q-18 0 -30.5 12.5t-12.5 30.5q0 20 13.5 33.5t32.5 13.5q18 0 30.5 -12.5t12.5 -29.5zM203 497l-95 -497h-61l95 497h61z" />
<glyph unicode="j" horiz-adv-x="253" d="M252 661q0 -20 -13.5 -34t-31.5 -14t-30.5 12.5t-12.5 30.5q0 20 13.5 33.5t31.5 13.5q19 0 31 -12.5t12 -29.5zM208 497l-110 -574q-19 -95 -61 -138t-126 -43q-33 0 -63 7l13 57q28 -11 59 -11q55 0 79 31.5t41 118.5l106 552h62z" />
<glyph unicode="k" horiz-adv-x="454" d="M448 478l-221 -204l161 -274h-76l-151 272l-53 -272h-61l139 730h61l-85 -451l244 239z" />
<glyph unicode="l" horiz-adv-x="249" d="M247 730l-139 -730h-61l139 730h61z" />
<glyph unicode="m" horiz-adv-x="868" d="M792 335l-64 -335h-62l62 322q6 33 6 58q0 74 -56 74q-69 0 -143 -111.5t-98 -241.5l-19 -101h-62l62 322q6 33 6 58q0 74 -56 74q-68 0 -142 -111.5t-99 -241.5l-19 -101h-61l50 259q1 3 22 119t22 119h64q-15 -75 -63 -225l2 -1q39 99 101.5 167t138.5 68 q49 0 73.5 -25.5t24.5 -71.5q0 -43 -30 -138h2q39 99 101.5 167t138.5 68q63 0 88 -44q16 -28 16 -69q0 -26 -6 -58z" />
<glyph unicode="n" horiz-adv-x="566" d="M490 335l-64 -335h-62l61 322q6 32 6 57q0 74 -59 74q-51 0 -105.5 -62t-90.5 -142t-49 -148l-19 -101h-61l50 259q1 3 22 119t22 119h64q-14 -72 -63 -225l2 -1q41 100 104 167.5t140 67.5q66 0 92 -44q16 -29 16 -71q0 -26 -6 -56z" />
<glyph unicode="o" horiz-adv-x="535" d="M499 328q0 -149 -85 -242.5t-199 -93.5q-86 0 -130 44.5t-44 130.5q0 145 79 241.5t201 96.5q89 0 133.5 -47.5t44.5 -129.5zM433 322q0 131 -121 131q-89 0 -147.5 -81.5t-58.5 -192.5q0 -134 121 -134q82 0 144 77.5t62 199.5z" />
<glyph unicode="p" horiz-adv-x="535" d="M498 358q0 -70 -18 -133t-54 -116t-97 -84t-139 -31q-36 0 -82 7l-47 -252h-62l98 509q1 3 22 119.5t22 119.5h64q-11 -59 -63 -230l2 -1q42 107 105 173.5t141 66.5q108 0 108 -148zM434 347q0 106 -60 106q-52 0 -106.5 -62.5t-90 -141.5t-49.5 -147l-8 -44 q42 -14 82 -14q60 0 106.5 27.5t73 73t39.5 97t13 105.5z" />
<glyph unicode="q" horiz-adv-x="535" d="M488 489l-141 -740h-62l47 246q16 85 64 238l-2 1q-16 -38 -34.5 -72.5t-49.5 -77t-73.5 -68t-90.5 -25.5q-107 0 -107 148q0 70 18 133t53.5 116t96.5 84t139 31t142 -14zM418 443q-42 11 -82 11q-61 0 -108 -27.5t-73 -73.5t-39 -97.5t-13 -105.5q0 -106 60 -106 q51 0 106 62.5t91 142.5t49 149z" />
<glyph unicode="r" horiz-adv-x="348" d="M373 505l-12 -61q-9 2 -17 2q-29 0 -60 -25q-39 -33 -69.5 -87.5t-53 -113t-31.5 -104.5l-22 -116h-61l50 259l44 238h62q-11 -65 -57 -207l2 -1q25 55 46.5 93t49 71t60.5 46q21 8 44 8q12 0 25 -2z" />
<glyph unicode="s" horiz-adv-x="384" d="M348 497l-12 -54q-38 12 -81 12q-54 0 -84 -24t-30 -62q0 -30 26 -57t57 -45t57 -49.5t26 -69.5q0 -65 -55 -110.5t-150 -45.5q-46 0 -83 6l12 61q44 -13 84 -13q58 0 93 24t35 69q0 29 -26 55t-57 44t-57 50.5t-26 73.5q0 62 49 102.5t136 40.5q46 0 86 -8z" />
<glyph unicode="t" horiz-adv-x="362" d="M370 497l-10 -50h-148l-54 -285q-6 -36 -6 -59q0 -20 4 -31q11 -23 52 -23q40 0 74 8l-2 -55q-49 -9 -86 -9q-73 0 -95 36q-13 21 -13 57q0 27 7 62l57 299h-112l10 50h112l32 168l66 16l-36 -184h148z" />
<glyph unicode="u" horiz-adv-x="566" d="M520 497l-50 -259q0 -3 -22 -119t-22 -119h-63q11 65 62 225l-2 1q-41 -100 -104 -167.5t-140 -67.5q-66 0 -91 45q-17 28 -17 70q0 26 6 56l65 335h61l-61 -322q-6 -33 -6 -58t6 -41q13 -32 53 -32q51 0 105.5 62t90.5 142t49 148l19 101h61z" />
<glyph unicode="v" horiz-adv-x="457" d="M486 494l-270 -494h-65l-90 497h68l56 -346q8 -49 10 -81h1l234 447z" />
<glyph unicode="w" horiz-adv-x="769" d="M793 495l-251 -495h-73l-47 330q-8 60 -9 92h-1l-209 -422h-76l-56 497h67l30 -320q8 -86 8 -108h1l213 428h73l44 -319q9 -73 11 -110h1l217 449z" />
<glyph unicode="x" horiz-adv-x="505" d="M518 482l-228 -234l137 -248h-76l-107 204l-217 -227l-44 39l234 236l-130 245h74l102 -201l212 222z" />
<glyph unicode="y" horiz-adv-x="467" d="M484 498q-211 -497 -384 -669q-89 -87 -170 -87q-39 0 -67 7l12 60q27 -10 63 -10q61 0 122 69q64 71 64 181q0 193 -70 448h71q60 -240 60 -415q0 -31 -9 -76h1q123 210 250 511z" />
<glyph unicode="z" horiz-adv-x="426" d="M416 497l-8 -43l-321 -398q64 2 141 2h110l-12 -58h-325l8 44l322 399q-70 -2 -137 -2h-104l11 56h315z" />
<glyph unicode="{" horiz-adv-x="320" d="M389 767l-8 -47q-54 0 -79.5 -27.5t-38.5 -96.5l-27 -138q-24 -128 -119 -140v-2q43 -7 59 -42q10 -22 10 -51q0 -20 -4 -43l-39 -203q-7 -33 -7 -56q0 -26 8 -40q16 -27 68 -27l-9 -49h-16q-108 0 -108 110q0 29 7 66l40 203q4 21 4 37q0 29 -12 44q-19 24 -79 28l11 52 q64 4 90.5 26.5t37.5 81.5l26 139q34 175 168 175h17z" />
<glyph unicode="|" horiz-adv-x="277" d="M259 749l-190 -1000h-49l190 1000h49z" />
<glyph unicode="}" horiz-adv-x="321" d="M316 345l-10 -52q-64 -4 -90.5 -26.5t-37.5 -82.5l-39 -202q-17 -91 -55.5 -133.5t-111.5 -42.5h-17l9 49q54 0 79 27t38 96l38 202q26 128 120 140v2q-43 7 -60 42q-10 21 -10 50q0 20 5 44l27 139q7 33 7 56q0 26 -8 41q-16 27 -68 27l9 47h13q73 0 96 -48 q14 -29 14 -69q0 -26 -6 -58l-28 -140q-5 -22 -5 -39q0 -27 13 -42q19 -23 78 -27z" />
<glyph unicode="~" d="M545 568q-3 -64 -39 -103t-92 -39q-37 0 -63.5 18t-39.5 39t-34 39t-47 18q-34 0 -54 -26.5t-24 -67.5h-47q3 63 39 102t92 39q37 0 63.5 -18t39.5 -39t34 -39t47 -18q34 0 54 26.5t24 68.5h47z" />
<glyph unicode="&#xa1;" horiz-adv-x="312" d="M232 458q0 -20 -13.5 -34t-33.5 -14t-33 13.5t-13 33.5t13.5 34t33.5 14t33 -13.5t13 -33.5zM189 343l-92 -545h-73l116 545h49z" />
<glyph unicode="&#xa2;" d="M512 534l-21 -53q-57 27 -117 27q-95 0 -155 -64.5t-60 -166.5q0 -117 138 -117q71 0 141 33l9 -52q-71 -31 -137 -35l-20 -106h-52l20 106q-165 13 -165 159q0 129 71.5 204.5t179.5 88.5l18 92h52l-18 -90q59 -2 116 -26z" />
<glyph unicode="&#xa3;" d="M520 641l-20 -54q-58 20 -106 20q-39 0 -67 -16t-43.5 -39t-24.5 -60.5t-11.5 -69.5t-2.5 -76h167l-9 -49h-158q-1 -87 -28.5 -139t-96.5 -104q44 2 84 2h233l-11 -56h-397l9 45q92 70 117.5 116.5t26.5 135.5h-115l10 49h105q0 52 4.5 92.5t18.5 83.5t38 71.5t65.5 46.5 t97.5 18q63 0 114 -17z" />
<glyph unicode="&#xa4;" d="M550 554l-101 -102q17 -26 17 -70q0 -104 -70 -171l68 -109l-49 -33l-62 111q-50 -29 -100 -29q-49 0 -76 16l-92 -98l-40 36l93 92q-23 31 -23 83q0 111 78 179l-62 99l49 32l56 -104q44 22 92 22q56 0 87 -22l98 104zM407 371q0 88 -91 88q-65 0 -102.5 -52t-37.5 -118 q0 -89 89 -89q60 0 101 53t41 118z" />
<glyph unicode="&#xa5;" d="M585 650l-260 -371h157l-9 -46h-172l-14 -78h171l-8 -47h-172l-21 -108h-63l20 108h-171l9 47h171l15 78h-172l9 46h158l-112 371h68l65 -226q9 -32 30 -121h1q34 61 81 130l148 217h71z" />
<glyph unicode="&#xa6;" horiz-adv-x="277" d="M259 749l-70 -368h-49l70 368h49zM140 127l-71 -378h-49l71 378h49z" />
<glyph unicode="&#xa7;" horiz-adv-x="503" d="M434 726l-13 -54q-33 11 -61 11q-59 0 -86 -35.5t-27 -74.5q0 -30 25 -69.5t54.5 -73t54.5 -82.5t25 -95q0 -97 -106 -168q21 -37 21 -76q0 -69 -51 -120.5t-132 -51.5q-44 0 -77 11l12 54q42 -13 71 -13q55 0 84 35.5t29 75.5q0 26 -16.5 56.5t-39.5 59.5l-46 60 q-23 31 -39.5 69t-16.5 76q0 95 106 169q-23 45 -23 79q0 25 10 52t30 53.5t57 43.5t85 17q40 0 70 -9zM345 244q0 25 -12 53t-24.5 47t-38.5 53.5t-37 50.5q-73 -44 -73 -119q0 -24 12 -52.5t24 -46.5t38 -54l37 -49q74 46 74 117z" />
<glyph unicode="&#xa8;" horiz-adv-x="535" d="M427 661q0 -20 -13 -33t-31 -13t-30 12.5t-12 29.5q0 19 13.5 31.5t31.5 12.5t29.5 -11.5t11.5 -28.5zM243 661q0 -20 -13 -33t-31 -13t-30 12t-12 29q0 20 13 32.5t31 12.5t30 -11.5t12 -28.5z" />
<glyph unicode="&#xa9;" horiz-adv-x="737" d="M714 351q0 -145 -102 -245t-242 -100q-138 0 -228.5 91t-90.5 224q0 145 102 244.5t242 99.5q135 0 227 -91t92 -223zM661 349q0 110 -78 188.5t-190 78.5q-118 0 -203 -84t-85 -208q0 -111 78 -190t190 -79q118 0 203 84.5t85 209.5zM508 502l-13 -48q-31 15 -75 15 q-48 0 -80.5 -31t-44 -69.5t-11.5 -79.5q0 -83 80 -83q45 0 87 15l1 -47q-46 -15 -97 -15q-129 0 -129 119q0 100 55 168t146 68q47 0 81 -12z" />
<glyph unicode="&#xaa;" horiz-adv-x="373" d="M392 671q-41 -205 -59 -315h-55q6 32 32 108h-1q-53 -113 -143 -113q-80 0 -80 96t54 164t150 68q55 0 102 -8zM348 287l-9 -50h-272l10 50h271zM331 629q-23 6 -52 6q-63 0 -100.5 -53t-37.5 -122q0 -62 39 -62q48 0 89 59.5t57 141.5z" />
<glyph unicode="&#xab;" horiz-adv-x="475" d="M441 434l-130 -139l86 -141l-50 -28l-101 171l153 168zM259 435l-122 -140l77 -142l-50 -28l-93 172l146 169z" />
<glyph unicode="&#xac;" d="M491 324l-41 -215h-54l31 162h-379l11 53h432z" />
<glyph unicode="&#xad;" horiz-adv-x="327" d="M291 320l-10 -52h-228l10 52h228z" />
<glyph unicode="&#xae;" d="M536 538q0 -92 -65.5 -156.5t-151.5 -64.5q-85 0 -141.5 57t-56.5 140q0 95 65.5 159.5t153.5 64.5q84 0 140 -57t56 -143zM489 536q0 64 -44 111t-107 47q-68 0 -118 -50t-50 -123q0 -65 43.5 -112.5t107.5 -47.5q68 0 118 50.5t50 124.5zM418 597q0 -32 -21.5 -53 t-52.5 -26q6 -9 16 -31l34 -74h-46l-43 102h-6l-19 -102h-39l44 232h66q67 0 67 -48zM376 591q0 22 -30 22h-28l-13 -70h16q26 0 40.5 13.5t14.5 34.5z" />
<glyph unicode="&#xaf;" horiz-adv-x="387" d="M393 677l-9 -48h-234l9 48h234z" />
<glyph unicode="&#xb0;" horiz-adv-x="360" d="M378 624q0 -58 -38.5 -92.5t-90.5 -34.5q-54 0 -84 30.5t-30 79.5q0 58 38.5 92.5t89.5 34.5q55 0 85 -30.5t30 -79.5zM325 620q0 27 -15 48.5t-51 21.5q-30 0 -50.5 -21.5t-20.5 -57.5q0 -32 17.5 -51t48.5 -19q30 0 50.5 21.5t20.5 57.5z" />
<glyph unicode="&#xb1;" d="M530 381l-9 -53h-201l-39 -206h-60l39 206h-201l10 53h201l39 204h60l-40 -204h201zM468 53l-10 -53h-461l11 53h460z" />
<glyph unicode="&#xb2;" horiz-adv-x="307" d="M303 583q0 -35 -18.5 -64t-61.5 -61l-67 -51h128l-10 -49h-205l7 38l98 78q40 32 55.5 53.5t15.5 45.5q0 17 -11.5 27.5t-33.5 10.5q-33 0 -61 -20l-17 42q43 24 90 24q45 0 68 -20.5t23 -53.5z" />
<glyph unicode="&#xb3;" horiz-adv-x="646" d="M291 594q0 -57 -59 -83q44 -8 44 -53q0 -48 -40 -77.5t-106 -29.5q-32 0 -57 7l13 45q30 -8 50 -8q81 0 81 59q0 34 -62 34q-16 0 -36 -2l7 40h23q44 0 65 16.5t21 41.5q0 31 -43 31q-23 0 -55 -12l-11 38q35 16 80 16q42 0 63.5 -17.5t21.5 -45.5z" />
<glyph unicode="&#xb4;" horiz-adv-x="377" d="M312 693l-143 -115l-28 35l134 124z" />
<glyph unicode="&#xb5;" horiz-adv-x="612" d="M554 68q-40 -76 -104 -76q-65 0 -65 67q0 33 19 93l-2 1q-19 -53 -84 -107t-128 -54q-51 0 -80 36l-44 -279h-66l143 748h61l-61 -322q-5 -26 -5 -47q0 -30 10 -50q17 -34 54 -34q63 0 134 85.5t96 216.5l29 151h61l-69 -363q-6 -33 -6 -52q0 -10 2 -16q5 -17 23 -17 q28 0 50 40z" />
<glyph unicode="&#xb6;" horiz-adv-x="552" d="M567 675l-8 -47h-73l-139 -724h-133l9 47h74l137 724h133zM362 675l-79 -415h-4q-83 0 -125 44q-44 44 -44 117q0 97 68.5 175.5t183.5 78.5z" />
<glyph unicode="&#xb7;" horiz-adv-x="209" d="M165 299q0 -22 -16 -37.5t-37 -15.5q-20 0 -34.5 14.5t-14.5 34.5q0 22 16 37.5t37 15.5q20 0 34.5 -14.5t14.5 -34.5z" />
<glyph unicode="&#xb8;" horiz-adv-x="392" d="M198 -41q19 -30 19 -63q0 -61 -64 -132h-60q50 55 61 90q3 11 3 23q0 26 -17 57z" />
<glyph unicode="&#xb9;" horiz-adv-x="296" d="M266 650l-55 -292h-55l45 240l-79 -35l-5 45l100 42h49z" />
<glyph unicode="&#xba;" horiz-adv-x="407" d="M406 568q0 -103 -57.5 -160t-133.5 -57q-117 0 -117 112q0 89 50.5 154.5t132.5 65.5q125 0 125 -115zM338 287l-10 -50h-258l10 50h258zM343 559q0 73 -67 73q-58 0 -87 -50t-29 -107q0 -73 64 -73q51 0 85 45t34 112z" />
<glyph unicode="&#xbb;" horiz-adv-x="475" d="M437 294l-145 -168l-43 31l123 140l-78 141l51 28zM263 294l-153 -168l-43 31l131 140l-86 140l50 29z" />
<glyph unicode="&#xbc;" horiz-adv-x="681" d="M266 650l-55 -292h-55l45 240l-79 -35l-5 45l100 42h49zM656 636l-610 -655l-36 31l609 655zM593 104l-9 -44h-54l-11 -60h-53l12 60h-145l6 40l154 192h82l-37 -188h55zM514 250l-117 -146h89z" />
<glyph unicode="&#xbd;" horiz-adv-x="686" d="M599 225q0 -35 -18.5 -64t-62.5 -62l-66 -50h128l-10 -49h-206l7 38l99 78q40 32 55 53.5t15 45.5q0 17 -11 27.5t-33 10.5q-33 0 -61 -20l-17 42q46 24 90 24t67.5 -20.5t23.5 -53.5zM656 636l-610 -655l-36 31l609 655zM266 650l-55 -292h-55l45 240l-79 -35l-5 45 l100 42h49z" />
<glyph unicode="&#xbe;" horiz-adv-x="679" d="M514 250l-117 -146h88zM592 104l-8 -44h-54l-12 -60h-52l11 60h-144l5 40l154 192h83l-37 -188h54zM654 636l-610 -655l-36 31l609 655zM291 594q0 -57 -59 -83q44 -7 44 -53q0 -48 -39.5 -77.5t-105.5 -29.5q-33 0 -57 7l12 45q30 -8 50 -8q81 0 81 59q0 34 -62 34 q-15 0 -35 -2l6 40h24q44 0 64.5 16.5t20.5 41.5q0 31 -42 31q-25 0 -55 -12l-11 38q35 16 79 16q43 0 64 -17.5t21 -45.5z" />
<glyph unicode="&#xbf;" horiz-adv-x="433" d="M334 458q0 -20 -14 -34t-34 -14q-19 0 -32.5 13.5t-13.5 33.5t13.5 34t33.5 14t33.5 -13.5t13.5 -33.5zM297 343q3 -19 3 -36q0 -31 -8 -57q-12 -43 -35 -70t-50.5 -53.5t-52.5 -46.5t-42 -48t-17 -58q0 -46 47 -80t122 -44l-19 -58q-101 12 -160 62t-59 115 q0 38 17.5 70.5t42.5 54.5l54 47q29 26 52.5 51t35.5 64q9 25 9 54q0 16 -3 33h63z" />
<glyph unicode="&#xc0;" horiz-adv-x="598" d="M533 0h-69l-27 172h-304l-95 -172h-70l378 675h67zM429 224l-50 288q-9 53 -13 92h-1q-27 -57 -45 -90l-160 -290h269zM429 770l-16 -38l-176 58l26 54z" />
<glyph unicode="&#xc1;" horiz-adv-x="598" d="M533 0h-69l-27 172h-304l-95 -172h-70l378 675h67zM429 224l-50 288q-9 53 -13 92h-1q-27 -57 -45 -90l-160 -290h269zM517 790l-178 -58l-13 38l174 74z" />
<glyph unicode="&#xc2;" horiz-adv-x="598" d="M533 0h-69l-27 172h-304l-95 -172h-70l378 675h67zM429 224l-50 288q-9 53 -13 92h-1q-27 -57 -45 -90l-160 -290h269zM534 771l-25 -41l-119 65l-139 -65l-19 38l163 84z" />
<glyph unicode="&#xc3;" horiz-adv-x="598" d="M533 0h-69l-27 172h-304l-95 -172h-70l378 675h67zM429 224l-50 288q-9 53 -13 92h-1q-27 -57 -45 -90l-160 -290h269zM555 807q-41 -67 -104 -67q-35 0 -72.5 28t-57.5 28q-36 0 -68 -47l-32 26q39 67 103 67q36 0 73 -27.5t57 -27.5q37 0 68 46z" />
<glyph unicode="&#xc4;" horiz-adv-x="598" d="M533 0h-69l-27 172h-304l-95 -172h-70l378 675h67zM429 224l-50 288q-9 53 -13 92h-1q-27 -57 -45 -90l-160 -290h269zM536 779q0 -18 -13 -31t-30 -13q-18 0 -29.5 12t-11.5 29q0 18 12.5 30.5t30.5 12.5q17 0 29 -11.5t12 -28.5zM328 779q0 -18 -13 -31t-30 -13 q-18 0 -29.5 12t-11.5 29q0 18 13 30.5t30 12.5q18 0 29.5 -11.5t11.5 -28.5z" />
<glyph unicode="&#xc5;" horiz-adv-x="598" d="M533 0h-69l-27 172h-304l-95 -172h-70l363 650q-47 23 -47 80q0 46 33.5 77t76.5 31q41 0 68.5 -27t27.5 -67q0 -34 -20 -61t-51 -39zM444 741q0 23 -15 39.5t-38 16.5q-24 0 -42.5 -18.5t-18.5 -45.5q0 -24 15 -40t38 -16q25 0 43 18.5t18 45.5zM429 224l-50 286 q-9 57 -13 94h-1q-22 -48 -47 -92l-158 -288h269z" />
<glyph unicode="&#xc6;" horiz-adv-x="753" d="M758 675l-10 -52h-258l-47 -249h248l-10 -51h-248l-52 -270h269l-10 -53h-331l33 173h-237l-125 -173h-72l494 675h356zM427 621h-2q-41 -63 -93 -134l-191 -262h212z" />
<glyph unicode="&#xc7;" horiz-adv-x="572" d="M594 661l-18 -58q-75 25 -150 25t-134.5 -34t-94.5 -91.5t-53 -126.5t-18 -145q0 -87 42.5 -134.5t144.5 -47.5q85 0 166 36l7 -54q-93 -38 -191 -38q-238 0 -238 229q0 92 25 174t72 146.5t120.5 102t164.5 37.5q81 0 155 -21zM290 -41q19 -30 19 -63q0 -61 -64 -132 h-60q50 55 61 90q3 11 3 23q0 26 -17 57z" />
<glyph unicode="&#xc8;" horiz-adv-x="497" d="M502 675l-10 -52h-263l-48 -249h252l-10 -51h-251l-51 -270h263l-10 -53h-326l128 675h326zM402 770l-16 -38l-176 58l26 54z" />
<glyph unicode="&#xc9;" horiz-adv-x="497" d="M502 675l-10 -52h-263l-48 -249h252l-10 -51h-251l-51 -270h263l-10 -53h-326l128 675h326zM474 790l-178 -58l-13 38l174 74z" />
<glyph unicode="&#xca;" horiz-adv-x="497" d="M502 675l-10 -52h-263l-48 -249h252l-10 -51h-251l-51 -270h263l-10 -53h-326l128 675h326zM504 771l-25 -41l-119 65l-139 -65l-19 38l163 84z" />
<glyph unicode="&#xcb;" horiz-adv-x="497" d="M502 675l-10 -52h-263l-48 -249h252l-10 -51h-251l-51 -270h263l-10 -53h-326l128 675h326zM492 779q0 -18 -13 -31t-30 -13q-18 0 -29.5 12t-11.5 29q0 18 12.5 30.5t30.5 12.5q17 0 29 -11.5t12 -28.5zM284 779q0 -18 -13 -31t-30 -13q-18 0 -29.5 12t-11.5 29 q0 18 13 30.5t30 12.5q18 0 29.5 -11.5t11.5 -28.5z" />
<glyph unicode="&#xcc;" horiz-adv-x="251" d="M239 675l-128 -675h-63l128 675h63zM263 770l-16 -38l-176 58l26 54z" />
<glyph unicode="&#xcd;" horiz-adv-x="251" d="M239 675l-128 -675h-63l128 675h63zM362 790l-178 -58l-13 38l174 74z" />
<glyph unicode="&#xce;" horiz-adv-x="251" d="M239 675l-128 -675h-63l128 675h63zM372 771l-25 -41l-119 65l-139 -65l-19 38l163 84z" />
<glyph unicode="&#xcf;" horiz-adv-x="251" d="M239 675l-128 -675h-63l128 675h63zM368 779q0 -18 -13 -31t-30 -13q-18 0 -29.5 12t-11.5 29q0 18 12.5 30.5t30.5 12.5q17 0 29 -11.5t12 -28.5zM160 779q0 -18 -13 -31t-30 -13q-18 0 -29.5 12t-11.5 29q0 18 13 30.5t30 12.5q18 0 29.5 -11.5t11.5 -28.5z" />
<glyph unicode="&#xd0;" horiz-adv-x="683" d="M660 432q0 -85 -27 -161t-79.5 -138.5t-139.5 -99t-198 -36.5q-35 0 -86 2q-33 1 -54 1h-18l61 324h-109l10 50h108l58 301q24 0 87 1.5t95 1.5q155 0 223.5 -66.5t68.5 -179.5zM593 425q0 201 -235 201q-32 0 -119 -3l-48 -249h154l-10 -50h-153l-51 -267q51 -7 94 -7 q94 0 167 32.5t115.5 86.5t64 119t21.5 137z" />
<glyph unicode="&#xd1;" horiz-adv-x="689" d="M678 675l-129 -675h-74l-203 467q-38 87 -54 141q-17 -115 -49 -294l-59 -314h-63l128 675h75l202 -464q32 -74 55 -141q26 159 47 271l60 334h64zM610 807q-41 -67 -104 -67q-35 0 -72.5 28t-57.5 28q-36 0 -68 -47l-32 26q39 67 103 67q36 0 73 -27.5t57 -27.5 q37 0 68 46z" />
<glyph unicode="&#xd2;" horiz-adv-x="692" d="M673 440q0 -191 -111.5 -319.5t-271.5 -128.5q-117 0 -176.5 63t-59.5 181q0 186 110 316.5t271 130.5q114 0 176 -63.5t62 -179.5zM604 433q0 93 -45.5 144.5t-134.5 51.5q-128 0 -214.5 -112.5t-86.5 -272.5q0 -91 45.5 -144t128.5 -53q126 0 216.5 111.5t90.5 274.5z M492 770l-16 -38l-176 58l26 54z" />
<glyph unicode="&#xd3;" horiz-adv-x="692" d="M673 440q0 -191 -111.5 -319.5t-271.5 -128.5q-117 0 -176.5 63t-59.5 181q0 186 110 316.5t271 130.5q114 0 176 -63.5t62 -179.5zM604 433q0 93 -45.5 144.5t-134.5 51.5q-128 0 -214.5 -112.5t-86.5 -272.5q0 -91 45.5 -144t128.5 -53q126 0 216.5 111.5t90.5 274.5z M599 790l-178 -58l-13 38l174 74z" />
<glyph unicode="&#xd4;" horiz-adv-x="692" d="M673 440q0 -191 -111.5 -319.5t-271.5 -128.5q-117 0 -176.5 63t-59.5 181q0 186 110 316.5t271 130.5q114 0 176 -63.5t62 -179.5zM604 433q0 93 -45.5 144.5t-134.5 51.5q-128 0 -214.5 -112.5t-86.5 -272.5q0 -91 45.5 -144t128.5 -53q126 0 216.5 111.5t90.5 274.5z M611 771l-25 -41l-119 65l-139 -65l-19 38l163 84z" />
<glyph unicode="&#xd5;" horiz-adv-x="692" d="M673 440q0 -191 -111.5 -319.5t-271.5 -128.5q-117 0 -176.5 63t-59.5 181q0 186 110 316.5t271 130.5q114 0 176 -63.5t62 -179.5zM604 433q0 93 -45.5 144.5t-134.5 51.5q-128 0 -214.5 -112.5t-86.5 -272.5q0 -91 45.5 -144t128.5 -53q126 0 216.5 111.5t90.5 274.5z M636 807q-41 -67 -104 -67q-35 0 -72.5 28t-57.5 28q-36 0 -68 -47l-32 26q39 67 103 67q36 0 73 -27.5t57 -27.5q37 0 68 46z" />
<glyph unicode="&#xd6;" horiz-adv-x="692" d="M673 440q0 -191 -111.5 -319.5t-271.5 -128.5q-117 0 -176.5 63t-59.5 181q0 186 110 316.5t271 130.5q114 0 176 -63.5t62 -179.5zM604 433q0 93 -45.5 144.5t-134.5 51.5q-128 0 -214.5 -112.5t-86.5 -272.5q0 -91 45.5 -144t128.5 -53q126 0 216.5 111.5t90.5 274.5z M612 779q0 -18 -13 -31t-30 -13q-18 0 -29.5 12t-11.5 29q0 18 12.5 30.5t30.5 12.5q17 0 29 -11.5t12 -28.5zM404 779q0 -18 -13 -31t-30 -13q-18 0 -29.5 12t-11.5 29q0 18 13 30.5t30 12.5q18 0 29.5 -11.5t11.5 -28.5z" />
<glyph unicode="&#xd7;" d="M532 473l-211 -178l144 -178l-42 -34l-143 177l-211 -177l-33 39l212 177l-144 178l42 34l144 -177l210 177z" />
<glyph unicode="&#xd8;" horiz-adv-x="692" d="M673 440q0 -191 -111.5 -319.5t-271.5 -128.5q-50 0 -89 12l-57 -102l-46 23l55 98q-99 58 -99 213q0 186 109.5 316.5t270.5 130.5q47 0 81 -10l53 95l46 -23l-51 -90q110 -57 110 -215zM604 433q0 119 -71 166l-302 -541q26 -10 60 -10h11q124 2 213 113t89 272z M486 621q-30 8 -66 8q-83 -1 -152 -53.5t-107.5 -140t-38.5 -191.5q0 -112 65 -161z" />
<glyph unicode="&#xd9;" horiz-adv-x="685" d="M673 675l-81 -428q-48 -255 -302 -255q-70 0 -116.5 18t-66 49.5t-25.5 74.5q-1 14 -1 29q0 30 7 63l86 449h63l-86 -448q-6 -33 -6 -59q0 -50 21 -79q34 -45 133 -45q98 0 154 48t78 164l80 419h62zM478 770l-16 -38l-176 58l26 54z" />
<glyph unicode="&#xda;" horiz-adv-x="685" d="M673 675l-81 -428q-48 -255 -302 -255q-70 0 -116.5 18t-66 49.5t-25.5 74.5q-1 14 -1 29q0 30 7 63l86 449h63l-86 -448q-6 -33 -6 -59q0 -50 21 -79q34 -45 133 -45q98 0 154 48t78 164l80 419h62zM584 790l-178 -58l-13 38l174 74z" />
<glyph unicode="&#xdb;" horiz-adv-x="685" d="M673 675l-81 -428q-48 -255 -302 -255q-70 0 -116.5 18t-66 49.5t-25.5 74.5q-1 14 -1 29q0 30 7 63l86 449h63l-86 -448q-6 -33 -6 -59q0 -50 21 -79q34 -45 133 -45q98 0 154 48t78 164l80 419h62zM589 771l-25 -41l-119 65l-139 -65l-19 38l163 84z" />
<glyph unicode="&#xdc;" horiz-adv-x="685" d="M673 675l-81 -428q-48 -255 -302 -255q-70 0 -116.5 18t-66 49.5t-25.5 74.5q-1 14 -1 29q0 30 7 63l86 449h63l-86 -448q-6 -33 -6 -59q0 -50 21 -79q34 -45 133 -45q98 0 154 48t78 164l80 419h62zM576 779q0 -18 -13 -31t-30 -13q-18 0 -29.5 12t-11.5 29 q0 18 12.5 30.5t30.5 12.5q17 0 29 -11.5t12 -28.5zM368 779q0 -18 -13 -31t-30 -13q-18 0 -29.5 12t-11.5 29q0 18 13 30.5t30 12.5q18 0 29.5 -11.5t11.5 -28.5z" />
<glyph unicode="&#xdd;" horiz-adv-x="508" d="M576 675l-293 -429l-47 -246h-63l47 246l-125 429h65l71 -251q16 -59 30 -122h1q19 35 84 133l157 240h73zM492 790l-178 -58l-13 38l174 74z" />
<glyph unicode="&#xde;" horiz-adv-x="507" d="M517 408q0 -108 -84 -187t-228 -79q-41 0 -68 4l-27 -146h-63l128 675h63l-20 -108q45 3 95 3q103 0 153.5 -44.5t50.5 -117.5zM450 397q0 120 -157 120q-49 0 -86 -6l-59 -311q37 -5 72 -5q108 0 169 59t61 143z" />
<glyph unicode="&#xdf;" horiz-adv-x="552" d="M521 627q0 -36 -13 -64t-32.5 -43.5t-42.5 -31.5l-43 -28q-19 -12 -32 -32.5t-13 -46.5t13.5 -49.5t32.5 -41.5l39 -38q19 -19 32.5 -46t13.5 -58q0 -67 -55 -111.5t-142 -44.5q-43 0 -81 6l12 61q42 -13 78 -13q58 0 90.5 25t32.5 69q0 25 -13.5 48t-32.5 42l-38 37 q-19 19 -32.5 45.5t-13.5 57.5q0 34 13 61t32.5 42.5t42.5 31.5l43 29q19 13 32 34.5t13 48.5q0 30 -21.5 48.5t-62.5 18.5q-66 0 -107 -41.5t-59 -133.5l-103 -542q-25 -126 -77 -176t-144 -50q-26 0 -70 8l15 56q31 -10 70 -10q61 0 92.5 35.5t50.5 135.5l102 538 q23 119 82 174.5t157 55.5q66 0 102.5 -30t36.5 -77z" />
<glyph unicode="&#xe0;" horiz-adv-x="535" d="M488 489l-93 -489h-64q11 60 65 233l-2 1q-16 -38 -34.5 -72.5t-49.5 -77t-73.5 -68t-90.5 -25.5q-107 0 -107 148q0 70 18 133t53.5 116t96.5 84t139 31t142 -14zM418 443q-42 11 -82 11q-61 0 -108 -27.5t-73 -73.5t-39 -97.5t-13 -105.5q0 -106 59 -106q52 0 107 62.5 t91 142.5t49 149zM408 608l-37 -30l-112 121l48 38z" />
<glyph unicode="&#xe1;" horiz-adv-x="535" d="M488 489l-93 -489h-64q11 60 65 233l-2 1q-16 -38 -34.5 -72.5t-49.5 -77t-73.5 -68t-90.5 -25.5q-107 0 -107 148q0 70 18 133t53.5 116t96.5 84t139 31t142 -14zM418 443q-42 11 -82 11q-61 0 -108 -27.5t-73 -73.5t-39 -97.5t-13 -105.5q0 -106 59 -106q52 0 107 62.5 t91 142.5t49 149zM499 693l-143 -115l-28 35l134 124z" />
<glyph unicode="&#xe2;" horiz-adv-x="535" d="M488 489l-93 -489h-64q11 60 65 233l-2 1q-16 -38 -34.5 -72.5t-49.5 -77t-73.5 -68t-90.5 -25.5q-107 0 -107 148q0 70 18 133t53.5 116t96.5 84t139 31t142 -14zM418 443q-42 11 -82 11q-61 0 -108 -27.5t-73 -73.5t-39 -97.5t-13 -105.5q0 -106 59 -106q52 0 107 62.5 t91 142.5t49 149zM488 610l-34 -32l-81 87l-109 -87l-28 30l147 129z" />
<glyph unicode="&#xe3;" horiz-adv-x="535" d="M488 489l-93 -489h-64q11 60 65 233l-2 1q-16 -38 -34.5 -72.5t-49.5 -77t-73.5 -68t-90.5 -25.5q-107 0 -107 148q0 70 18 133t53.5 116t96.5 84t139 31t142 -14zM418 443q-42 11 -82 11q-61 0 -108 -27.5t-73 -73.5t-39 -97.5t-13 -105.5q0 -106 59 -106q52 0 107 62.5 t91 142.5t49 149zM523 674q-39 -69 -102 -69q-34 0 -69 28.5t-54 28.5q-33 0 -65 -48l-33 28q38 69 100 69q34 0 70.5 -28.5t55.5 -28.5q34 0 63 47z" />
<glyph unicode="&#xe4;" horiz-adv-x="535" d="M488 489l-93 -489h-64q11 60 65 233l-2 1q-16 -38 -34.5 -72.5t-49.5 -77t-73.5 -68t-90.5 -25.5q-107 0 -107 148q0 70 18 133t53.5 116t96.5 84t139 31t142 -14zM418 443q-42 11 -82 11q-61 0 -108 -27.5t-73 -73.5t-39 -97.5t-13 -105.5q0 -106 59 -106q52 0 107 62.5 t91 142.5t49 149zM485 661q0 -20 -13 -33t-31 -13t-30 12.5t-12 29.5q0 19 13.5 31.5t31.5 12.5t29.5 -11.5t11.5 -28.5zM301 661q0 -20 -13 -33t-31 -13t-30 12t-12 29q0 20 13 32.5t31 12.5t30 -11.5t12 -28.5z" />
<glyph unicode="&#xe5;" horiz-adv-x="535" d="M488 489l-93 -489h-64q11 60 65 233l-2 1q-16 -38 -34.5 -72.5t-49.5 -77t-73.5 -68t-90.5 -25.5q-107 0 -107 148q0 70 18 133t53.5 116t96.5 84t139 31t142 -14zM418 443q-42 11 -82 11q-61 0 -108 -27.5t-73 -73.5t-39 -97.5t-13 -105.5q0 -106 59 -106q52 0 107 62.5 t91 142.5t49 149zM485 666q0 -45 -33 -76.5t-76 -31.5q-41 0 -68.5 26.5t-27.5 67.5q0 46 33 77t76 31q41 0 68.5 -27t27.5 -67zM440 663q0 24 -15 40t-39 16q-25 0 -43 -18.5t-18 -45.5q0 -23 15.5 -39.5t38.5 -16.5q24 0 42.5 19t18.5 45z" />
<glyph unicode="&#xe6;" horiz-adv-x="764" d="M737 398q0 -72 -71 -114t-259 -53q-6 -36 -6 -72q0 -67 26 -90.5t93 -23.5q71 0 137 29v-53q-69 -29 -161 -29q-75 0 -109 31.5t-44 89.5q-25 -48 -81 -84.5t-121 -36.5q-59 0 -89.5 26t-30.5 72q0 42 18 73.5t46.5 51.5t73.5 33.5t89.5 20t104.5 10.5l8 38q6 29 6 52 q0 32 -11 52q-20 34 -84 34q-79 0 -154 -45v58q86 37 164 37q71 0 101 -23t40 -64q29 36 76 61.5t103 25.5q67 0 101 -30t34 -77zM672 391q0 31 -21.5 48t-56.5 17q-64 0 -109 -48t-67 -125q64 5 105 11t78 17.5t54 31t17 48.5zM343 228q-61 -4 -103 -10.5t-79 -19.5 t-55.5 -36t-18.5 -56q0 -28 19 -45t48 -17q68 0 121 54t68 130z" />
<glyph unicode="&#xe7;" horiz-adv-x="418" d="M429 486l-14 -54q-49 22 -102 22q-66 0 -115 -46.5t-70.5 -110t-21.5 -130.5q0 -119 115 -119q62 0 121 27l6 -52q-72 -29 -143 -29q-166 0 -166 158q0 148 76 250t205 102q57 0 109 -18zM194 -41q19 -30 19 -63q0 -61 -64 -132h-60q50 55 61 90q3 11 3 23q0 26 -17 57z " />
<glyph unicode="&#xe8;" horiz-adv-x="470" d="M444 398q0 -155 -330 -168q-6 -34 -6 -71q0 -67 25.5 -90.5t92.5 -23.5q70 0 136 28l4 -51q-71 -30 -163 -30q-81 0 -121 36t-40 120q0 93 30 173t92 132t145 52q66 0 100.5 -30t34.5 -77zM379 391q0 31 -21.5 48t-56.5 17q-64 0 -109.5 -48t-66.5 -125q133 5 193.5 31.5 t60.5 76.5zM376 608l-37 -30l-112 121l48 38z" />
<glyph unicode="&#xe9;" horiz-adv-x="470" d="M444 398q0 -155 -330 -168q-6 -34 -6 -71q0 -67 25.5 -90.5t92.5 -23.5q70 0 136 28l4 -51q-71 -30 -163 -30q-81 0 -121 36t-40 120q0 93 30 173t92 132t145 52q66 0 100.5 -30t34.5 -77zM379 391q0 31 -21.5 48t-56.5 17q-64 0 -109.5 -48t-66.5 -125q133 5 193.5 31.5 t60.5 76.5zM456 693l-143 -115l-28 35l134 124z" />
<glyph unicode="&#xea;" horiz-adv-x="470" d="M444 398q0 -155 -330 -168q-6 -34 -6 -71q0 -67 25.5 -90.5t92.5 -23.5q70 0 136 28l4 -51q-71 -30 -163 -30q-81 0 -121 36t-40 120q0 93 30 173t92 132t145 52q66 0 100.5 -30t34.5 -77zM379 391q0 31 -21.5 48t-56.5 17q-64 0 -109.5 -48t-66.5 -125q133 5 193.5 31.5 t60.5 76.5zM447 610l-34 -32l-81 87l-109 -87l-28 30l147 129z" />
<glyph unicode="&#xeb;" horiz-adv-x="470" d="M444 398q0 -155 -330 -168q-6 -34 -6 -71q0 -67 25.5 -90.5t92.5 -23.5q70 0 136 28l4 -51q-71 -30 -163 -30q-81 0 -121 36t-40 120q0 93 30 173t92 132t145 52q66 0 100.5 -30t34.5 -77zM379 391q0 31 -21.5 48t-56.5 17q-64 0 -109.5 -48t-66.5 -125q133 5 193.5 31.5 t60.5 76.5zM471 661q0 -20 -13 -33t-31 -13t-30 12.5t-12 29.5q0 19 13.5 31.5t31.5 12.5t29.5 -11.5t11.5 -28.5zM287 661q0 -20 -13 -33t-31 -13t-30 12t-12 29q0 20 13 32.5t31 12.5t30 -11.5t12 -28.5z" />
<glyph unicode="&#xec;" horiz-adv-x="249" d="M203 497l-95 -497h-61l95 497h61zM247 608l-37 -30l-112 121l48 38z" />
<glyph unicode="&#xed;" horiz-adv-x="249" d="M203 497l-95 -497h-61l95 497h61zM300 693l-143 -115l-28 35l134 124z" />
<glyph unicode="&#xee;" horiz-adv-x="249" d="M203 497l-95 -497h-61l95 497h61zM316 610l-34 -32l-81 87l-109 -87l-28 30l147 129z" />
<glyph unicode="&#xef;" horiz-adv-x="249" d="M203 497l-95 -497h-61l95 497h61zM336 661q0 -20 -13 -33t-31 -13t-30 12.5t-12 29.5q0 19 13.5 31.5t31.5 12.5t29.5 -11.5t11.5 -28.5zM152 661q0 -20 -13 -33t-31 -13t-30 12t-12 29q0 20 13 32.5t31 12.5t30 -11.5t12 -28.5z" />
<glyph unicode="&#xf0;" horiz-adv-x="529" d="M528 675l-110 -46q79 -125 79 -269q0 -149 -75.5 -258.5t-205.5 -109.5q-86 0 -132.5 44.5t-46.5 133.5q0 85 32 160.5t97 125t149 49.5q94 0 116 -56q-7 27 -21 59q-25 59 -52 97l-118 -49l-21 40l110 46q-22 27 -66 69l62 29q42 -40 66 -72l117 48zM429 327 q0 59 -31 93t-90 34q-92 0 -149 -82.5t-57 -186.5q0 -67 32.5 -104t90.5 -37q55 0 97 31t64 77.5t32.5 91.5t10.5 83z" />
<glyph unicode="&#xf1;" horiz-adv-x="566" d="M490 335l-64 -335h-62l61 322q6 32 6 57q0 74 -59 74q-51 0 -105.5 -62t-90.5 -142t-49 -148l-19 -101h-61l50 259q1 3 22 119t22 119h64q-14 -72 -63 -225l2 -1q41 100 104 167.5t140 67.5q66 0 92 -44q16 -29 16 -71q0 -26 -6 -56zM521 674q-39 -69 -102 -69 q-34 0 -69 28.5t-54 28.5q-33 0 -65 -48l-33 28q38 69 100 69q34 0 70.5 -28.5t55.5 -28.5q34 0 63 47z" />
<glyph unicode="&#xf2;" horiz-adv-x="535" d="M499 328q0 -149 -85 -242.5t-199 -93.5q-86 0 -130 44.5t-44 130.5q0 145 79 241.5t201 96.5q89 0 133.5 -47.5t44.5 -129.5zM433 322q0 131 -121 131q-89 0 -147.5 -81.5t-58.5 -192.5q0 -134 121 -134q82 0 144 77.5t62 199.5zM394 608l-37 -30l-112 121l48 38z" />
<glyph unicode="&#xf3;" horiz-adv-x="535" d="M499 328q0 -149 -85 -242.5t-199 -93.5q-86 0 -130 44.5t-44 130.5q0 145 79 241.5t201 96.5q89 0 133.5 -47.5t44.5 -129.5zM433 322q0 131 -121 131q-89 0 -147.5 -81.5t-58.5 -192.5q0 -134 121 -134q82 0 144 77.5t62 199.5zM475 693l-143 -115l-28 35l134 124z" />
<glyph unicode="&#xf4;" horiz-adv-x="535" d="M499 328q0 -149 -85 -242.5t-199 -93.5q-86 0 -130 44.5t-44 130.5q0 145 79 241.5t201 96.5q89 0 133.5 -47.5t44.5 -129.5zM433 322q0 131 -121 131q-89 0 -147.5 -81.5t-58.5 -192.5q0 -134 121 -134q82 0 144 77.5t62 199.5zM480 610l-34 -32l-81 87l-109 -87l-28 30 l147 129z" />
<glyph unicode="&#xf5;" horiz-adv-x="535" d="M499 328q0 -149 -85 -242.5t-199 -93.5q-86 0 -130 44.5t-44 130.5q0 145 79 241.5t201 96.5q89 0 133.5 -47.5t44.5 -129.5zM433 322q0 131 -121 131q-89 0 -147.5 -81.5t-58.5 -192.5q0 -134 121 -134q82 0 144 77.5t62 199.5zM510 674q-39 -69 -102 -69 q-34 0 -69 28.5t-54 28.5q-33 0 -65 -48l-33 28q38 69 100 69q34 0 70.5 -28.5t55.5 -28.5q34 0 63 47z" />
<glyph unicode="&#xf6;" horiz-adv-x="535" d="M499 328q0 -149 -85 -242.5t-199 -93.5q-86 0 -130 44.5t-44 130.5q0 145 79 241.5t201 96.5q89 0 133.5 -47.5t44.5 -129.5zM433 322q0 131 -121 131q-89 0 -147.5 -81.5t-58.5 -192.5q0 -134 121 -134q82 0 144 77.5t62 199.5zM488 661q0 -20 -13 -33t-31 -13t-30 12.5 t-12 29.5q0 19 13.5 31.5t31.5 12.5t29.5 -11.5t11.5 -28.5zM304 661q0 -20 -13 -33t-31 -13t-30 12t-12 29q0 20 13 32.5t31 12.5t30 -11.5t12 -28.5z" />
<glyph unicode="&#xf7;" d="M368 499q0 -20 -14 -34t-34 -14q-19 0 -32.5 14t-13.5 34t14 34t33 14q20 0 33.5 -14t13.5 -34zM520 324l-10 -53h-462l11 53h461zM289 96q0 -20 -13.5 -34t-33.5 -14t-33.5 13.5t-13.5 33.5t13.5 34t33.5 14t33.5 -13.5t13.5 -33.5z" />
<glyph unicode="&#xf8;" horiz-adv-x="535" d="M499 328q0 -149 -85 -242.5t-199 -93.5q-39 0 -67 9l-58 -102l-43 23l56 100q-62 42 -62 145q0 144 78.5 241t201.5 97q27 0 52 -5l55 97l43 -22l-52 -91q80 -43 80 -156zM434 322q0 78 -45 110l-213 -380q22 -8 48 -8h6q81 1 142.5 79t61.5 199zM345 451q-17 3 -36 3 q-88 -1 -146.5 -82t-58.5 -192q0 -66 31 -102z" />
<glyph unicode="&#xf9;" horiz-adv-x="566" d="M520 497l-50 -259q0 -3 -22 -119t-22 -119h-63q11 65 62 225l-2 1q-41 -100 -104 -167.5t-140 -67.5q-66 0 -91 45q-17 28 -17 70q0 26 6 56l65 335h61l-61 -322q-6 -33 -6 -58t6 -41q13 -32 53 -32q51 0 105.5 62t90.5 142t49 148l19 101h61zM389 608l-37 -30l-112 121 l48 38z" />
<glyph unicode="&#xfa;" horiz-adv-x="566" d="M520 497l-50 -259q0 -3 -22 -119t-22 -119h-63q11 65 62 225l-2 1q-41 -100 -104 -167.5t-140 -67.5q-66 0 -91 45q-17 28 -17 70q0 26 6 56l65 335h61l-61 -322q-6 -33 -6 -58t6 -41q13 -32 53 -32q51 0 105.5 62t90.5 142t49 148l19 101h61zM477 693l-143 -115l-28 35 l134 124z" />
<glyph unicode="&#xfb;" horiz-adv-x="566" d="M520 497l-50 -259q0 -3 -22 -119t-22 -119h-63q11 65 62 225l-2 1q-41 -100 -104 -167.5t-140 -67.5q-66 0 -91 45q-17 28 -17 70q0 26 6 56l65 335h61l-61 -322q-6 -33 -6 -58t6 -41q13 -32 53 -32q51 0 105.5 62t90.5 142t49 148l19 101h61zM476 610l-34 -32l-81 87 l-109 -87l-28 30l147 129z" />
<glyph unicode="&#xfc;" horiz-adv-x="566" d="M520 497l-50 -259q0 -3 -22 -119t-22 -119h-63q11 65 62 225l-2 1q-41 -100 -104 -167.5t-140 -67.5q-66 0 -91 45q-17 28 -17 70q0 26 6 56l65 335h61l-61 -322q-6 -33 -6 -58t6 -41q13 -32 53 -32q51 0 105.5 62t90.5 142t49 148l19 101h61zM490 661q0 -20 -13 -33 t-31 -13t-30 12.5t-12 29.5q0 19 13.5 31.5t31.5 12.5t29.5 -11.5t11.5 -28.5zM306 661q0 -20 -13 -33t-31 -13t-30 12t-12 29q0 20 13 32.5t31 12.5t30 -11.5t12 -28.5z" />
<glyph unicode="&#xfd;" horiz-adv-x="467" d="M484 498q-211 -497 -384 -669q-89 -87 -170 -87q-39 0 -67 7l12 60q27 -10 63 -10q61 0 122 69q64 71 64 181q0 193 -70 448h71q60 -240 60 -415q0 -31 -9 -76h1q123 210 250 511zM414 693l-143 -115l-28 35l134 124z" />
<glyph unicode="&#xfe;" horiz-adv-x="535" d="M498 358q0 -70 -18 -133t-54 -116t-97 -84t-139 -31q-36 0 -82 7l-47 -252h-62l188 981h62l-44 -224q-19 -98 -63 -238l3 -1q42 106 105 172.5t141 66.5q107 0 107 -148zM434 347q0 106 -60 106q-52 0 -106.5 -62.5t-90 -141.5t-49.5 -147l-8 -44q42 -14 82 -14 q60 0 106.5 27.5t73 73t39.5 97t13 105.5z" />
<glyph unicode="&#xff;" horiz-adv-x="467" d="M484 498q-211 -497 -384 -669q-89 -87 -170 -87q-39 0 -67 7l12 60q27 -10 63 -10q61 0 122 69q64 71 64 181q0 193 -70 448h71q60 -240 60 -415q0 -31 -9 -76h1q123 210 250 511zM417 661q0 -20 -13 -33t-31 -13t-30 12.5t-12 29.5q0 19 13.5 31.5t31.5 12.5t29.5 -11.5 t11.5 -28.5zM233 661q0 -20 -13 -33t-31 -13t-30 12t-12 29q0 20 13 32.5t31 12.5t30 -11.5t12 -28.5z" />
<glyph unicode="&#x131;" horiz-adv-x="249" d="M203 497l-95 -497h-61l95 497h61z" />
<glyph unicode="&#x152;" horiz-adv-x="848" d="M853 675l-10 -52h-264l-47 -249h251l-9 -51h-252l-50 -270h263l-11 -53h-324q-61 -8 -110 -8q-117 0 -176.5 63t-59.5 181q0 186 110 316.5t271 130.5q51 0 96 -8h322zM514 615q-45 14 -90 14q-128 0 -214.5 -112.5t-86.5 -272.5q0 -92 45 -144.5t129 -52.5q65 0 113 13z " />
<glyph unicode="&#x153;" horiz-adv-x="843" d="M816 398q0 -155 -329 -168q-7 -40 -7 -71q0 -67 26 -90.5t93 -23.5q71 0 135 28l5 -51q-73 -30 -164 -30q-135 0 -153 109q-37 -51 -92.5 -80t-114.5 -29q-86 0 -130 44.5t-44 130.5q0 145 79 241.5t201 96.5q131 0 165 -109q74 109 195 109q67 0 101 -30t34 -77z M751 391q0 31 -21.5 48t-56.5 17q-63 0 -109 -48t-67 -125q133 5 193.5 31.5t60.5 76.5zM433 322q0 131 -121 131q-89 0 -147.5 -81.5t-58.5 -192.5q0 -134 121 -134q82 0 144 77.5t62 199.5z" />
<glyph unicode="&#x178;" horiz-adv-x="508" d="M576 675l-293 -429l-47 -246h-63l47 246l-125 429h65l71 -251q16 -59 30 -122h1q19 35 84 133l157 240h73zM491 779q0 -18 -13 -31t-30 -13q-18 0 -29.5 12t-11.5 29q0 18 12.5 30.5t30.5 12.5q17 0 29 -11.5t12 -28.5zM283 779q0 -18 -13 -31t-30 -13q-18 0 -29.5 12 t-11.5 29q0 18 13 30.5t30 12.5q18 0 29.5 -11.5t11.5 -28.5z" />
<glyph unicode="&#x2c6;" horiz-adv-x="429" d="M379 610l-34 -32l-81 87l-109 -87l-28 30l147 129z" />
<glyph unicode="&#x2da;" horiz-adv-x="387" d="M382 663q0 -45 -33 -76.5t-76 -31.5q-41 0 -68.5 26.5t-27.5 67.5q0 46 33 77t76 31q41 0 68.5 -27t27.5 -67zM337 660q0 24 -15 40t-39 16q-25 0 -43 -18.5t-18 -45.5q0 -23 15.5 -39.5t38.5 -16.5q24 0 42.5 19t18.5 45z" />
<glyph unicode="&#x2dc;" horiz-adv-x="507" d="M452 674q-39 -69 -102 -69q-34 0 -69 28.5t-54 28.5q-33 0 -65 -48l-33 28q38 69 100 69q34 0 70.5 -28.5t55.5 -28.5q34 0 63 47z" />
<glyph unicode="&#x3bc;" horiz-adv-x="612" d="M554 68q-40 -76 -104 -76q-65 0 -65 67q0 33 19 93l-2 1q-19 -53 -84 -107t-128 -54q-51 0 -80 36l-44 -279h-66l143 748h61l-61 -322q-5 -26 -5 -47q0 -30 10 -50q17 -34 54 -34q63 0 134 85.5t96 216.5l29 151h61l-69 -363q-6 -33 -6 -52q0 -10 2 -16q5 -17 23 -17 q28 0 50 40z" />
<glyph unicode="&#x2000;" horiz-adv-x="426" />
<glyph unicode="&#x2001;" horiz-adv-x="852" />
<glyph unicode="&#x2002;" horiz-adv-x="426" />
<glyph unicode="&#x2003;" horiz-adv-x="852" />
<glyph unicode="&#x2004;" horiz-adv-x="284" />
<glyph unicode="&#x2005;" horiz-adv-x="213" />
<glyph unicode="&#x2006;" horiz-adv-x="142" />
<glyph unicode="&#x2007;" horiz-adv-x="142" />
<glyph unicode="&#x2008;" horiz-adv-x="106" />
<glyph unicode="&#x2009;" horiz-adv-x="170" />
<glyph unicode="&#x200a;" horiz-adv-x="47" />
<glyph unicode="&#x2010;" horiz-adv-x="327" d="M291 320l-10 -52h-228l10 52h228z" />
<glyph unicode="&#x2011;" horiz-adv-x="327" d="M291 320l-10 -52h-228l10 52h228z" />
<glyph unicode="&#x2013;" d="M564 324l-10 -53h-550l10 53h550z" />
<glyph unicode="&#x2014;" horiz-adv-x="1000" d="M891 324l-10 -53h-754l11 53h753z" />
<glyph unicode="&#x2018;" horiz-adv-x="223" d="M270 716q-76 -63 -76 -111q0 -14 7 -27q5 -10 5 -20t-6 -20q-11 -21 -35 -21q-35 0 -43 35q-2 10 -2 20q0 48 53 108q30 34 73 65z" />
<glyph unicode="&#x2019;" horiz-adv-x="223" d="M201 739q36 0 44 -36q2 -9 2 -19q0 -49 -56 -111q-29 -32 -70 -62l-24 29q75 63 75 111q0 14 -7 27q-5 10 -5 20q0 11 6 21q11 20 35 20z" />
<glyph unicode="&#x201a;" horiz-adv-x="223" d="M70 88q36 0 44 -36q2 -9 2 -19q0 -49 -56 -111q-29 -32 -70 -62l-25 29q76 63 76 111q0 14 -7 27q-5 10 -5 20q0 11 5 21q12 20 36 20z" />
<glyph unicode="&#x201c;" horiz-adv-x="388" d="M437 717q-76 -64 -76 -111q0 -14 7 -27q5 -11 5.5 -21t-5.5 -20q-11 -21 -35 -21q-36 0 -44 36q-2 9 -2 19q0 49 55 110q29 32 71 63zM270 717q-76 -64 -76 -111q0 -14 7 -27q5 -10 5 -20q0 -11 -6 -21q-11 -21 -35 -21q-35 0 -43 36q-2 10 -2 20q0 48 53 108 q30 33 73 64z" />
<glyph unicode="&#x201d;" horiz-adv-x="388" d="M368 740q35 0 43 -35q2 -9 2 -19q0 -49 -55 -111q-29 -32 -71 -63l-24 29q76 63 76 110q0 14 -7 27q-5 10 -5 20q0 11 5 22q12 20 36 20zM201 740q36 0 44 -36q2 -9 2 -19q0 -49 -56 -111q-29 -32 -70 -62l-24 29q75 63 75 110q0 14 -7 27q-5 10 -5 20q0 11 6 22 q11 20 35 20z" />
<glyph unicode="&#x201e;" horiz-adv-x="388" d="M237 88q36 0 44 -36q2 -9 2 -19q0 -49 -56 -111q-29 -32 -70 -62l-24 29q75 64 75 111q0 14 -7 27q-5 10 -5 20q0 11 6 21q11 20 35 20zM70 88q36 0 44 -36q2 -9 2 -19q0 -49 -56 -111q-29 -32 -70 -62l-25 29q76 63 76 111q0 14 -7 27q-5 10 -5 20q0 11 5 21 q12 20 36 20z" />
<glyph unicode="&#x2022;" horiz-adv-x="419" d="M320 302q0 -45 -30.5 -75.5t-73.5 -30.5q-41 0 -69.5 28.5t-28.5 67.5q0 45 30.5 75.5t73.5 30.5q41 0 69.5 -28.5t28.5 -67.5z" />
<glyph unicode="&#x2026;" horiz-adv-x="611" d="M513 43q0 -21 -14.5 -36t-34.5 -15q-19 0 -31.5 13.5t-12.5 31.5q0 22 14.5 36.5t34.5 14.5t32 -13t12 -32zM315 43q0 -21 -14.5 -36t-34.5 -15q-19 0 -31.5 13.5t-12.5 31.5q0 22 14.5 36.5t35.5 14.5q19 0 31 -13t12 -32zM118 43q0 -21 -15 -36t-35 -15 q-19 0 -31.5 13.5t-12.5 31.5q0 22 14.5 36.5t35.5 14.5q19 0 31.5 -13.5t12.5 -31.5z" />
<glyph unicode="&#x202f;" horiz-adv-x="170" />
<glyph unicode="&#x2039;" horiz-adv-x="308" d="M263 433l-127 -138l79 -139l-49 -31l-95 174l150 166z" />
<glyph unicode="&#x203a;" horiz-adv-x="308" d="M259 291l-149 -166l-43 33l128 138l-79 139l48 30z" />
<glyph unicode="&#x205f;" horiz-adv-x="213" />
<glyph unicode="&#x20ac;" d="M569 631l-20 -54q-56 30 -119 30q-155 0 -225 -183h209l-9 -46h-215q-14 -50 -19 -101h215l-8 -46h-211q-1 -14 -1 -27q0 -71 28 -110q32 -47 125 -47q65 0 138 30l12 -51q-80 -34 -164 -34q-120 0 -165 62q-41 56 -41 151q0 13 1 26h-92l8 46h89q5 54 20 101h-90l9 46 h96q37 103 111.5 168.5t191.5 65.5q70 0 126 -27z" />
<glyph unicode="&#x2122;" horiz-adv-x="692" d="M670 675l-13 -281h-50l7 166l4 58l-23 -49l-87 -175h-55l-18 177l-4 47l-11 -37l-62 -187h-47l94 281h70l17 -176l3 -50l17 45l90 181h68zM340 675l-7 -40h-76l-46 -241h-53l47 241h-77l7 40h205z" />
</font>
</defs>
</svg>
