<?xml version="1.0" standalone="no"?>
<!DOCTYPE svg PUBLIC "-//W3C//DTD SVG 1.1//EN" "http://www.w3.org/Graphics/SVG/1.1/DTD/svg11.dtd" >
<svg xmlns="http://www.w3.org/2000/svg">
<metadata>
This is a custom SVG webfont generated by Font Squirrel.
Copyright   : Typeface  FontSite Inc 19962009 All Rights Reserved wwwfontsitecom
Designer    : FontSitecom
Foundry URL : httpwwwfontsitecom
</metadata>
<defs>
<font id="webfontmNH0BDJb" horiz-adv-x="1079" >
<font-face units-per-em="2048" ascent="1479" descent="-569" />
<missing-glyph horiz-adv-x="512" />
<glyph unicode=" "  horiz-adv-x="512" />
<glyph unicode="&#x09;" horiz-adv-x="512" />
<glyph unicode="&#xa0;" horiz-adv-x="512" />
<glyph unicode="!" horiz-adv-x="571" d="M172 80q0 43 33 72.5t80 29.5q51 0 82.5 -29.5t31.5 -74.5q0 -47 -31.5 -76t-82.5 -29q-49 0 -81 30t-32 77zM180 1331q0 23 10.5 29t45.5 6h98q35 0 45 -7t10 -30q0 -2 -1 -5t-2 -11t-1 -21l-82 -964h-35l-86 964q-2 33 -2 39z" />
<glyph unicode="&#x22;" horiz-adv-x="563" d="M82 1262q0 55 20.5 89.5t53.5 34.5q35 0 56 -34.5t21 -87.5q0 -18 -8 -84l-45 -334h-45l-47 334q-6 43 -6 82zM330 1262q0 55 20.5 89.5t52.5 34.5q35 0 56.5 -34.5t21.5 -87.5q0 -35 -8 -84l-47 -334h-43l-47 334q-6 33 -6 82z" />
<glyph unicode="#" d="M63 469l11 72h213l45 311h-215l10 72h215l61 442h78l-61 -442h313l62 442h79l-63 -442h203l-10 -72h-203l-43 -311h203l-11 -72h-202l-66 -469h-80l66 469h-314l-65 -469h-78l65 469h-213zM365 541h313l45 311h-313z" />
<glyph unicode="$" d="M94 225q0 29 22.5 52.5t51.5 23.5q51 0 82 -86q27 -78 47 -104.5t86 -71.5v629l-4 4l-123 92q-53 41 -87 106.5t-34 130.5q0 98 66.5 175t181.5 112v144h41v-136q39 6 90 7q61 0 88 -9v138h41v-144q121 -33 189.5 -85t68.5 -109q0 -29 -19.5 -48.5t-45.5 -19.5 q-45 0 -91 70q-43 68 -102 121v-508l12 -9q111 -59 219 -170q80 -82 80 -204.5t-81.5 -212.5t-229.5 -127v-209h-41v203q-43 -6 -92 -6.5t-86 6.5v-203h-41v209q-129 37 -188 82q-101 75 -101 157zM254 1075q0 -104 129 -198v370q-57 -18 -93 -66.5t-36 -105.5zM424 25 q35 -12 102 -13q53 0 76 8v517q-23 18 -96 57l-10 6q-8 6 -29 18l-43 27v-620zM424 848q43 -35 106 -72q35 -23 37 -22q6 -2 35 -23v508q-37 25 -121 25q-27 0 -57 -7v-409zM643 31q178 82 178 241q0 92 -76 166q-49 39 -96 70l-6 4v-481z" />
<glyph unicode="%" horiz-adv-x="1894" d="M68 967q0 174 101 300t243 126q143 0 242.5 -126t99.5 -306q0 -182 -100.5 -311.5t-241.5 -129.5q-145 0 -244.5 130.5t-99.5 316.5zM190 965q0 -213 52 -316q53 -100 168 -100q59 0 107 31.5t71 87.5q43 98 43 293q0 207 -51 305q-25 45 -71 71.5t-97 26.5 q-129 0 -179 -115q-43 -96 -43 -284zM369 -59l1067 1495h90l-1067 -1495h-90zM1141 420q0 176 101 302t243 126q143 0 242.5 -126t99.5 -308.5t-100.5 -311.5t-241.5 -129q-145 0 -244.5 130.5t-99.5 316.5zM1264 418q0 -213 51 -316q53 -100 168 -100q59 0 107 32t71 87 q43 98 43 293q0 209 -51 307q-25 45 -71 71.5t-97 26.5q-127 0 -178 -117q-43 -104 -43 -284z" />
<glyph unicode="&#x26;" horiz-adv-x="1601" d="M90 332q0 215 236 338q55 31 151 71q-72 59 -115 137t-43 150q0 113 83 183.5t216 70.5q123 0 202 -59.5t79 -153.5q0 -154 -248 -278q219 -158 381 -388q70 74 172.5 236t102.5 199q0 23 -25 32t-96 11v39h387v-39q-123 -6 -162 -25q-23 -12 -63 -74q-18 -31 -43 -67 l-62 -101q-109 -170 -186 -252q35 -51 88 -145q57 -104 93 -138t83 -34q61 0 172 74l18 -35q-145 -115 -268 -115q-86 0 -135 38t-109 147q-27 51 -51 88q-121 -131 -253 -202t-251 -71q-147 0 -250.5 105.5t-103.5 257.5zM270 358q0 -125 74 -202.5t193 -77.5 q94 0 205.5 58.5t183.5 144.5q-80 127 -175.5 226t-242.5 208q-238 -162 -238 -357zM459 1081q0 -141 162 -266q4 4 10 6l6 4q129 86 129 228q0 86 -44 136t-118 50q-68 0 -106.5 -43t-38.5 -115z" />
<glyph unicode="'" horiz-adv-x="315" d="M82 1262q0 55 20.5 89.5t53.5 34.5q35 0 56 -34.5t21 -87.5q0 -18 -8 -84l-45 -334h-45l-47 334q-6 43 -6 82z" />
<glyph unicode="(" horiz-adv-x="663" d="M160 485q0 354 184 670q115 190 209 291l61 -53q-109 -115 -211 -330q-123 -254 -122 -578q0 -182 33.5 -325.5t113.5 -298.5q94 -182 186 -281l-61 -53q-113 117 -236 338q-157 284 -157 620z" />
<glyph unicode=")" horiz-adv-x="663" d="M51 -420q104 111 209 330q125 258 125 575q0 182 -34 325.5t-113 299.5q-96 186 -187 283l62 53q123 -133 235 -338q158 -283 158 -623q0 -352 -187 -667q-109 -186 -206 -291z" />
<glyph unicode="*" d="M37 1069l18 61l379 -47l76 373h65l68 -373l379 47l20 -61l-335 -182l165 -348l-59 -39l-274 254l-273 -254l-55 39l164 348z" />
<glyph unicode="+" d="M88 666v67h418v397h67v-397h416v-67h-416v-398h-67v398h-418z" />
<glyph unicode="," horiz-adv-x="571" d="M174 72q0 47 34 78.5t85 31.5q66 0 109.5 -52t43.5 -132q0 -100 -67.5 -190.5t-175.5 -133.5l-15 41q168 96 168 219q0 47 -28 48l-31 -7q-20 -4 -31 -4q-39 0 -65.5 30t-26.5 71z" />
<glyph unicode="-" horiz-adv-x="870" d="M72 358v148h716v-148h-716z" />
<glyph unicode="." horiz-adv-x="571" d="M172 80q0 43 33 72.5t80 29.5q51 0 82.5 -29.5t31.5 -74.5q0 -47 -31.5 -76t-82.5 -29q-49 0 -81 30t-32 77z" />
<glyph unicode="/" horiz-adv-x="618" d="M2 -489l438 1939h84l-440 -1939h-82z" />
<glyph unicode="0" d="M82 694q0 315 158 531q131 176 299 176q172 0 299 -176q158 -219 157 -541q0 -317 -157 -539q-127 -176 -299 -176t-299 176q-158 223 -158 549zM246 692q0 -354 67 -516q72 -168 226 -168q80 0 141 51.5t94 143.5q57 162 57 483q0 350 -67 510q-35 78 -94.5 122 t-130.5 44q-80 0 -141.5 -51t-94.5 -144q-57 -168 -57 -475z" />
<glyph unicode="1" d="M197 1075q80 53 205.5 166t156.5 160h76v-1284q0 -47 17.5 -61.5t74.5 -14.5h113v-41h-553v41h84q88 0 103 17.5t15 113.5v1053q-47 -41 -136 -100.5t-138 -80.5z" />
<glyph unicode="2" d="M68 0v35q84 109 403 428q295 295 295 518q0 125 -84 210t-207 85q-117 0 -212 -82t-134 -215h-35q23 188 144.5 305t300.5 117q174 0 289.5 -110.5t115.5 -276.5q0 -162 -104 -291l-18 -21q-7 -8 -13 -16t-17 -18l-20 -18l-28 -23l-34 -29l-51 -42l-61 -52 q-117 -96 -172 -148.5t-219 -220.5h512q104 0 139 9.5t57 43.5q23 39 37 121h35l-43 -309h-876z" />
<glyph unicode="3" d="M78 127q0 29 21.5 51.5t47.5 22.5q39 0 132 -76q72 -57 112.5 -76.5t91.5 -19.5q129 0 223.5 118.5t94.5 280.5q0 129 -69.5 217t-170.5 88q-78 0 -153 -61l-23 33q82 57 164 139q141 139 141 241q0 84 -63.5 143.5t-151.5 59.5q-84 0 -166 -59.5t-129 -155.5l-39 14 q55 143 166 228.5t242 85.5q123 0 205 -69.5t82 -176.5q0 -172 -230 -311h29q139 0 234.5 -104.5t95.5 -256.5q0 -205 -168 -359.5t-389 -154.5q-131 0 -230.5 47.5t-99.5 110.5z" />
<glyph unicode="4" d="M80 399v50l647 952h61v-893h222v-109h-222v-430h-145v430h-563zM182 508h461v682z" />
<glyph unicode="5" d="M104 109q0 29 21.5 48t52.5 19q53 0 146 -84q74 -72 151 -72q121 0 211 111t90 260.5t-93 248.5t-232 99q-131 0 -236 -80l-20 15l30 698h469q76 0 91.5 4t25.5 25h41l-25 -170h-557l-16 -397q104 55 238 55q184 0 316 -133t132 -318q0 -199 -147.5 -334t-366.5 -135 q-133 0 -227.5 41.5t-94.5 98.5z" />
<glyph unicode="6" d="M119 543q0 303 197.5 533.5t537.5 324.5l25 -33q-256 -104 -395.5 -269t-176.5 -409q164 127 309 127q162 0 276 -117.5t114 -285.5q0 -182 -127 -313.5t-304 -131.5q-201 0 -328.5 161t-127.5 413zM283 498q0 -225 80.5 -357.5t218.5 -132.5q121 0 190.5 103.5 t69.5 279.5q0 170 -71 272.5t-187 102.5q-121 0 -291 -133q0 -4 -2 -10v-5q-8 -42 -8 -120z" />
<glyph unicode="7" d="M84 1096l16 270h871v-45l-537 -1352h-121l531 1256h-555q-109 0 -131.5 -17.5t-36.5 -111.5h-37z" />
<glyph unicode="8" d="M111 330q0 231 319 360q-301 133 -301 354q0 145 119 251t284 106q164 0 280 -93.5t116 -224.5q0 -205 -287 -321q172 -78 250 -170t78 -219q0 -170 -125 -287t-307 -117q-178 0 -302 104.5t-124 256.5zM250 336q0 -141 83 -234.5t206 -93.5t206.5 88t83.5 215 q0 78 -32.5 132.5t-110.5 107.5q-96 68 -213 119q-2 -2 -8 -4l-4 -2q-100 -49 -155.5 -137.5t-55.5 -190.5zM258 1114q0 -74 36 -127t124 -106q98 -61 190 -99l13 6q82 49 128 129t46 170q0 119 -75 197t-189.5 78t-193.5 -73t-79 -175z" />
<glyph unicode="9" d="M92 956q0 182 127 313.5t303 131.5q201 0 329 -161t128 -413q0 -305 -194.5 -532t-540.5 -326l-25 33q254 102 393.5 266t184.5 414q-164 -129 -316 -129q-162 0 -275.5 117.5t-113.5 285.5zM256 979q0 -170 70.5 -272.5t187.5 -102.5q121 0 291 133q2 6 2 11v4 q8 49 8 122q0 225 -80 356.5t-219 131.5q-121 0 -190.5 -103.5t-69.5 -279.5z" />
<glyph unicode=":" horiz-adv-x="571" d="M172 80q0 43 33 72.5t80 29.5q51 0 82.5 -29.5t31.5 -74.5q0 -47 -31.5 -76t-82.5 -29q-49 0 -81 30t-32 77zM172 790.5q0 45.5 33 74t80 28.5q51 0 82.5 -28.5t31.5 -73.5q0 -47 -31.5 -76t-82.5 -29q-49 0 -81 29.5t-32 75z" />
<glyph unicode=";" horiz-adv-x="571" d="M174 72q0 47 34 78.5t85 31.5q66 0 109.5 -52t43.5 -132q0 -100 -67.5 -190.5t-175.5 -133.5l-15 41q168 96 168 219q0 47 -28 48l-31 -7q-20 -4 -31 -4q-39 0 -65.5 30t-26.5 71zM176 793q0 43 33 72.5t82 29.5t80.5 -29.5t31.5 -74.5q0 -47 -31.5 -76t-82.5 -29 q-49 0 -81 30t-32 77z" />
<glyph unicode="&#x3c;" d="M115 698v13l848 544v-77l-639 -416l639 -426v-205z" />
<glyph unicode="=" d="M88 514v68h901v-68h-901zM88 815v68h901v-68h-901z" />
<glyph unicode="&#x3e;" d="M115 131v78l639 414l-639 428v204l848 -567v-12z" />
<glyph unicode="?" horiz-adv-x="778" d="M113 1288q0 49 50 77t140 28q156 0 264 -103q117 -109 117 -293q0 -143 -69.5 -229t-229.5 -143q-96 -35 -96 -101q0 -61 84 -155h-51q-106 127 -107 227q0 70 37 112t127 74q119 43 168 80q84 57 84 168q0 92 -59.5 143.5t-165.5 51.5q-43 0 -125 -13q-25 -4 -43 -4 q-125 0 -125 80zM227 80q0 43 33 72.5t80 29.5q51 0 83 -29.5t32 -74.5q0 -47 -32 -76t-83 -29q-49 0 -81 30t-32 77z" />
<glyph unicode="@" horiz-adv-x="1568" d="M117 469q0 295 207.5 506t498.5 211q266 0 447.5 -174t181.5 -430q0 -213 -151.5 -361.5t-370.5 -148.5q-45 0 -65.5 21.5t-20.5 70.5q0 47 26 174q-248 -260 -313 -260q-41 0 -73.5 57.5t-32.5 132.5q0 135 90 274.5t231 227.5t279 88q18 0 41 -2l-123 -602 q-8 -41 -8 -57q0 -53 67 -54q82 0 172 72q184 147 184 365q0 229 -163 385q-166 160 -398 159q-266 0 -452.5 -191.5t-186.5 -463.5q0 -274 188.5 -465.5t461.5 -191.5q221 0 415 143h82q-201 -205 -504 -205q-295 0 -502.5 210t-207.5 509zM563 307q0 -57 17.5 -97 t42.5 -40q43 0 260 223l75 371q-137 -12 -213 -66q-80 -53 -131 -162.5t-51 -228.5z" />
<glyph unicode="A" horiz-adv-x="1488" d="M6 0v41q104 2 144 40t92 177l401 1094l-20 49h190l420 -1114q61 -166 99 -206t141 -40v-41h-605v41h25q125 0 165 15.5t40 60.5q0 25 -33 112l-141 377h-455l-125 -344q-45 -125 -45 -141q0 -61 102 -74q16 -2 111 -6v-41h-506zM508 702h381l-195 515z" />
<glyph unicode="B" horiz-adv-x="1388" d="M-6 0v41h49q127 0 172 37q29 23 36 56.5t7 139.5v818q0 96 -6 133t-27 59q-39 41 -166 41h-47v41q471 20 633 20q242 0 367 -57q84 -37 134 -108.5t50 -155.5q0 -100 -70.5 -178t-181.5 -101q158 -47 242 -144t84 -228q0 -119 -71 -223.5t-179 -151.5q-88 -39 -393 -39 h-633zM440 369q0 -176 29 -228q49 -82 223 -82q172 0 264 82q47 43 77 116t30 146q0 94 -45 174t-123 125q-59 33 -113.5 42.5t-181.5 9.5h-160v-385zM440 797h166q131 0 193.5 11t105.5 42q90 68 90 203q0 92 -46 162.5t-126 103.5q-74 29 -221 29q-55 0 -162 -9v-542z" />
<glyph unicode="C" horiz-adv-x="1601" d="M117 666q0 322 222 528.5t566 206.5q195 0 389 -72q55 -18 76 -18q16 0 37 12h35l18 -315h-41q-55 154 -193.5 247t-307.5 93q-119 0 -233 -45.5t-191 -122.5q-172 -172 -172 -467q0 -293 179 -490.5t445 -197.5q348 0 533 319h43q-16 -61 -60.5 -161.5t-81.5 -159.5 q-20 4 -45 4q-39 0 -190 -33q-131 -29 -262 -29q-334 0 -550 198t-216 503z" />
<glyph unicode="D" horiz-adv-x="1681" d="M47 0v41h35q102 0 143 43q23 25 28 51.5t5 140.5v816q0 98 -6 135t-27 59q-37 39 -162 39h-16v41q541 20 666 20q207 0 345 -34.5t253 -114.5q252 -182 252 -506q0 -201 -105.5 -372t-290.5 -267q-139 -72 -346 -88q-78 -4 -227 -4h-547zM440 195q0 -68 4.5 -88.5 t18.5 -34.5q25 -31 141 -31q213 0 318.5 27.5t201.5 107.5q233 197 234 518q0 250 -127 417t-348 206q-135 25 -314 24q-39 0 -129 -4v-1142z" />
<glyph unicode="E" horiz-adv-x="1290" d="M-8 0v43h53q125 0 172 35q29 23 36 56.5t7 141.5v814q0 102 -5 137t-26 55q-41 43 -145 43h-47v41h1055l18 -305h-41q-14 115 -55 182q-20 35 -51 43t-138 8h-383v-546h316q100 0 128.5 7t45.5 36q23 39 33 122h41v-419h-41q-8 84 -35 127q-18 33 -47 40t-131 7h-310 v-400q0 -129 21 -157q16 -20 41.5 -25.5t103.5 -5.5h221q119 0 164 11t76 46q57 68 86 191h41l-35 -328h-1169z" />
<glyph unicode="F" horiz-adv-x="1169" d="M94 1325v41h985v-258h-41q-2 90 -37 133q-25 29 -60.5 37t-145.5 8h-355v-514h361q90 0 119.5 6t50.5 33q27 33 33 100h36v-387h-36q-6 78 -31 115q-23 35 -55.5 44t-126.5 9h-351v-416q0 -115 5.5 -141t27.5 -51q39 -43 143 -43h17v-41h-535v41q104 8 132 49t28 186v814 q0 145 -29 187t-135 48z" />
<glyph unicode="G" horiz-adv-x="1615" d="M117 657q0 158 62.5 301.5t174.5 247.5q207 195 531 195q143 0 368 -62q55 -14 72 -14q31 0 47 16h31v-356h-43q-35 176 -149.5 270.5t-295.5 94.5q-270 0 -431.5 -184.5t-161.5 -493.5q0 -283 153 -461q168 -190 418 -191q172 0 336 84v205q0 102 -6 136t-27 59 q-35 41 -141 41h-82v41h592v-39q-102 -10 -128 -51t-26 -187v-205q-88 -55 -266 -97t-320 -42q-307 0 -507.5 196.5t-200.5 495.5z" />
<glyph unicode="H" horiz-adv-x="1744" d="M74 0v41h10q104 0 143 43q23 25 28 51.5t5 140.5v814q0 145 -26.5 186t-131.5 49v41h523v-41h-9q-104 0 -141 -43q-23 -27 -28 -53.5t-5 -138.5v-363h863v363q0 100 -5.5 136t-25.5 56q-41 43 -144 43h-40v41h565v-41q-111 -6 -139.5 -47t-28.5 -188v-814q0 -115 5 -141 t28 -51q41 -43 143 -43h23v-41h-621v41h65q102 0 144 43q20 20 25.5 56t5.5 136v377h-863v-377q0 -115 5.5 -141t27.5 -51q41 -43 141 -43h11v-41h-553z" />
<glyph unicode="I" horiz-adv-x="700" d="M96 0v41q109 6 136.5 48t27.5 187v814q0 145 -27.5 187t-136.5 48v41h533v-41h-11q-102 0 -143 -43q-20 -23 -26.5 -57.5t-6.5 -134.5v-814q0 -115 5.5 -141t27.5 -51q41 -43 143 -43h11v-41h-533z" />
<glyph unicode="J" horiz-adv-x="673" d="M-240 -397q0 35 25 61.5t57 26.5q35 0 107 -53q70 -51 119 -52q78 0 122 62q37 53 46.5 120.5t9.5 286.5v1035q0 115 -5 141t-28 51q-41 43 -143 43h-25v41h553v-41q-111 -4 -140.5 -46t-29.5 -189v-701q0 -242 -12 -348q-35 -260 -152 -408.5t-289 -148.5 q-90 0 -152.5 34t-62.5 85z" />
<glyph unicode="K" horiz-adv-x="1536" d="M45 0v41h39q104 0 143 43q23 25 28 51.5t5 140.5v814q0 115 -5 141t-28 51q-39 43 -143 43h-39v41h592v-41h-19q-102 0 -143 -43q-23 -25 -28 -51.5t-5 -140.5v-414q80 10 156 63.5t178 169.5q219 248 219 346q0 41 -28.5 54.5t-122.5 15.5v41h575v-41 q-166 -4 -230.5 -43t-162.5 -188q-176 -264 -334 -377q39 -8 113 -74q156 -145 416 -457q53 -63 77.5 -84.5t59.5 -35.5q57 -25 168 -25h14v-41h-645v41q143 2 143 63q0 37 -104 156q-209 240 -340 336q-59 41 -129 41q-12 0 -23 -2v-359q0 -115 5.5 -141t27.5 -51 q41 -43 143 -43h29v-41h-602z" />
<glyph unicode="L" horiz-adv-x="1216" d="M49 0v39h41q106 0 141 35q20 23 24.5 52.5t4.5 160.5v803q0 115 -5 141t-28 51q-39 43 -143 43h-29v41h650v-41l-27 -2q-4 0 -22.5 -1t-32.5 -1q-133 -4 -157 -34t-24 -187v-893q0 -90 16.5 -108.5t96.5 -18.5h246q121 0 164 21.5t125 127.5l71 93h39l-168 -322h-983z " />
<glyph unicode="M" horiz-adv-x="2013" d="M27 0v41q121 2 151.5 41t40.5 194l51 857q4 45 4 79q0 59 -28.5 84t-106.5 29v41h332l530 -1110l527 1110h323v-41q-96 -8 -120.5 -22.5t-24.5 -65.5q0 -6 1 -13t3 -33t4 -65l60 -843q10 -137 14 -164t20 -45q31 -33 138 -33h22v-41h-565v41q106 0 150 34t44 115 q0 23 -8 129l-57 852l-551 -1171h-49l-563 1171l-56 -880q-4 -66 -4 -109q0 -72 40 -104.5t134 -36.5v-41h-456z" />
<glyph unicode="N" horiz-adv-x="1814" d="M72 0v41q100 0 147 33q37 27 39 88q2 14 2 117v991q-68 51 -184 55v41h346l1034 -1079v805q0 117 -10 153.5t-49 57.5q-31 16 -156 22v41h514v-41q-141 -6 -168 -29q-23 -18 -27 -39.5t-4 -130.5v-1140h-57l-1139 1190v-887q0 -162 27 -199q20 -27 49 -35t131 -12l15 -2 v-41h-510z" />
<glyph unicode="O" horiz-adv-x="1806" d="M115 672q0 145 65.5 288.5t177.5 239.5q227 201 555 201q301 0 527 -174q252 -197 252 -512.5t-226.5 -532.5t-556.5 -217q-266 0 -485 139q-309 197 -309 568zM322 723q0 -305 178 -506t448 -201q264 0 412 211q127 180 127 424q0 303 -180.5 501t-454.5 198 q-207 0 -348 -144q-182 -188 -182 -483z" />
<glyph unicode="P" horiz-adv-x="1239" d="M47 1325v41q297 20 481 20q311 0 439 -71q195 -109 194 -316q0 -195 -144.5 -308t-389.5 -113q-92 0 -185 18v-320q0 -135 21 -174q35 -61 155 -61h74v-41h-610v41l31 2q68 4 93 11t38 28q12 18 14 40.5t2 139.5v879q0 90 -3 113.5t-19 41.5q-16 20 -37 24.5t-101 4.5 h-53zM442 637q76 -16 125 -16q172 0 280.5 106.5t108.5 276.5q0 88 -30.5 162.5t-83.5 115.5q-86 66 -264 66q-70 0 -136 -13v-698z" />
<glyph unicode="Q" horiz-adv-x="1806" d="M117 662q0 315 228 527t568 212q307 0 527 -174q252 -197 252 -512q0 -262 -162 -462t-426 -265q100 -35 326 -230q178 -154 329 -155l-35 -47q-49 -14 -102 -15q-115 0 -220.5 50.5t-256.5 175.5q-111 92 -170.5 132t-136.5 68q-322 29 -521.5 221.5t-199.5 473.5z M324 723q0 -303 178 -505t446 -202q266 0 414 211q125 176 125 424q0 303 -179.5 501t-453.5 198q-207 0 -348 -144q-182 -188 -182 -483z" />
<glyph unicode="R" horiz-adv-x="1691" d="M45 0v41h39q104 0 143 43q23 25 28 51.5t5 140.5v816q0 96 -6 133t-27 59q-39 41 -166 41h-14v41q303 20 518 20q313 0 453 -90q170 -106 170 -299q0 -125 -78 -221t-211 -137q78 -61 139 -120l219 -218q147 -152 258 -215t238 -72v-39h-74q-219 0 -333 52 q-61 27 -123 78t-201 190q-240 238 -317 285q-82 -6 -148 -7q-68 0 -115 5v-302q0 -115 5.5 -141t27.5 -51q41 -43 143 -43h52v-41h-625zM442 618q55 -6 105 -6q199 0 299 66q63 43 99 124t36 179q0 367 -432 367q-49 0 -107 -7v-723z" />
<glyph unicode="S" horiz-adv-x="1075" d="M96 334h43q43 -143 121 -213q104 -96 248 -96q127 0 216 73.5t89 180.5q0 88 -61 163q-35 41 -74 71t-162 108q-201 129 -285 204q-123 111 -122 256q0 137 110.5 228.5t280.5 91.5q109 0 215 -35q63 -20 84 -20q18 0 39 20h32l39 -279h-39q-45 119 -142 191t-212 72 q-106 0 -175 -58.5t-69 -148.5q0 -96 86 -178q41 -39 82 -68t160 -104q219 -139 298 -233.5t79 -219.5q0 -162 -128 -268.5t-323 -106.5q-96 0 -239 43q-49 14 -68 15q-27 0 -41 -23h-37z" />
<glyph unicode="T" horiz-adv-x="1484" d="M68 1044l34 357h39q10 -25 29.5 -30t101.5 -5h940q82 0 101.5 5t29.5 30h39l35 -357h-39q-25 147 -65 201q-23 29 -43.5 35t-102.5 6h-333v-1010q0 -115 5 -141t27 -51q39 -43 144 -43h71v-41h-682v41h76q102 0 143 43q23 25 28 51.5t5 140.5v1010h-334q-84 0 -106.5 -8 t-46.5 -43q-35 -53 -58 -191h-38z" />
<glyph unicode="U" horiz-adv-x="1763" d="M51 1327v39h565v-41h-18q-102 0 -143 -43q-23 -25 -28 -51.5t-5 -140.5v-437q0 -166 12 -229q35 -164 163 -254t327 -90q307 0 434 199q51 82 63 192q2 25 2 168v387q0 129 -10 180t-43 78q-41 35 -162 41v41h516v-41q-109 -6 -153 -49q-31 -31 -39 -71t-8 -169v-393 q0 -188 -15 -256q-43 -201 -235 -326q-156 -96 -397 -96q-371 0 -543 234q-57 78 -75.5 161.5t-18.5 260.5v471q0 162 -29 197.5t-160 37.5z" />
<glyph unicode="V" horiz-adv-x="1441" d="M-25 1325v41h605v-41q-121 -4 -171.5 -24.5t-50.5 -65.5q0 -31 37 -121l373 -924l346 906q39 100 39 137q0 51 -47 71.5t-158 20.5v41h508v-41q-90 -2 -141 -51t-101 -178l-436 -1135h-110l-467 1165q-51 129 -90.5 164t-135.5 35z" />
<glyph unicode="W" horiz-adv-x="2127" d="M-39 1325v41h569v-41h-16q-74 0 -104 -16q-35 -18 -35 -60q0 -31 43 -139l368 -930l238 588l-162 393q-41 98 -87 130t-154 34v41h901v-41q-111 -2 -153 -31.5t-85 -132.5l-121 -295l289 -686l360 950q41 109 41 125q0 37 -35.5 51.5t-131.5 18.5v41h454v-41 q-100 -2 -142 -39t-89 -160l-443 -1165h-104l-287 684l-276 -684h-109l-442 1133q-59 150 -108.5 190.5t-178.5 40.5zM993 1282q0 -16 27 -78l92 -215l84 203q27 63 27 86q0 47 -68 47h-90q-72 0 -72 -43z" />
<glyph unicode="X" horiz-adv-x="1648" d="M20 1325v41h658v-41q-102 -2 -139 -13.5t-37 -41.5q0 -23 11 -41.5t60 -77.5l267 -328l217 260q119 141 119 191q0 41 -66 49q-33 0 -88 2v41h528v-41q-121 -4 -202.5 -58.5t-210.5 -213.5l-242 -297l414 -514q98 -123 153.5 -157t179.5 -44v-41h-606v41q90 4 115 14.5 t25 42.5q0 43 -68 125l-324 400l-350 -420q-57 -68 -57 -107q0 -29 34.5 -40t131.5 -15v-41h-520v41q113 8 178 51t184 184l346 412l-346 430q-104 129 -170 166t-195 41z" />
<glyph unicode="Y" horiz-adv-x="1501" d="M-31 1323v43h586v-43q-156 0 -156 -53q0 -33 70 -142l317 -489l277 465q68 115 67 147q0 39 -30.5 55.5t-100.5 16.5h-14v43h498v-43q-113 -8 -175.5 -57t-148.5 -195l-317 -536v-259q0 -115 5 -141t27 -51q39 -43 144 -43h29v-41h-605v41h41q102 0 144 43 q23 25 27.5 51.5t4.5 140.5v234l-389 608q-86 133 -138 168t-163 37z" />
<glyph unicode="Z" horiz-adv-x="1486" d="M88 0v51l987 1235h-592q-121 0 -158.5 -9t-60.5 -46q-29 -45 -43 -174h-41l13 309h1130v-49l-993 -1237h704q143 0 189 26q41 25 61.5 72t58.5 219h37l-24 -397h-1268z" />
<glyph unicode="[" horiz-adv-x="663" d="M197 -471v1905h424v-41l-154 -4q-88 -2 -111 -27q-14 -18 -14 -111v-1538q0 -68 2 -82t12 -28q18 -25 111 -27l154 -6v-41h-424z" />
<glyph unicode="\" horiz-adv-x="618" d="M94 1450h82l440 -1939h-81z" />
<glyph unicode="]" horiz-adv-x="663" d="M41 -430l154 6q92 2 110 27q10 14 12 28.5t2 81.5v1538q0 68 -2 82.5t-12 28.5q-23 25 -110 27l-154 4v41h424v-1905h-424v41z" />
<glyph unicode="^" horiz-adv-x="1024" d="M-51 586l567 848h12l545 -848h-78l-413 639l-428 -639h-205z" />
<glyph unicode="_" horiz-adv-x="1024" d="M0 -180h1024v-88h-1024v88z" />
<glyph unicode="`" horiz-adv-x="1024" d="M186 1442h244l283 -369h-33z" />
<glyph unicode="a" horiz-adv-x="847" d="M63 154q0 82 57.5 129t201.5 86q113 31 196 84v174q0 61 -8 89.5t-35 57.5q-51 55 -119 55q-49 0 -92 -34.5t-43 -73.5q0 -14 12 -39l-149 -74q-8 23 -8 33q0 61 100 145q127 106 225 107q66 0 130.5 -32t99.5 -83q23 -31 28 -59.5t5 -130.5v-293q0 -154 8 -178 q12 -37 51 -37q43 0 106 47l11 -31q-137 -123 -217 -123q-94 0 -101 133q-23 -12 -51 -36q-68 -57 -111 -77t-102 -20q-86 0 -140.5 50.5t-54.5 130.5zM205 180q0 -53 38 -91t91 -38q27 0 50.5 11.5t84.5 54.5q12 10 49 30v263q-47 -27 -190 -86q-123 -52 -123 -144z" />
<glyph unicode="b" horiz-adv-x="1083" d="M12 1350v39l264 88h33v-742q223 158 336 158q143 0 249.5 -126t106.5 -296q0 -213 -147 -355.5t-369 -142.5q-125 0 -321 41v1192q0 96 -10 109q-12 14 -80 24zM309 387q0 -127 7.5 -170t33.5 -82q68 -98 199 -98q135 0 221 104.5t86 268t-86 274.5t-213 111 q-98 0 -248 -105v-303z" />
<glyph unicode="c" horiz-adv-x="919" d="M82 397q0 205 148.5 351.5t357.5 146.5q102 0 174 -36t72 -89q0 -29 -19.5 -47t-46.5 -18q-53 0 -125 69q-68 66 -131 66q-113 0 -198 -117t-85 -274q0 -166 88.5 -276t221.5 -110q82 0 143 36t125 122l33 -18q-139 -229 -377 -230q-195 0 -297 152q-84 122 -84 272z" />
<glyph unicode="d" horiz-adv-x="1097" d="M80 399q0 205 138 345.5t339 140.5q111 0 219 -43v375q0 86 -11 101t-77 23l-74 9v36l281 91h27v-1237q0 -86 11 -110t54 -24q2 0 86 21l8 2v-45l-278 -111h-27v158q-223 -158 -346 -158q-145 0 -247.5 125t-102.5 301zM225 463q0 -164 83 -278.5t204 -114.5 q113 0 264 104v485q-117 166 -268 166q-123 0 -203 -102t-80 -260z" />
<glyph unicode="e" horiz-adv-x="937" d="M82 424q0 125 57.5 235.5t155.5 176.5q90 59 215 59q166 0 252 -107q25 -29 63 -112q20 -45 43 -68v-35h-641q-8 -49 -8 -98q0 -168 95.5 -280.5t238.5 -112.5q158 0 278 145l25 -26q-63 -80 -149 -144q-106 -84 -242 -84q-162 0 -272.5 130.5t-110.5 320.5zM233 614h451 q-16 106 -76.5 172t-144.5 66q-82 0 -141.5 -61.5t-88.5 -176.5z" />
<glyph unicode="f" horiz-adv-x="595" d="M37 774v37q94 20 162 59q2 139 27.5 226.5t88.5 169.5q80 100 176.5 156.5t188.5 56.5q72 0 149.5 -35t77.5 -68q0 -23 -24.5 -65.5t-38.5 -42.5q-6 0 -45 28q-115 84 -213 84q-70 0 -129.5 -42t-83.5 -109q-18 -53 -23.5 -106.5t-5.5 -196.5v-56h223l15 -96h-238v-512 q0 -104 5 -138t26 -52q35 -31 133 -31h84v-41h-543v41h12q90 0 115 35q14 20 18.5 53t4.5 143v502h-162z" />
<glyph unicode="g" horiz-adv-x="993" d="M43 -305q0 45 21.5 78.5t78.5 74.5q102 78 136 119q-90 10 -149.5 54.5t-59.5 101.5q0 39 23.5 61.5t86.5 46.5q86 35 113 54q-100 37 -155.5 107.5t-55.5 164.5q0 141 111.5 238.5t273.5 97.5q154 0 246 -86q152 2 288 22v-137q-147 8 -219 27q37 -76 37 -146 q0 -135 -109.5 -224t-275.5 -89q-43 0 -102 12q-23 -20 -92 -59q-39 -23 -39 -53q0 -51 129 -66q61 -8 258 -10q172 -2 262 -39q57 -23 94 -77t37 -118q0 -135 -158 -241q-180 -121 -438 -121q-152 0 -247 57.5t-95 149.5zM180 -227q0 -86 98.5 -154t223.5 -68 q143 0 253.5 78t110.5 180.5t-114 127.5q-25 6 -277 14q-109 2 -153 8q-20 -27 -97 -94q-45 -41 -45 -92zM227 616q0 -139 65.5 -228t168.5 -89q96 0 154.5 71.5t58.5 188.5q0 127 -66.5 211t-167.5 84q-94 0 -153.5 -67t-59.5 -171z" />
<glyph unicode="h" horiz-adv-x="1140" d="M53 1348v38l264 91h33v-721q238 139 365 139q152 0 205 -117q37 -76 36 -258q0 -106 -6 -252q0 -35 -1 -66.5t-2 -48t-1 -26.5q0 -49 32 -67.5t120 -18.5h14v-41h-473v41h10q123 0 142 90q20 98 20 318q0 203 -35 264q-53 92 -170 92q-55 0 -106 -19.5t-150 -74.5v-437 q0 -125 3 -148.5t18 -43.5q27 -41 118 -41h5v-41h-439v41q84 2 123 47q16 20 21.5 53t5.5 131v920q0 84 -2 100.5t-10 26.5q-14 14 -78 22z" />
<glyph unicode="i" horiz-adv-x="571" d="M37 0v41l18 2q66 6 94.5 16.5t47.5 36.5q23 33 22 160v367q0 86 -14.5 102t-100.5 35l-55 12v35l285 98h31v-649q0 -94 4 -120.5t22 -49.5q33 -37 131 -45v-41h-485zM182 1323q0 35 28 58.5t68.5 23.5t68.5 -23.5t28 -60.5t-28 -60.5t-68 -23.5q-43 0 -70 23.5t-27 62.5z " />
<glyph unicode="j" horiz-adv-x="534" d="M-248 -397q0 41 19.5 71.5t46.5 30.5q31 0 123 -80q59 -53 116 -53q51 0 87 34t51 95q10 45 10 254v668q0 86 -14.5 103t-98.5 34l-59 12v35l284 98h33v-860q0 -166 -18.5 -250t-71.5 -160q-104 -147 -285 -147q-90 0 -156.5 34t-66.5 81zM160 1323q0 35 27.5 58.5 t70.5 23.5q41 0 68.5 -23.5t27.5 -60.5t-27.5 -60.5t-70.5 -23.5t-69.5 23.5t-26.5 62.5z" />
<glyph unicode="k" horiz-adv-x="1101" d="M51 1350v39l266 88h33v-953l293 205q59 41 59 64q0 37 -106 36h-10v41h436v-41q-92 -2 -165 -34.5t-198 -120.5l-178 -127l353 -361q86 -90 133 -115.5t127 -29.5v-41h-471v41q98 0 98 41q0 23 -53 76l-318 327v-231q0 -117 3 -139.5t22 -42.5q29 -31 104 -31h23v-41 h-447v41h8q78 0 115 47q16 23 21.5 54.5t5.5 129.5v897q0 100 -2 119t-10 27q-8 12 -78 24z" />
<glyph unicode="l" horiz-adv-x="534" d="M23 0v41h14q100 0 139 45q20 23 24.5 48.5t4.5 146.5v888q0 100 -2 119t-10 29q-12 14 -78 22l-76 11v36l278 91h33v-1180q0 -150 6 -180q23 -76 142 -76h18v-41h-493z" />
<glyph unicode="m" horiz-adv-x="1746" d="M49 0v41h8q80 0 121 47q16 23 21.5 54.5t5.5 129.5v303q0 125 -8 148q-20 31 -101 39l-41 4v37l262 92h33v-174q258 172 395 172q78 0 132.5 -47t70.5 -127q272 174 398 174q133 0 186 -121q33 -76 33 -299q0 -104 -11 -289q-2 -16 -2 -43q0 -59 34 -79.5t128 -20.5h27 v-41h-494v41h21q70 0 97.5 19.5t35.5 76.5q14 111 14 328q0 186 -26 246q-43 94 -142 94q-113 0 -295 -127v-404q0 -121 3 -146.5t18 -45.5q29 -41 110 -41h9v-41h-449v41h16q80 0 121 47q16 23 21.5 54.5t5.5 129.5v254q0 109 -3 140.5t-20 62.5q-16 35 -55 56.5t-84 21.5 q-94 0 -295 -127v-406q0 -125 3 -148.5t18 -43.5q27 -41 123 -41h12v-41h-457z" />
<glyph unicode="n" horiz-adv-x="1150" d="M57 0v41h9q74 0 112 47q16 23 21.5 54.5t5.5 129.5v289q0 135 -8 154q-10 20 -99 43l-35 8v33l254 94h33v-191q250 178 387 179q127 0 189 -119q41 -76 41 -244q0 -115 -17 -352q-2 -12 -2 -33q0 -53 32 -72.5t116 -19.5h24v-41h-473v41q70 6 99.5 21.5t44.5 52.5 q29 76 28 428q0 119 -35 174q-45 76 -143 76q-63 0 -182 -66q-72 -37 -109 -65v-388q0 -125 3 -148.5t18 -43.5q27 -41 118 -41h9v-41h-441z" />
<glyph unicode="o" horiz-adv-x="1110" d="M82 438q0 193 136 324t335 131q201 0 338 -133t137 -330q0 -193 -135 -325t-332 -132q-211 0 -352 142q-127 126 -127 323zM246 500q0 -197 99 -336t241 -139q119 0 198.5 100t79.5 252q0 188 -101 326.5t-239 138.5q-121 0 -199.5 -97.5t-78.5 -244.5z" />
<glyph unicode="p" d="M14 -471h21q92 0 127 47q23 33 22 191v831l-2 70q-2 39 -19.5 50t-111.5 34v43l236 143h43v-211q221 160 342 160q129 0 227 -124t98 -286q0 -199 -139 -345t-328 -146q-80 0 -200 43v-262q0 -111 5 -143t27 -56q39 -39 117 -39h53v-41h-518v41zM330 176 q131 -121 262 -121q113 0 186.5 96.5t73.5 241.5q0 162 -84 274.5t-205 112.5q-106 0 -233 -108v-496z" />
<glyph unicode="q" horiz-adv-x="1075" d="M82 412q0 201 135 341t330 140q133 0 276 -74q33 47 72 72h37q-12 -51 -12 -244v-883q0 -113 5 -143.5t27 -52.5q33 -39 97 -39h22v-41h-532v41h86q92 0 127 47q23 33 22 188v371q-176 -152 -334 -151q-156 0 -257 122t-101 306zM227 471q0 -168 88 -281.5t220 -113.5 q115 0 239 110v277q0 131 -9 182t-38 92q-74 104 -203 105q-135 0 -216 -101.5t-81 -269.5z" />
<glyph unicode="r" horiz-adv-x="733" d="M59 0v41h9q72 0 110 47q16 23 21.5 54.5t5.5 129.5v443l-146 53v37l248 88h43v-231l70 110q66 109 143 109q23 0 76 -19q25 -10 113 -33l-54 -133q-53 10 -116 37q-45 20 -78 21q-45 0 -84 -56q-33 -49 -70 -110v-314q0 -125 3 -148.5t18 -43.5q27 -41 121 -41h86v-41 h-519z" />
<glyph unicode="s" horiz-adv-x="704" d="M111 645q0 109 78.5 178.5t203.5 69.5q96 0 174 -33l6 -203h-38q-14 84 -61.5 134.5t-113.5 50.5q-57 0 -96 -36t-39 -89t36 -94t136 -105q121 -76 170 -127q68 -74 68 -168q0 -106 -79 -178t-194 -72q-57 0 -133 25q-18 6 -24 6q-20 0 -35 -29h-35l-22 246h34 q18 -88 54 -131q68 -78 153 -78q66 0 111 43t45 105q0 55 -45 108.5t-156 126.5q-125 84 -161.5 130t-36.5 120z" />
<glyph unicode="t" horiz-adv-x="653" d="M78 774v35q61 29 118.5 105.5t90.5 172.5h37v-217h313l-35 -96h-278v-407q0 -119 6 -158t26 -66q49 -68 115 -67q72 0 133 110l35 -30q-80 -182 -240 -183q-121 0 -188 111q-23 39 -28 77t-5 154v459h-100z" />
<glyph unicode="u" horiz-adv-x="1142" d="M47 799v32l283 62v-514q0 -115 5 -153t27 -70q53 -78 166 -78q119 0 263 123v407q0 123 -15 148q-10 18 -27.5 25t-84.5 18l-66 10v31l338 53v-735q0 -70 45 -70q6 0 55 8l47 6v-39l-292 -90v179q-244 -178 -375 -178.5t-199 104.5q-20 33 -26.5 64.5t-6.5 115.5v430 q0 47 -18.5 66.5t-77.5 33.5z" />
<glyph unicode="v" horiz-adv-x="989" d="M-20 829v41h448v-41q-80 -2 -111.5 -14t-31.5 -41q0 -20 39 -110l215 -504l209 475q31 70 30 98q0 90 -157 96v41h383v-41q-76 -18 -111 -57t-94 -172l-271 -618h-65l-289 665q-51 119 -78.5 145.5t-115.5 36.5z" />
<glyph unicode="w" horiz-adv-x="1564" d="M-20 829v41h426v-41q-119 -6 -119 -59q0 -27 35 -104l227 -512l217 512q-41 96 -82 127.5t-133 35.5v41h455v-41q-61 -2 -87 -17t-26 -50q0 -27 33 -109l202 -489l179 436q49 119 49 154q0 43 -29 57t-117 18v41h369v-41q-80 -10 -119 -55t-100 -199l-242 -593h-61 l-262 618l-263 -618h-61l-295 663q-51 115 -82.5 144.5t-113.5 39.5z" />
<glyph unicode="x" horiz-adv-x="1075" d="M16 0v41q88 8 130 33.5t133 126.5l196 221l-184 242q-76 98 -124 129.5t-136 35.5v41h444v-39l-49 -2q-49 -4 -49 -34q0 -16 59 -97l133 -176l88 103q92 109 93 145q0 33 -25 46t-88 15v39h424v-41q-117 -8 -169 -40.5t-183 -178.5l-111 -123l209 -262 q92 -117 135 -147.5t121 -36.5v-41h-440v39q61 2 82.5 12t21.5 33q0 4 -1 8t-3 8l-4 9q-2 4 -7 11t-11 13l-15 19q-10 12 -18 24l-160 211l-160 -182q-61 -80 -63 -92q0 -33 32.5 -49.5t108.5 -24.5v-39h-410z" />
<glyph unicode="y" horiz-adv-x="989" d="M-31 829v41h443v-41q-129 -2 -129 -61q0 -23 51 -133l221 -475l162 407q55 135 55 176q0 45 -29.5 63.5t-107.5 22.5v41h364v-41q-80 -12 -119.5 -62t-107.5 -220l-285 -713q-86 -217 -127 -278q-49 -68 -110 -68q-37 0 -62.5 21.5t-25.5 54.5q0 59 98 86q61 14 97 58 t83 163l43 106l-303 646q-63 131 -98 166.5t-113 39.5z" />
<glyph unicode="z" horiz-adv-x="892" d="M70 0v41l555 750h-301q-76 0 -91.5 -3.5t-27.5 -21.5q-37 -55 -68 -186h-41l68 350h37q0 -37 19.5 -48.5t84.5 -11.5h524v-39l-557 -751h349q78 0 98 6t47 39q31 41 61 115h39l-90 -240h-706z" />
<glyph unicode="{" horiz-adv-x="663" d="M47 496v30q94 6 135 43q27 25 32 53.5t5 168.5v364q0 203 127 256q35 14 76 18.5t170 4.5h35v-41q-125 -2 -174 -31q-94 -51 -95 -195v-452q0 -166 -155 -201v-6q82 -16 118.5 -71.5t36.5 -164.5v-475q0 -127 59.5 -177t209.5 -50v-41h-31q-199 0 -264 33q-61 31 -87 88 t-26 164v391q0 147 -6 185t-35 65q-35 35 -131 41z" />
<glyph unicode="|" horiz-adv-x="1024" d="M457 -342v1708h110v-1708h-110z" />
<glyph unicode="}" horiz-adv-x="663" d="M35 -430q150 0 209 50t59 177v475q0 109 37 164.5t119 71.5v6q-156 35 -156 201v452q0 158 -110 203q-51 20 -158 23v41l35 -2h82q88 0 132 -11.5t76 -40.5q82 -70 82 -225v-364q0 -139 5.5 -168t31.5 -54q41 -37 137 -43v-30q-96 -8 -133 -41q-29 -29 -35 -68t-6 -184 v-389q0 -106 -25.5 -165t-86.5 -89q-63 -31 -269 -31h-26v41z" />
<glyph unicode="~" horiz-adv-x="1366" d="M252 1274q121 199 283 199q55 0 184 -46q113 -37 164 -36q111 0 200 112l29 -18q-49 -88 -127 -142.5t-151 -54.5q-41 0 -191 49q-119 37 -176 37q-53 0 -88 -22.5t-98 -96.5z" />
<glyph unicode="&#xa1;" horiz-adv-x="571" d="M172 790.5q0 45.5 33 74t80 28.5q51 0 82.5 -28.5t31.5 -76.5q0 -45 -31.5 -73.5t-82.5 -28.5q-49 0 -81 29.5t-32 75zM180 -461q0 6 2 37l86 963h35l82 -963q0 -14 1 -22.5t2 -11.5t1 -5q0 -23 -10 -29t-45 -6h-98q-35 0 -45.5 7t-10.5 30z" />
<glyph unicode="&#xa2;" d="M174 399q0 205 148.5 350.5t355.5 145.5q31 0 70 -6l114 282h43l-117 -290q137 -33 138 -111q0 -29 -19.5 -47t-50.5 -18q-20 0 -29.5 2t-27 14t-47.5 43l-7 6l-266 -664q68 -43 152 -43q82 0 142.5 37t125.5 123l33 -20q-139 -229 -379 -230q-61 0 -121 19l-143 -361 h-45l149 375q-98 47 -158.5 155.5t-60.5 237.5zM322 449q0 -199 122 -316l269 666q-47 41 -107 41q-115 0 -199.5 -115.5t-84.5 -275.5z" />
<glyph unicode="&#xa3;" d="M-41 -6q0 92 188 194q27 57 115 306h-260l10 53h271q98 262 156.5 388t125.5 222q166 233 348 234q72 0 129.5 -38t57.5 -85q0 -29 -23.5 -48.5t-56.5 -19.5q-31 0 -50.5 14.5t-54.5 63.5q-23 35 -63 35q-70 0 -119 -70q-41 -55 -117 -246q-156 -381 -192 -450h289 l-11 -53h-305q-74 -147 -157 -281q90 33 157 33q63 0 117.5 -28t163.5 -116q84 -66 123 -65q43 0 78.5 36t35.5 77q0 35 -30 65q-35 37 -35 67.5t21.5 52t50.5 21.5q39 0 63.5 -35.5t24.5 -91.5q0 -109 -92.5 -195.5t-208.5 -86.5q-51 0 -101.5 29.5t-128.5 105.5 q-90 88 -157 88q-53 0 -123 -29q-90 -195 -189 -194q-51 0 -51 47z" />
<glyph unicode="&#xa4;" d="M92 266l135 135q-98 121 -98 269q0 150 98 266l-135 135l43 45l137 -137q117 100 267 100q152 0 266 -100l137 137l43 -45l-135 -135q98 -117 98 -266q0 -145 -98 -269l135 -135l-43 -43l-135 135q-119 -98 -268 -98q-145 0 -269 98l-135 -135zM244 670q0 -121 86 -208 t205 -87q125 0 212 86t87 207q0 123 -86 210t-209 87q-121 0 -208 -87t-87 -208z" />
<glyph unicode="&#xa5;" d="M-45 1325v41h440v-41l-12 -2q-96 -2 -96 -31q0 -8 47 -114l49 -111h336l37 90q41 102 41 121q0 47 -88 47h-13v41h371v-41q-88 -10 -141.5 -55t-91.5 -140l-27 -63h184v-53h-205l-84 -207h289v-53h-309l-76 -191v-332q0 -92 4 -113.5t23 -41.5q31 -35 115 -35h22v-41 h-483v41h32q84 0 115 35q18 20 22.5 41.5t4.5 113.5v314l-96 209h-334v53h309l-94 207h-215v53h190l-47 102q-69 154 -219 156zM406 1014l157 -350l135 350h-292z" />
<glyph unicode="&#xa6;" horiz-adv-x="1024" d="M457 313h110v-655h-110v655zM457 680v686h110v-686h-110z" />
<glyph unicode="&#xa7;" d="M141 899q0 225 146.5 389t347.5 164q102 0 191 -46t89 -99q0 -29 -23.5 -49.5t-55.5 -20.5q-27 0 -46.5 12.5t-66.5 59.5q-78 78 -154 77q-84 0 -142 -52t-58 -126q0 -49 44 -129t165 -245q246 -344 305 -494q59 -143 59 -301q0 -176 -102 -309q-76 -100 -182.5 -157.5 t-217.5 -57.5q-104 0 -187 43t-83 96q0 29 21.5 49.5t50.5 20.5q25 0 43 -11.5t55 -50.5q76 -86 172 -86q78 0 140.5 53.5t62.5 118.5q0 59 -35 121.5t-182 269.5q-205 289 -281 449.5t-76 310.5zM223 915q0 -182 144 -421q53 -86 227 -340q174 -252 190 -379q72 106 72 243 q0 117 -27 205q-27 92 -71.5 173t-169.5 263q-172 250 -223.5 343.5t-69.5 185.5q-72 -113 -72 -273z" />
<glyph unicode="&#xa8;" horiz-adv-x="1024" d="M201 1231q0 39 28.5 67.5t69.5 28.5t68.5 -28.5t27.5 -67.5t-28.5 -68.5t-67.5 -29.5q-41 0 -69.5 28.5t-28.5 69.5zM627 1231q0 39 28.5 67.5t67.5 28.5q41 0 69.5 -27.5t28.5 -68.5q0 -39 -28.5 -68.5t-67.5 -29.5q-41 0 -69.5 28.5t-28.5 69.5z" />
<glyph unicode="&#xa9;" horiz-adv-x="1675" d="M117 682q0 297 212 508t511 211q301 0 511 -211t210 -512q0 -297 -214 -505t-520 -208q-291 0 -500.5 212t-209.5 505zM188 682q0 -266 189.5 -460.5t449.5 -194.5q276 0 469 189.5t193 461.5q0 274 -189.5 467.5t-460 193.5t-461 -192.5t-190.5 -464.5zM449 676 q0 158 114.5 261t292.5 103q100 0 199 -34q23 -8 37 -9q6 0 18 7h20l13 -164h-29q-27 76 -96.5 122t-157.5 46q-133 0 -216 -86t-83 -224q0 -141 90 -237t223 -96q176 0 271 155h29q-18 -74 -76 -168q-10 4 -24.5 4t-96.5 -16q-72 -14 -135 -14q-170 0 -281.5 99t-111.5 251 z" />
<glyph unicode="&#xaa;" horiz-adv-x="710" d="M82 637v55h547v-55h-547zM133 944q0 51 36 80t126 51q61 16 117 47v103q0 57 -25 84q-33 33 -70 32q-29 0 -53 -19t-24 -42q0 -4 8 -27l-98 -45q-8 16 -9 25q0 45 72 99t131 54q94 0 145 -69q20 -29 21 -115v-176q0 -86 5 -104.5t28 -18.5q25 0 65 31l10 -27 q-88 -76 -137 -76q-55 0 -67 78q-18 -16 -25 -18l-24 -21q-47 -39 -109 -39q-53 0 -88 32t-35 81zM227 958q0 -31 21.5 -52t54.5 -21q18 0 80 39l29 18v145l-111 -49q-74 -29 -74 -80z" />
<glyph unicode="&#xab;" horiz-adv-x="778" d="M74 481l325 408h39l-211 -408l211 -403h-39zM385 481l256 371h37l-137 -371l137 -364h-37z" />
<glyph unicode="&#xac;" horiz-adv-x="1024" d="M74 463v84h878v-547h-192v463h-686z" />
<glyph unicode="&#xad;" horiz-adv-x="870" d="M72 358v148h716v-148h-716z" />
<glyph unicode="&#xae;" horiz-adv-x="1675" d="M117 682q0 297 212 508t511 211q301 0 511 -211t210 -512q0 -297 -214 -505t-520 -208q-291 0 -500.5 212t-209.5 505zM188 682q0 -266 189.5 -460.5t449.5 -194.5q276 0 469 189.5t193 461.5q0 274 -189.5 467.5t-460 193.5t-461 -192.5t-190.5 -464.5zM446 342v29h25 q51 0 72 20q14 16 14 92v402q0 76 -15.5 93t-82.5 17h-10v29q133 10 266 10q158 0 233 -45q88 -55 88 -151q0 -90 -69 -140q-10 -6 -74 -39q68 -53 178 -161q76 -76 132.5 -107t121.5 -35v-26h-41q-119 0 -174 25.5t-166 131.5q-131 123 -160 142q-29 -4 -69 -4q-33 0 -58 2 v-144q0 -76 15 -92q20 -20 69 -20h31v-29h-326zM657 655q49 -4 54 -4q213 0 213 178.5t-222 178.5q-31 0 -45 -4v-349z" />
<glyph unicode="&#xaf;" horiz-adv-x="1024" d="M207 1180v104h604v-104h-604z" />
<glyph unicode="&#xb0;" horiz-adv-x="573" d="M82 1184q0 84 60.5 143t146.5 59q84 0 143.5 -60t59.5 -144t-59.5 -144.5t-143.5 -60.5q-86 0 -146.5 60.5t-60.5 146.5zM131 1183.5q0 -63.5 46 -109.5t109.5 -46t109.5 45t46 107q0 66 -46 111.5t-111 45.5q-63 0 -108.5 -45t-45.5 -108.5z" />
<glyph unicode="&#xb1;" d="M88 104v68h901v-68h-901zM88 666v67h418v397h67v-397h416v-67h-416v-398h-67v398h-418z" />
<glyph unicode="&#xb2;" horiz-adv-x="692" d="M55 803v26q61 74 248 252q178 176 178 305q0 72 -50 122.5t-121.5 50.5t-129 -48.5t-80.5 -128.5h-28q12 117 88 188.5t186 71.5q109 0 180.5 -67.5t71.5 -167.5q0 -98 -63 -174q-31 -37 -150 -131q-111 -90 -231 -211h303q84 0 105.5 15.5t33.5 86.5h29l-27 -190h-543z " />
<glyph unicode="&#xb3;" horiz-adv-x="692" d="M59 883q0 18 14.5 32.5t32.5 14.5q25 0 82 -45q74 -57 123 -58q76 0 132.5 69t56.5 163q0 76 -41 127t-101 51q-45 0 -94 -37l-18 27q186 129 186 225q0 47 -38 81t-89 34t-100 -35t-78 -92l-31 10q35 88 103.5 140t150.5 52q76 0 128 -43t52 -106q0 -49 -29.5 -90 t-99.5 -90q92 -10 138 -53q70 -63 69 -166q0 -123 -103.5 -216.5t-240.5 -93.5q-84 0 -144.5 30t-60.5 69z" />
<glyph unicode="&#xb4;" horiz-adv-x="1024" d="M301 1073l283 369h243l-493 -369h-33z" />
<glyph unicode="&#xb5;" horiz-adv-x="911" d="M-4 -293q0 37 14 123q57 326 58 739v301h147v-520q0 -98 11.5 -148t41.5 -83q47 -53 127 -53q137 0 250 161v643h146v-630q0 -90 16 -123t61 -33q31 0 64 22v-32l-166 -94q-4 -2 -8 -3q-76 0 -99 134l-6 39q-113 -111 -174 -146t-141 -35q-166 0 -223 183q-2 -27 -2 -62 q0 -86 28 -278q10 -68 11 -99q0 -45 -21.5 -73.5t-56.5 -28.5q-33 0 -55.5 27.5t-22.5 68.5z" />
<glyph unicode="&#xb6;" d="M76 1006q0 113 45 212t121 152q94 63 247 64h555v-41q-109 -6 -136 -48t-27 -188v-1358q0 -145 27.5 -187t135.5 -48v-41h-706v41q109 6 136.5 48t27.5 187v785h-49q-168 0 -272.5 117t-104.5 305zM594 -412h197v1780h-197v-1780z" />
<glyph unicode="&#xb7;" horiz-adv-x="571" d="M176 625q0 45 33 76.5t78 31.5t77.5 -32.5t32.5 -77.5t-32.5 -78t-77.5 -33q-47 0 -79 33t-32 80z" />
<glyph unicode="&#xb8;" horiz-adv-x="1024" d="M371 -272l170 284h32l-69 -118h16q63 0 108.5 -48.5t45.5 -117.5q0 -78 -55.5 -133.5t-133.5 -55.5q-47 0 -94 21l15 30q33 -12 57 -12q47 0 82 34t35 81q0 80 -74 80q-45 0 -135 -45z" />
<glyph unicode="&#xb9;" horiz-adv-x="692" d="M131 1446q43 27 124 96.5t101 99.5h54v-729q0 -57 6 -67t45 -10h71v-33h-344v33h56q51 0 59 9t8 64v617q-80 -66 -164 -105z" />
<glyph unicode="&#xba;" horiz-adv-x="710" d="M61 1112q0 115 84 194.5t209 79.5t209 -79.5t84 -198.5q0 -117 -84 -197t-205 -80q-129 0 -213 80t-84 201zM80 637v55h549v-55h-549zM170 1149q0 -115 59.5 -197t143.5 -82q70 0 118 58.5t48 144.5q0 113 -60.5 194t-142.5 81q-72 0 -119 -56.5t-47 -142.5z" />
<glyph unicode="&#xbb;" horiz-adv-x="778" d="M100 117l138 364l-138 371h39l254 -371l-254 -364h-39zM340 78l211 403l-211 408h41l324 -408l-324 -403h-41z" />
<glyph unicode="&#xbc;" horiz-adv-x="1609" d="M131 1190q43 27 124 96.5t101 99.5h54v-729q0 -59 6 -68t45 -9h71v-33h-344v33h56q51 0 59 9t8 64v617q-80 -66 -164 -105zM373 0l858 1366h86l-858 -1366h-86zM977 238v34l397 568h45v-529h133v-73h-133v-256h-98v256h-344zM1051 311h270v387z" />
<glyph unicode="&#xbd;" horiz-adv-x="1609" d="M131 1190q43 27 124 96.5t101 99.5h54v-729q0 -59 6 -68t45 -9h71v-33h-344v33h56q51 0 59 9t8 64v617q-80 -66 -164 -105zM319 0l857 1366h86l-856 -1366h-87zM971 0v27q53 63 248 254q178 176 178 307q0 72 -50.5 122t-121.5 50q-70 0 -128.5 -49t-80.5 -129h-29 q12 117 88 188.5t187 71.5q109 0 180 -67.5t71 -168.5q0 -98 -63 -174q-31 -37 -150 -133q-109 -88 -231 -211h303q84 0 105.5 15.5t33.5 86.5h29l-27 -190h-542z" />
<glyph unicode="&#xbe;" horiz-adv-x="1609" d="M59 627q0 18 14.5 32.5t32.5 14.5q25 0 82 -45q74 -57 123 -58q76 0 132.5 69t56.5 163q0 76 -41 127t-101 51q-45 0 -94 -37l-18 27q186 129 186 225q0 47 -38 81t-89 34t-100 -35t-78 -92l-31 10q35 88 103.5 140t150.5 52q76 0 128 -43t52 -106q0 -49 -29.5 -90 t-99.5 -90q92 -10 138 -53q70 -63 69 -166q0 -123 -103.5 -216.5t-240.5 -93.5q-84 0 -144.5 30t-60.5 69zM360 0l857 1366h86l-857 -1366h-86zM979 238v34l395 568h45v-529h135v-73h-135v-256h-98v256h-342zM1053 311h268v387z" />
<glyph unicode="&#xbf;" horiz-adv-x="778" d="M88 -119q0 143 69.5 229.5t229.5 143.5q96 35 96 100q0 61 -82 156h50q106 -127 106 -227q0 -68 -37 -110t-127 -75q-119 -43 -168 -80q-84 -61 -84 -168q0 -92 59.5 -143t166.5 -51q37 0 125 12q14 2 45 2q123 0 122 -78q0 -49 -50 -76.5t-140 -27.5q-156 0 -264 102 q-117 109 -117 291zM319 793q0 45 33 74.5t82 29.5t81 -29.5t32 -76.5q0 -43 -33 -73t-80 -30q-49 0 -82 30t-33 75z" />
<glyph unicode="&#xc0;" horiz-adv-x="1488" d="M6 0v41q104 2 144 40t92 177l401 1094l-20 49h190l420 -1114q61 -166 99 -206t141 -40v-41h-605v41h25q125 0 165 15.5t40 60.5q0 25 -33 112l-141 377h-455l-125 -344q-45 -125 -45 -141q0 -61 102 -74q16 -2 111 -6v-41h-506zM295 1786h285l221 -301h-33zM508 702h381 l-195 515z" />
<glyph unicode="&#xc1;" horiz-adv-x="1488" d="M6 0v41q104 2 144 40t92 177l401 1094l-20 49h190l420 -1114q61 -166 99 -206t141 -40v-41h-605v41h25q125 0 165 15.5t40 60.5q0 25 -33 112l-141 377h-455l-125 -344q-45 -125 -45 -141q0 -61 102 -74q16 -2 111 -6v-41h-506zM508 702h381l-195 515zM643 1485l221 301 h285l-473 -301h-33z" />
<glyph unicode="&#xc2;" horiz-adv-x="1488" d="M6 0v41q104 2 144 40t92 177l401 1094l-20 49h190l420 -1114q61 -166 99 -206t141 -40v-41h-605v41h25q125 0 165 15.5t40 60.5q0 25 -33 112l-141 377h-455l-125 -344q-45 -125 -45 -141q0 -61 102 -74q16 -2 111 -6v-41h-506zM373 1483l268 303h170l266 -303h-37 l-311 188l-319 -188h-37zM508 702h381l-195 515z" />
<glyph unicode="&#xc3;" horiz-adv-x="1488" d="M6 0v41q104 2 144 40t92 177l401 1094l-20 49h190l420 -1114q61 -166 99 -206t141 -40v-41h-605v41h25q125 0 165 15.5t40 60.5q0 25 -33 112l-141 377h-455l-125 -344q-45 -125 -45 -141q0 -61 102 -74q16 -2 111 -6v-41h-506zM360 1468q6 121 65.5 196t152.5 75 q45 0 82.5 -13.5t191.5 -80.5q76 -35 119 -35q49 0 81.5 34.5t39.5 94.5h30q0 -111 -45 -176q-70 -96 -170 -97q-59 0 -196 66q-137 63 -193 63q-51 0 -84 -33.5t-39 -93.5h-35zM508 702h381l-195 515z" />
<glyph unicode="&#xc4;" horiz-adv-x="1488" d="M6 0v41q104 2 144 40t92 177l401 1094l-20 49h190l420 -1114q61 -166 99 -206t141 -40v-41h-605v41h25q125 0 165 15.5t40 60.5q0 25 -33 112l-141 377h-455l-125 -344q-45 -125 -45 -141q0 -61 102 -74q16 -2 111 -6v-41h-506zM358 1608q0 45 33 76.5t78 31.5 q47 0 79 -32.5t32 -77.5t-32 -78t-79 -33t-79 33t-32 80zM508 702h381l-195 515zM901 1608q0 45 33 76.5t78 31.5t77.5 -32.5t32.5 -77.5t-32.5 -78t-77.5 -33q-47 0 -79 33t-32 80z" />
<glyph unicode="&#xc5;" horiz-adv-x="1488" d="M6 0v41q104 2 143 39t93 178l409 1102q-125 61 -125 194q0 88 62.5 150.5t150.5 62.5t150.5 -62.5t62.5 -150.5q0 -133 -123 -194l404 -1073q61 -166 99 -206t141 -40v-41h-605v41h25q125 0 165 15.5t40 60.5q0 25 -33 112l-141 377h-455l-125 -344q-45 -125 -45 -141 q0 -61 102 -74q16 -2 111 -6v-41h-506zM508 702h381l-195 515zM584 1554.5q0 -63.5 46 -109.5t107 -46q66 0 112 45t46 110q0 63 -46 109.5t-109.5 46.5t-109.5 -46t-46 -109.5z" />
<glyph unicode="&#xc6;" horiz-adv-x="1921" d="M-115 0v43q86 6 133.5 44t122.5 163l529 870q70 113 69 142q0 39 -34 53q-25 10 -91 10h-14v41h1120l19 -305h-39l-10 41q-31 127 -68 162q-16 16 -32.5 19t-88.5 3h-401v-538h303q113 0 142.5 25.5t49.5 139.5h39v-419h-39q-12 90 -32 127q-16 31 -44 39t-112 8h-307 v-422q0 -115 28 -144q27 -23 119 -22h242q102 0 142 12t73 58q55 74 80 178h39l-29 -328h-1159v43h106q104 0 144 45q23 25 28 51.5t5 139.5v264h-484l-190 -310q-55 -90 -56 -118q0 -35 38 -51.5t130 -20.5v-43h-471zM481 623h437v688h-21z" />
<glyph unicode="&#xc7;" horiz-adv-x="1601" d="M117 666q0 322 222 528.5t566 206.5q195 0 389 -72q55 -18 76 -18q16 0 37 12h35l18 -315h-41q-55 154 -193.5 247t-307.5 93q-119 0 -233 -45.5t-191 -122.5q-172 -172 -172 -467q0 -291 180 -489.5t444 -198.5q231 0 397 145q72 63 136 174h43q-16 -61 -60.5 -161.5 t-81.5 -159.5q-20 4 -45 4q-37 0 -190 -33q-129 -29 -275 -29l-61 -84h22q88 0 147.5 -52t59.5 -130q0 -86 -73.5 -147.5t-176.5 -61.5q-66 0 -126 21l18 34q47 -10 78 -10q63 0 109 36t46 87q0 41 -25.5 64.5t-72.5 23.5q-66 0 -182 -47l192 268q-238 18 -397 123 q-152 98 -231.5 247t-79.5 329z" />
<glyph unicode="&#xc8;" horiz-adv-x="1290" d="M-8 0v43h53q125 0 172 35q29 23 36 56.5t7 141.5v814q0 102 -5 137t-26 55q-41 43 -145 43h-47v41h1055l18 -305h-41q-14 115 -55 182q-20 35 -51 43t-138 8h-383v-546h316q100 0 128.5 7t45.5 36q23 39 33 122h41v-419h-41q-8 84 -35 127q-18 33 -47 40t-131 7h-310 v-400q0 -129 21 -157q16 -20 41.5 -25.5t103.5 -5.5h221q119 0 164 11t76 46q57 68 86 191h41l-35 -328h-1169zM264 1786h285l221 -301h-33z" />
<glyph unicode="&#xc9;" horiz-adv-x="1290" d="M-8 0v43h53q125 0 172 35q29 23 36 56.5t7 141.5v814q0 102 -5 137t-26 55q-41 43 -145 43h-47v41h1055l18 -305h-41q-14 115 -55 182q-20 35 -51 43t-138 8h-383v-546h316q100 0 128.5 7t45.5 36q23 39 33 122h41v-419h-41q-8 84 -35 127q-18 33 -47 40t-131 7h-310 v-400q0 -129 21 -157q16 -20 41.5 -25.5t103.5 -5.5h221q119 0 164 11t76 46q57 68 86 191h41l-35 -328h-1169zM543 1485l221 301h285l-474 -301h-32z" />
<glyph unicode="&#xca;" horiz-adv-x="1290" d="M-8 0v43h53q125 0 172 35q29 23 36 56.5t7 141.5v814q0 102 -5 137t-26 55q-41 43 -145 43h-47v41h1055l18 -305h-41q-14 115 -55 182q-20 35 -51 43t-138 8h-383v-546h316q100 0 128.5 7t45.5 36q23 39 33 122h41v-419h-41q-8 84 -35 127q-18 33 -47 40t-131 7h-310 v-400q0 -129 21 -157q16 -20 41.5 -25.5t103.5 -5.5h221q119 0 164 11t76 46q57 68 86 191h41l-35 -328h-1169zM272 1483l269 303h170l266 -303h-37l-311 188l-320 -188h-37z" />
<glyph unicode="&#xcb;" horiz-adv-x="1290" d="M-8 0v43h53q125 0 172 35q29 23 36 56.5t7 141.5v814q0 102 -5 137t-26 55q-41 43 -145 43h-47v41h1055l18 -305h-41q-14 115 -55 182q-20 35 -51 43t-138 8h-383v-546h316q100 0 128.5 7t45.5 36q23 39 33 122h41v-419h-41q-8 84 -35 127q-18 33 -47 40t-131 7h-310 v-400q0 -129 21 -157q16 -20 41.5 -25.5t103.5 -5.5h221q119 0 164 11t76 46q57 68 86 191h41l-35 -328h-1169zM236 1608q0 45 32.5 76.5t77.5 31.5q47 0 79 -32.5t32 -77.5t-32 -78t-79 -33t-78.5 33t-31.5 80zM778 1608q0 45 33 76.5t78 31.5t77.5 -32.5t32.5 -77.5 t-32.5 -78t-77.5 -33q-47 0 -79 33t-32 80z" />
<glyph unicode="&#xcc;" horiz-adv-x="702" d="M37 1786h285l221 -301h-33zM96 0v41q109 6 136.5 48t27.5 187v814q0 145 -27.5 187t-136.5 48v41h533v-41h-11q-102 0 -143 -43q-20 -23 -26.5 -57.5t-6.5 -134.5v-814q0 -115 5.5 -141t27.5 -51q41 -43 143 -43h11v-41h-533z" />
<glyph unicode="&#xcd;" horiz-adv-x="702" d="M96 0v41q109 6 136.5 48t27.5 187v814q0 145 -27.5 187t-136.5 48v41h533v-41h-11q-102 0 -143 -43q-20 -23 -26.5 -57.5t-6.5 -134.5v-814q0 -115 5.5 -141t27.5 -51q41 -43 143 -43h11v-41h-533zM168 1485l221 301h285l-473 -301h-33z" />
<glyph unicode="&#xce;" horiz-adv-x="700" d="M-8 1483l268 303h170l266 -303h-37l-311 188l-319 -188h-37zM96 0v41q109 6 136.5 48t27.5 187v814q0 145 -27.5 187t-136.5 48v41h533v-41h-11q-102 0 -143 -43q-20 -23 -26.5 -57.5t-6.5 -134.5v-814q0 -115 5.5 -141t27.5 -51q41 -43 143 -43h11v-41h-533z" />
<glyph unicode="&#xcf;" horiz-adv-x="702" d="M72 1608q0 45 32.5 76.5t77.5 31.5q47 0 79 -32.5t32 -77.5t-32 -78t-79 -33t-78.5 33t-31.5 80zM96 0v41q109 6 136.5 48t27.5 187v814q0 145 -27.5 187t-136.5 48v41h533v-41h-11q-102 0 -143 -43q-20 -23 -26.5 -57.5t-6.5 -134.5v-814q0 -115 5.5 -141t27.5 -51 q41 -43 143 -43h11v-41h-533zM410 1608q0 45 32.5 76.5t77.5 31.5t78 -32.5t33 -77.5t-33 -78t-78 -33q-47 0 -78.5 33t-31.5 80z" />
<glyph unicode="&#xd0;" horiz-adv-x="1681" d="M47 0v41h35q102 0 143 43q23 25 28 51.5t5 140.5v406h-190v41h190v369q0 98 -6 135t-27 59q-37 39 -162 39h-16v41q565 20 668 20q207 0 345 -34.5t251 -114.5q123 -88 188.5 -219t65.5 -289q0 -201 -105.5 -371t-292.5 -266q-143 -74 -344 -88q-82 -4 -229 -4h-547z M440 195q0 -68 4.5 -88.5t18.5 -34.5q25 -31 141 -31q213 0 319.5 27.5t202.5 107.5q233 197 234 518q0 248 -128 415t-347 208q-135 25 -316 24q-39 0 -129 -4v-614h385v-41h-385v-487z" />
<glyph unicode="&#xd1;" horiz-adv-x="1814" d="M72 0v41q100 0 147 33q37 27 39 88q2 14 2 117v991q-68 51 -184 55v41h346l1034 -1079v805q0 117 -10 153.5t-49 57.5q-31 16 -156 22v41h514v-41q-141 -6 -168 -29q-23 -18 -27 -39.5t-4 -130.5v-1140h-57l-1139 1190v-887q0 -162 27 -199q20 -27 49 -35t131 -12l15 -2 v-41h-510zM532 1460q6 121 65.5 196t152.5 75q45 0 82.5 -13.5t191.5 -81.5q76 -35 119 -34q49 0 81.5 34.5t39.5 94.5h30q0 -111 -45 -177q-70 -96 -170 -96q-59 0 -196 66q-137 63 -193 63q-51 0 -84 -33.5t-39 -93.5h-35z" />
<glyph unicode="&#xd2;" horiz-adv-x="1806" d="M115 672q0 145 65.5 288.5t177.5 239.5q227 201 555 201q301 0 527 -174q252 -197 252 -512.5t-226.5 -532.5t-556.5 -217q-266 0 -485 139q-309 197 -309 568zM322 723q0 -305 178 -506t448 -201q264 0 412 211q127 180 127 424q0 303 -180.5 501t-454.5 198 q-207 0 -348 -144q-182 -188 -182 -483zM590 1786h284l222 -301h-33z" />
<glyph unicode="&#xd3;" horiz-adv-x="1806" d="M115 672q0 145 65.5 288.5t177.5 239.5q227 201 555 201q301 0 527 -174q252 -197 252 -512.5t-226.5 -532.5t-556.5 -217q-266 0 -485 139q-309 197 -309 568zM322 723q0 -305 178 -506t448 -201q264 0 412 211q127 180 127 424q0 303 -180.5 501t-454.5 198 q-207 0 -348 -144q-182 -188 -182 -483zM719 1485l221 301h285l-473 -301h-33z" />
<glyph unicode="&#xd4;" horiz-adv-x="1806" d="M115 672q0 145 65.5 288.5t177.5 239.5q227 201 555 201q301 0 527 -174q252 -197 252 -512.5t-226.5 -532.5t-556.5 -217q-266 0 -485 139q-309 197 -309 568zM322 723q0 -305 178 -506t448 -201q264 0 412 211q127 180 127 424q0 303 -180.5 501t-454.5 198 q-207 0 -348 -144q-182 -188 -182 -483zM545 1483l268 303h170l266 -303h-37l-311 188l-319 -188h-37z" />
<glyph unicode="&#xd5;" horiz-adv-x="1806" d="M115 672q0 145 65.5 288.5t177.5 239.5q227 201 555 201q301 0 527 -174q252 -197 252 -512.5t-226.5 -532.5t-556.5 -217q-266 0 -485 139q-309 197 -309 568zM322 723q0 -305 178 -506t448 -201q264 0 412 211q127 180 127 424q0 303 -180.5 501t-454.5 198 q-207 0 -348 -144q-182 -188 -182 -483zM520 1468q6 121 65.5 196t151.5 75q45 0 83 -13.5t192 -80.5q76 -35 118 -35q49 0 82 34.5t39 94.5h31q0 -111 -45 -176q-70 -96 -170 -97q-59 0 -197 66q-137 63 -192 63q-51 0 -84 -33.5t-39 -93.5h-35z" />
<glyph unicode="&#xd6;" horiz-adv-x="1806" d="M115 672q0 145 65.5 288.5t177.5 239.5q227 201 555 201q301 0 527 -174q252 -197 252 -512.5t-226.5 -532.5t-556.5 -217q-266 0 -485 139q-309 197 -309 568zM322 723q0 -305 178 -506t448 -201q264 0 412 211q127 180 127 424q0 303 -180.5 501t-454.5 198 q-207 0 -348 -144q-182 -188 -182 -483zM522 1608q0 45 33 76.5t78 31.5q47 0 78.5 -32.5t31.5 -77.5t-31.5 -78t-78.5 -33t-79 33t-32 80zM1065 1608q0 45 32.5 76.5t78 31.5t78 -32.5t32.5 -77.5t-32.5 -78t-77.5 -33q-47 0 -79 33t-32 80z" />
<glyph unicode="&#xd7;" d="M172 379l320 319l-320 320l47 47l320 -320l319 320l47 -47l-319 -320l319 -319l-47 -47l-319 319l-320 -319z" />
<glyph unicode="&#xd8;" horiz-adv-x="1806" d="M117 664q0 313 228 525t568 212q260 0 476 -137l172 196l32 -28l-168 -193q266 -205 267 -524q0 -317 -226.5 -533.5t-558.5 -216.5q-256 0 -477 135l-209 -239l-33 26l207 236q-133 92 -205.5 233.5t-72.5 307.5zM324 715q0 -289 165 -482l809 926q-178 190 -446 191 q-205 0 -346 -144q-182 -188 -182 -491zM518 201q186 -184 426 -185q268 0 416 211q127 180 127 422q0 281 -160 477z" />
<glyph unicode="&#xd9;" horiz-adv-x="1763" d="M51 1327v39h565v-41h-18q-102 0 -143 -43q-23 -25 -28 -51.5t-5 -140.5v-437q0 -166 12 -229q35 -164 163 -254t327 -90q307 0 434 199q51 82 63 192q2 25 2 168v387q0 129 -10 180t-43 78q-41 35 -162 41v41h516v-41q-109 -6 -153 -49q-31 -31 -39 -71t-8 -169v-393 q0 -188 -15 -256q-43 -201 -235 -326q-156 -96 -397 -96q-371 0 -543 234q-57 78 -75.5 161.5t-18.5 260.5v471q0 162 -29 197.5t-160 37.5zM514 1786h285l221 -301h-33z" />
<glyph unicode="&#xda;" horiz-adv-x="1763" d="M51 1327v39h565v-41h-18q-102 0 -143 -43q-23 -25 -28 -51.5t-5 -140.5v-437q0 -166 12 -229q35 -164 163 -254t327 -90q307 0 434 199q51 82 63 192q2 25 2 168v387q0 129 -10 180t-43 78q-41 35 -162 41v41h516v-41q-109 -6 -153 -49q-31 -31 -39 -71t-8 -169v-393 q0 -188 -15 -256q-43 -201 -235 -326q-156 -96 -397 -96q-371 0 -543 234q-57 78 -75.5 161.5t-18.5 260.5v471q0 162 -29 197.5t-160 37.5zM793 1485l221 301h284l-473 -301h-32z" />
<glyph unicode="&#xdb;" horiz-adv-x="1763" d="M51 1327v39h565v-41h-18q-102 0 -143 -43q-23 -25 -28 -51.5t-5 -140.5v-437q0 -166 12 -229q35 -164 163 -254t327 -90q307 0 434 199q51 82 63 192q2 25 2 168v387q0 129 -10 180t-43 78q-41 35 -162 41v41h516v-41q-109 -6 -153 -49q-31 -31 -39 -71t-8 -169v-393 q0 -188 -15 -256q-43 -201 -235 -326q-156 -96 -397 -96q-371 0 -543 234q-57 78 -75.5 161.5t-18.5 260.5v471q0 162 -29 197.5t-160 37.5zM549 1483l268 303h170l266 -303h-36l-312 188l-319 -188h-37z" />
<glyph unicode="&#xdc;" horiz-adv-x="1763" d="M51 1327v39h565v-41h-18q-102 0 -143 -43q-23 -25 -28 -51.5t-5 -140.5v-437q0 -166 12 -229q35 -164 163 -254t327 -90q307 0 434 199q51 82 63 192q2 25 2 168v387q0 129 -10 180t-43 78q-41 35 -162 41v41h516v-41q-109 -6 -153 -49q-31 -31 -39 -71t-8 -169v-393 q0 -188 -15 -256q-43 -201 -235 -326q-156 -96 -397 -96q-371 0 -543 234q-57 78 -75.5 161.5t-18.5 260.5v471q0 162 -29 197.5t-160 37.5zM506 1608q0 45 32.5 76.5t77.5 31.5q47 0 79 -32.5t32 -77.5t-31.5 -78t-79 -33t-79 33t-31.5 80zM1049 1608q0 45 32.5 76.5 t77.5 31.5t78 -32.5t33 -77.5t-33 -78t-78 -33q-47 0 -78.5 33t-31.5 80z" />
<glyph unicode="&#xdd;" horiz-adv-x="1501" d="M-31 1323v43h586v-43q-156 0 -156 -53q0 -33 70 -142l317 -489l277 465q68 115 67 147q0 39 -30.5 55.5t-100.5 16.5h-14v43h498v-43q-113 -8 -175.5 -57t-148.5 -195l-317 -536v-259q0 -115 5 -141t27 -51q39 -43 144 -43h29v-41h-605v41h41q102 0 144 43 q23 25 27.5 51.5t4.5 140.5v234l-389 608q-86 133 -138 168t-163 37zM676 1485l221 301h285l-473 -301h-33z" />
<glyph unicode="&#xde;" horiz-adv-x="1239" d="M47 1325v41h596v-41h-25q-96 0 -136 -35t-40 -123v-73q86 18 176 18q256 0 399.5 -102.5t143.5 -284.5q0 -193 -144.5 -306.5t-389.5 -113.5q-84 0 -185 17v-46q0 -135 21 -174q35 -61 155 -61h74v-41h-610v41l31 2q68 4 93 11t38 28q12 18 14 40.5t2 139.5v879 q0 90 -3 113.5t-19 41.5q-16 20 -37 24.5t-101 4.5h-53zM442 365q76 -16 125 -17q172 0 280.5 106.5t108.5 276.5q0 88 -30.5 162t-83.5 115q-86 66 -264 65q-61 0 -136 -10v-698z" />
<glyph unicode="&#xdf;" horiz-adv-x="1122" d="M41 0v41q106 6 124.5 35.5t18.5 197.5v533q0 209 11.5 295t48.5 155q117 219 354 220q156 0 263.5 -94.5t107.5 -231.5q0 -115 -84 -207t-234 -143q135 -20 234 -99q156 -123 155 -313q0 -203 -145 -326q-106 -90 -223 -90q-45 0 -73 19.5t-28 52.5q0 25 15.5 42t36.5 17 q16 0 39 -12q74 -37 94 -37q51 0 86 87t35 216q0 150 -46.5 252.5t-130.5 139.5q-68 29 -165 28q-12 0 -21 -2v35q145 14 227 98t82 221q0 131 -68.5 213t-179.5 82q-164 0 -223 -174q-16 -47 -19 -100t-3 -246v-631q0 -125 2 -148.5t16 -43.5q27 -41 115 -41h10v-41h-432z " />
<glyph unicode="&#xe0;" horiz-adv-x="847" d="M2 1442h244l282 -369h-32zM63 154q0 82 57.5 129t201.5 86q113 31 196 84v174q0 61 -8 89.5t-35 57.5q-51 55 -119 55q-49 0 -92 -34.5t-43 -73.5q0 -14 12 -39l-149 -74q-8 23 -8 33q0 61 100 145q127 106 225 107q66 0 130.5 -32t99.5 -83q23 -31 28 -59.5t5 -130.5 v-293q0 -154 8 -178q12 -37 51 -37q43 0 106 47l11 -31q-137 -123 -217 -123q-94 0 -101 133q-23 -12 -51 -36q-68 -57 -111 -77t-102 -20q-86 0 -140.5 50.5t-54.5 130.5zM205 180q0 -53 38 -91t91 -38q27 0 50.5 11.5t84.5 54.5q12 10 49 30v263q-47 -27 -190 -86 q-123 -52 -123 -144z" />
<glyph unicode="&#xe1;" horiz-adv-x="847" d="M63 154q0 82 57.5 129t201.5 86q113 31 196 84v174q0 61 -8 89.5t-35 57.5q-51 55 -119 55q-49 0 -92 -34.5t-43 -73.5q0 -14 12 -39l-149 -74q-8 23 -8 33q0 61 100 145q127 106 225 107q66 0 130.5 -32t99.5 -83q23 -31 28 -59.5t5 -130.5v-293q0 -154 8 -178 q12 -37 51 -37q43 0 106 47l11 -31q-137 -123 -217 -123q-94 0 -101 133q-23 -12 -51 -36q-68 -57 -111 -77t-102 -20q-86 0 -140.5 50.5t-54.5 130.5zM205 180q0 -53 38 -91t91 -38q27 0 50.5 11.5t84.5 54.5q12 10 49 30v263q-47 -27 -190 -86q-123 -52 -123 -144z M295 1073l283 369h243l-493 -369h-33z" />
<glyph unicode="&#xe2;" horiz-adv-x="847" d="M63 154q0 82 57.5 129t201.5 86q113 31 196 84v174q0 61 -8 89.5t-35 57.5q-51 55 -119 55q-49 0 -92 -34.5t-43 -73.5q0 -14 12 -39l-149 -74q-8 23 -8 33q0 61 100 145q127 106 225 107q66 0 130.5 -32t99.5 -83q23 -31 28 -59.5t5 -130.5v-293q0 -154 8 -178 q12 -37 51 -37q43 0 106 47l11 -31q-137 -123 -217 -123q-94 0 -101 133q-23 -12 -51 -36q-68 -57 -111 -77t-102 -20q-86 0 -140.5 50.5t-54.5 130.5zM117 1049v36l237 396h64l231 -396v-36l-272 274zM205 180q0 -53 38 -91t91 -38q27 0 50.5 11.5t84.5 54.5q12 10 49 30 v263q-47 -27 -190 -86q-123 -52 -123 -144z" />
<glyph unicode="&#xe3;" horiz-adv-x="847" d="M63 154q0 82 57.5 129t201.5 86q113 31 196 84v174q0 61 -8 89.5t-35 57.5q-51 55 -119 55q-49 0 -92 -34.5t-43 -73.5q0 -14 12 -39l-149 -74q-8 23 -8 33q0 61 100 145q127 106 225 107q66 0 130.5 -32t99.5 -83q23 -31 28 -59.5t5 -130.5v-293q0 -154 8 -178 q12 -37 51 -37q43 0 106 47l11 -31q-137 -123 -217 -123q-94 0 -101 133q-23 -12 -51 -36q-68 -57 -111 -77t-102 -20q-86 0 -140.5 50.5t-54.5 130.5zM94 1102q6 121 39 170q51 80 139 80q37 0 68 -13.5t98 -62.5q86 -61 125 -62q45 0 68.5 32t30.5 104h24v-21 q0 -98 -48 -161.5t-122 -63.5q-35 0 -64.5 12t-93.5 58q-96 66 -131 65q-92 0 -108 -137h-25zM205 180q0 -53 38 -91t91 -38q27 0 50.5 11.5t84.5 54.5q12 10 49 30v263q-47 -27 -190 -86q-123 -52 -123 -144z" />
<glyph unicode="&#xe4;" horiz-adv-x="847" d="M63 154q0 82 57.5 129t201.5 86q113 31 196 84v174q0 61 -8 89.5t-35 57.5q-51 55 -119 55q-49 0 -92 -34.5t-43 -73.5q0 -14 12 -39l-149 -74q-8 23 -8 33q0 61 100 145q127 106 225 107q66 0 130.5 -32t99.5 -83q23 -31 28 -59.5t5 -130.5v-293q0 -154 8 -178 q12 -37 51 -37q43 0 106 47l11 -31q-137 -123 -217 -123q-94 0 -101 133q-23 -12 -51 -36q-68 -57 -111 -77t-102 -20q-86 0 -140.5 50.5t-54.5 130.5zM115 1231q0 39 28.5 67.5t69.5 28.5t68.5 -28.5t27.5 -67.5t-28.5 -68.5t-67.5 -29.5q-41 0 -69.5 28.5t-28.5 69.5z M205 180q0 -53 38 -91t91 -38q27 0 50.5 11.5t84.5 54.5q12 10 49 30v263q-47 -27 -190 -86q-123 -52 -123 -144zM461 1231q0 39 28.5 67.5t67.5 28.5q41 0 69.5 -28.5t28.5 -69.5q0 -39 -28.5 -67.5t-67.5 -28.5q-41 0 -69.5 28.5t-28.5 69.5z" />
<glyph unicode="&#xe5;" horiz-adv-x="847" d="M63 154q0 82 57.5 129t201.5 86q113 31 196 84v174q0 61 -8 89.5t-35 57.5q-51 55 -119 55q-49 0 -92 -34.5t-43 -73.5q0 -14 12 -39l-149 -74q-8 23 -8 33q0 61 100 145q127 106 225 107q66 0 130.5 -32t99.5 -83q23 -31 28 -59.5t5 -130.5v-293q0 -154 8 -178 q12 -37 51 -37q43 0 106 47l11 -31q-137 -123 -217 -123q-94 0 -101 133q-23 -12 -51 -36q-68 -57 -111 -77t-102 -20q-86 0 -140.5 50.5t-54.5 130.5zM203 1219q0 80 59.5 138t141 58t140 -59.5t58.5 -141t-58.5 -140t-140.5 -58.5q-84 0 -142 59.5t-58 143.5zM205 180 q0 -53 38 -91t91 -38q27 0 50.5 11.5t84.5 54.5q12 10 49 30v263q-47 -27 -190 -86q-123 -52 -123 -144zM254 1217q0 -61 43 -105.5t106 -44.5q59 0 103.5 44t44.5 103q0 61 -44 105.5t-106 44.5q-59 0 -103 -44t-44 -103z" />
<glyph unicode="&#xe6;" horiz-adv-x="1380" d="M82 152q0 100 84 149q51 31 184 64q109 27 205 86v157q0 63 -8 94t-33 60q-53 63 -123 63q-59 0 -102 -34.5t-43 -81.5q0 -10 6 -27q2 -4 2 -8l-145 -66q-8 18 -9 33q0 70 138 172q106 80 190 80q72 0 139.5 -36t104.5 -95q119 133 299 133q106 0 171.5 -48t119.5 -165 q23 -49 51 -76v-39h-615q-2 -29 -2 -59q0 -139 29 -225t106.5 -141.5t167.5 -55.5q76 0 135.5 30.5t127.5 102.5l26 -26q-188 -219 -370 -220q-197 0 -310 189q-66 -84 -158 -136.5t-171 -52.5q-84 0 -140.5 51.5t-56.5 127.5zM227 184q0 -59 36 -96t93 -37q88 0 199 105 v252q-53 -37 -168 -76q-92 -29 -126 -61t-34 -87zM702 608h422q-16 109 -71.5 175.5t-130.5 66.5q-51 0 -99.5 -27.5t-74.5 -74.5q-36 -56 -46 -140z" />
<glyph unicode="&#xe7;" horiz-adv-x="919" d="M80 397q0 205 150.5 351.5t359.5 146.5q98 0 172 -38t74 -87q0 -25 -20.5 -46.5t-45.5 -21.5q-53 0 -127 72q-68 66 -133 66q-111 0 -198 -120t-87 -271q0 -162 90.5 -275t221.5 -113q152 0 270 162l33 -20q-61 -102 -155.5 -164t-197.5 -64q-12 -49 -28 -92 q72 -4 118 -48t46 -107q0 -115 -129 -183q-76 -43 -154 -49v39q162 39 162 137q0 45 -36 73t-101 32q39 72 71 194q-162 45 -180 56q-70 43 -123 154.5t-53 215.5z" />
<glyph unicode="&#xe8;" horiz-adv-x="937" d="M61 1442h244l283 -369h-33zM84 424q0 125 57.5 235.5t155.5 176.5q88 59 215 59q166 0 252 -107q25 -29 63 -112q20 -45 43 -68v-35h-641q-8 -49 -8 -98q0 -168 95.5 -280.5t238.5 -112.5q158 0 279 145l24 -26q-63 -80 -149 -144q-106 -84 -242 -84q-162 0 -272.5 130.5 t-110.5 320.5zM236 614h450q-16 106 -76.5 172t-144.5 66q-82 0 -141 -61.5t-88 -176.5z" />
<glyph unicode="&#xe9;" horiz-adv-x="937" d="M82 424q0 125 57.5 235.5t155.5 176.5q90 59 215 59q166 0 252 -107q25 -29 63 -112q20 -45 43 -68v-35h-641q-8 -49 -8 -98q0 -168 95.5 -280.5t238.5 -112.5q158 0 278 145l25 -26q-63 -80 -149 -144q-106 -84 -242 -84q-162 0 -272.5 130.5t-110.5 320.5zM233 614h451 q-16 106 -76.5 172t-144.5 66q-82 0 -141.5 -61.5t-88.5 -176.5zM367 1073l282 369h244l-494 -369h-32z" />
<glyph unicode="&#xea;" horiz-adv-x="937" d="M82 424q0 125 57.5 235.5t155.5 176.5q90 59 215 59q166 0 252 -107q25 -29 63 -112q20 -45 43 -68v-35h-641q-8 -49 -8 -98q0 -168 95.5 -280.5t238.5 -112.5q158 0 278 145l25 -26q-63 -80 -149 -144q-106 -84 -242 -84q-162 0 -272.5 130.5t-110.5 320.5zM203 1049v36 l237 396h64l231 -396v-36l-272 274zM233 614h451q-16 106 -76.5 172t-144.5 66q-82 0 -141.5 -61.5t-88.5 -176.5z" />
<glyph unicode="&#xeb;" horiz-adv-x="937" d="M82 424q0 125 57.5 235.5t155.5 176.5q90 59 215 59q166 0 252 -107q25 -29 63 -112q20 -45 43 -68v-35h-641q-8 -49 -8 -98q0 -168 95.5 -280.5t238.5 -112.5q158 0 278 145l25 -26q-63 -80 -149 -144q-106 -84 -242 -84q-162 0 -272.5 130.5t-110.5 320.5zM158 1231 q0 39 28.5 67.5t69.5 28.5q39 0 67.5 -28.5t28.5 -67.5t-28.5 -68.5t-67.5 -29.5q-41 0 -69.5 28.5t-28.5 69.5zM233 614h451q-16 106 -76.5 172t-144.5 66q-82 0 -141.5 -61.5t-88.5 -176.5zM584 1231q0 39 28.5 67.5t67.5 28.5q41 0 69.5 -27.5t28.5 -68.5 q0 -39 -28.5 -68.5t-67.5 -29.5q-41 0 -69.5 28.5t-28.5 69.5z" />
<glyph unicode="&#xec;" horiz-adv-x="571" d="M-150 1442h244l283 -369h-33zM37 0v41l18 2q66 6 94.5 16.5t47.5 36.5q23 33 22 160v367q0 86 -14.5 102t-100.5 35l-55 12v35l285 98h31v-649q0 -94 4 -120.5t22 -49.5q33 -37 131 -45v-41h-485z" />
<glyph unicode="&#xed;" horiz-adv-x="571" d="M37 0v41l18 2q66 6 94.5 16.5t47.5 36.5q23 33 22 160v367q0 86 -14.5 102t-100.5 35l-55 12v35l285 98h31v-649q0 -94 4 -120.5t22 -49.5q33 -37 131 -45v-41h-485zM117 1073l282 369h244l-493 -369h-33z" />
<glyph unicode="&#xee;" horiz-adv-x="571" d="M-27 1049v36l238 396h63l232 -396v-36l-273 274zM37 0v41l18 2q66 6 94.5 16.5t47.5 36.5q23 33 22 160v367q0 86 -14.5 102t-100.5 35l-55 12v35l285 98h31v-649q0 -94 4 -120.5t22 -49.5q33 -37 131 -45v-41h-485z" />
<glyph unicode="&#xef;" horiz-adv-x="571" d="M16 1231q0 39 29 67.5t70 28.5t68.5 -28.5t27.5 -67.5t-28.5 -68.5t-67.5 -29.5q-41 0 -70 28.5t-29 69.5zM37 0v41l18 2q66 6 94.5 16.5t47.5 36.5q23 33 22 160v367q0 86 -14.5 102t-100.5 35l-55 12v35l285 98h31v-649q0 -94 4 -120.5t22 -49.5q33 -37 131 -45v-41 h-485zM334 1231q0 39 28.5 67.5t67.5 28.5q41 0 69.5 -27.5t28.5 -68.5q0 -39 -28.5 -68.5t-67.5 -29.5q-41 0 -69.5 28.5t-28.5 69.5z" />
<glyph unicode="&#xf0;" horiz-adv-x="1107" d="M82 438q0 193 125 322q63 63 154.5 101t183.5 38q123 0 231 -74q-55 209 -196 351l-222 -144l-20 33l211 137q-76 74 -195 139l27 48q125 -63 231 -140l219 144l21 -33l-207 -135q381 -293 381 -754q0 -250 -149 -381q-133 -117 -322 -117q-207 0 -340 131t-133 334z M240 508q0 -195 102 -346q41 -63 106.5 -100t135.5 -37q125 0 203.5 97t78.5 249q0 106 -34.5 209.5t-90.5 162.5q-98 104 -219 104.5t-201.5 -97t-80.5 -242.5z" />
<glyph unicode="&#xf1;" horiz-adv-x="1150" d="M57 0v41h9q74 0 112 47q16 23 21.5 54.5t5.5 129.5v289q0 135 -8 154q-10 20 -99 43l-35 8v33l254 94h33v-191q250 178 387 179q127 0 189 -119q41 -76 41 -244q0 -115 -17 -352q-2 -12 -2 -33q0 -53 32 -72.5t116 -19.5h24v-41h-473v41q70 6 99.5 21.5t44.5 52.5 q29 76 28 428q0 119 -35 174q-45 76 -143 76q-63 0 -182 -66q-72 -37 -109 -65v-388q0 -125 3 -148.5t18 -43.5q27 -41 118 -41h9v-41h-441zM293 1135q6 121 39 170q51 80 139 79q37 0 67.5 -13t98.5 -62q88 -61 125 -62q45 0 68.5 32t29.5 103h25v-20q0 -98 -48.5 -161.5 t-121.5 -63.5q-35 0 -64.5 12t-93.5 57q-96 66 -131 66q-92 0 -109 -137h-24z" />
<glyph unicode="&#xf2;" horiz-adv-x="1110" d="M82 438q0 193 136 324t335 131q201 0 338 -133t137 -330q0 -193 -135 -325t-332 -132q-211 0 -352 142q-127 126 -127 323zM229 1442h244l283 -369h-33zM246 500q0 -197 99 -336t241 -139q119 0 198.5 100t79.5 252q0 188 -101 326.5t-239 138.5q-121 0 -199.5 -97.5 t-78.5 -244.5z" />
<glyph unicode="&#xf3;" horiz-adv-x="1110" d="M82 438q0 193 136 324t335 131q201 0 338 -133t137 -330q0 -193 -135 -325t-332 -132q-211 0 -352 142q-127 126 -127 323zM246 500q0 -197 99 -336t241 -139q119 0 198.5 100t79.5 252q0 188 -101 326.5t-239 138.5q-121 0 -199.5 -97.5t-78.5 -244.5zM344 1073l283 369 h243l-493 -369h-33z" />
<glyph unicode="&#xf4;" horiz-adv-x="1110" d="M82 438q0 193 136 324t335 131q201 0 338 -133t137 -330q0 -193 -135 -325t-332 -132q-211 0 -352 142q-127 126 -127 323zM246 500q0 -197 99 -336t241 -139q119 0 198.5 100t79.5 252q0 188 -101 326.5t-239 138.5q-121 0 -199.5 -97.5t-78.5 -244.5zM289 1049v36 l237 396h64l231 -396v-36l-272 274z" />
<glyph unicode="&#xf5;" horiz-adv-x="1110" d="M82 438q0 193 136 324t335 131q201 0 338 -133t137 -330q0 -193 -135 -325t-332 -132q-211 0 -352 142q-127 126 -127 323zM246 500q0 -197 99 -336t241 -139q119 0 198.5 100t79.5 252q0 188 -101 326.5t-239 138.5q-121 0 -199.5 -97.5t-78.5 -244.5zM279 1102 q6 121 38 170q51 80 140 80q37 0 67.5 -13.5t98.5 -62.5q86 -61 125 -62q45 0 68.5 32t29.5 104h24v-21q0 -98 -48 -161.5t-122 -63.5q-35 0 -64.5 12t-92.5 58q-96 66 -131 65q-92 0 -109 -137h-24z" />
<glyph unicode="&#xf6;" horiz-adv-x="1110" d="M82 438q0 193 136 324t335 131q201 0 338 -133t137 -330q0 -193 -135 -325t-332 -132q-211 0 -352 142q-127 126 -127 323zM246 500q0 -197 99 -336t241 -139q119 0 198.5 100t79.5 252q0 188 -101 326.5t-239 138.5q-121 0 -199.5 -97.5t-78.5 -244.5zM279 1231 q0 39 28.5 67.5t69.5 28.5t68.5 -28.5t27.5 -67.5t-28.5 -68.5t-67.5 -29.5q-41 0 -69.5 28.5t-28.5 69.5zM666 1231q0 39 28.5 67.5t67.5 28.5q41 0 69.5 -28.5t28.5 -69.5q0 -39 -28.5 -67.5t-67.5 -28.5q-41 0 -69.5 28.5t-28.5 69.5z" />
<glyph unicode="&#xf7;" d="M88 666v67h901v-67h-901zM459 350q0 33 23.5 55.5t56 22.5t55 -22.5t22.5 -55.5q0 -35 -23.5 -57.5t-56 -22.5t-55 23.5t-22.5 56.5zM461 1048.5q0 32.5 23.5 55t56 22.5t55 -23.5t22.5 -53.5q0 -33 -22.5 -56.5t-55 -23.5t-56 23.5t-23.5 56z" />
<glyph unicode="&#xf8;" horiz-adv-x="1110" d="M82 432q0 199 135 330t338 131q152 0 293 -96l125 145l31 -27l-125 -143q150 -137 149 -340q0 -193 -135 -326t-332 -133q-162 0 -297 97l-149 -172l-31 26l147 170q-149 131 -149 338zM246 498q0 -166 78 -299l440 503q-94 139 -240 140q-121 0 -199.5 -97t-78.5 -247z M346 162q43 -63 108.5 -100t131.5 -37q119 0 198.5 101t79.5 253q0 147 -76 289z" />
<glyph unicode="&#xf9;" horiz-adv-x="1142" d="M47 799v32l283 62v-514q0 -115 5 -153t27 -70q53 -78 166 -78q119 0 263 123v407q0 123 -15 148q-10 18 -27.5 25t-84.5 18l-66 10v31l338 53v-735q0 -70 45 -70q6 0 55 8l47 6v-39l-292 -90v179q-244 -178 -375 -178.5t-199 104.5q-20 33 -26.5 64.5t-6.5 115.5v430 q0 47 -18.5 66.5t-77.5 33.5zM162 1442h244l282 -369h-33z" />
<glyph unicode="&#xfa;" horiz-adv-x="1142" d="M47 799v32l283 62v-514q0 -115 5 -153t27 -70q53 -78 166 -78q119 0 263 123v407q0 123 -15 148q-10 18 -27.5 25t-84.5 18l-66 10v31l338 53v-735q0 -70 45 -70q6 0 55 8l47 6v-39l-292 -90v179q-244 -178 -375 -178.5t-199 104.5q-20 33 -26.5 64.5t-6.5 115.5v430 q0 47 -18.5 66.5t-77.5 33.5zM428 1073l283 369h243l-493 -369h-33z" />
<glyph unicode="&#xfb;" horiz-adv-x="1142" d="M47 799v32l283 62v-514q0 -115 5 -153t27 -70q53 -78 166 -78q119 0 263 123v407q0 123 -15 148q-10 18 -27.5 25t-84.5 18l-66 10v31l338 53v-735q0 -70 45 -70q6 0 55 8l47 6v-39l-292 -90v179q-244 -178 -375 -178.5t-199 104.5q-20 33 -26.5 64.5t-6.5 115.5v430 q0 47 -18.5 66.5t-77.5 33.5zM305 1049v36l238 396h63l232 -396v-36l-273 274z" />
<glyph unicode="&#xfc;" horiz-adv-x="1142" d="M47 799v32l283 62v-514q0 -115 5 -153t27 -70q53 -78 166 -78q119 0 263 123v407q0 123 -15 148q-10 18 -27.5 25t-84.5 18l-66 10v31l338 53v-735q0 -70 45 -70q6 0 55 8l47 6v-39l-292 -90v179q-244 -178 -375 -178.5t-199 104.5q-20 33 -26.5 64.5t-6.5 115.5v430 q0 47 -18.5 66.5t-77.5 33.5zM256 1231q0 39 28.5 67.5t69.5 28.5q39 0 68 -28.5t29 -67.5t-29 -68.5t-68 -29.5q-41 0 -69.5 28.5t-28.5 69.5zM682 1231q0 39 28.5 67.5t67.5 28.5q41 0 70 -27.5t29 -68.5q0 -39 -29 -68.5t-68 -29.5q-41 0 -69.5 28.5t-28.5 69.5z" />
<glyph unicode="&#xfd;" horiz-adv-x="989" d="M-31 829v41h443v-41q-129 -2 -129 -61q0 -23 51 -133l221 -475l162 407q55 135 55 176q0 45 -29.5 63.5t-107.5 22.5v41h364v-41q-80 -12 -119.5 -62t-107.5 -220l-285 -713q-86 -217 -127 -278q-49 -68 -110 -68q-37 0 -62.5 21.5t-25.5 54.5q0 59 98 86q61 14 97 58 t83 163l43 106l-303 646q-63 131 -98 166.5t-113 39.5zM391 1073l283 369h244l-494 -369h-33z" />
<glyph unicode="&#xfe;" d="M14 -471h21q92 0 127 47q23 33 22 191v1370l-2 67q-2 39 -18.5 50.5t-112.5 35.5v43l236 144h43v-750q219 160 342 160q129 0 227 -124t98 -286q0 -199 -139 -345t-328 -146q-80 0 -200 43v-262q0 -111 5 -143t27 -56q39 -39 117 -39h53v-41h-518v41zM330 176 q131 -121 262 -121q113 0 186.5 96.5t73.5 241.5q0 162 -84 274.5t-205 112.5q-106 0 -233 -108v-496z" />
<glyph unicode="&#xff;" horiz-adv-x="989" d="M-31 829v41h443v-41q-129 -2 -129 -61q0 -23 51 -133l221 -475l162 407q55 135 55 176q0 45 -29.5 63.5t-107.5 22.5v41h364v-41q-80 -12 -119.5 -62t-107.5 -220l-285 -713q-86 -217 -127 -278q-49 -68 -110 -68q-37 0 -62.5 21.5t-25.5 54.5q0 59 98 86q61 14 97 58 t83 163l43 106l-303 646q-63 131 -98 166.5t-113 39.5zM211 1231q0 39 28.5 67.5t69.5 28.5q39 0 68 -28.5t29 -67.5t-29 -68.5t-68 -29.5q-41 0 -69.5 28.5t-28.5 69.5zM637 1231q0 39 28.5 67.5t67.5 28.5q41 0 69.5 -27.5t28.5 -68.5q0 -39 -28.5 -68.5t-67.5 -29.5 q-41 0 -69.5 28.5t-28.5 69.5z" />
<glyph unicode="&#x152;" horiz-adv-x="2162" d="M117 672q0 174 75.5 324.5t215.5 252.5q178 129 448 129q33 0 178 -6q98 -6 295 -6h639l17 -299h-41l-13 55q-23 100 -61 140q-25 25 -119 24h-422v-538h324q88 0 113.5 7t41.5 40q20 41 31 120h39v-417h-39q-2 63 -22 112q-16 35 -43 46.5t-101 11.5h-344v-588h375 q125 0 169 12t79 53q47 59 78 179h38l-34 -324h-645l-152 2q-166 0 -272 -8q-139 -8 -158 -8q-289 0 -489.5 199.5t-200.5 486.5zM307 713q0 -332 203 -529q150 -145 338 -145q170 0 250 108q31 41 40 101.5t9 222.5v465q0 164 -6 201q-35 190 -310 190q-246 0 -385 -163.5 t-139 -450.5z" />
<glyph unicode="&#x153;" horiz-adv-x="1607" d="M82 436q0 190 136 323.5t331 133.5q211 0 315 -160q135 160 322 160q219 0 295 -199q25 -63 57 -92v-35h-594q-2 -20 -2 -45q0 -190 87 -322t212 -132q102 0 258 157l23 -24q-88 -106 -188.5 -167t-188.5 -61q-156 0 -256 160q-121 -160 -334 -160q-201 0 -337 133 t-136 330zM246 496q0 -188 98 -329.5t229 -141.5q109 0 172.5 94t63.5 258q0 205 -84 335t-215 130q-111 0 -187.5 -100.5t-76.5 -245.5zM948 608h389q2 106 -50 176t-134 70q-84 0 -137.5 -64.5t-67.5 -181.5z" />
<glyph unicode="&#x178;" horiz-adv-x="1501" d="M-31 1323v43h586v-43q-156 0 -156 -53q0 -33 70 -142l317 -489l277 465q68 115 67 147q0 39 -30.5 55.5t-100.5 16.5h-14v43h498v-43q-113 -8 -175.5 -57t-148.5 -195l-317 -536v-259q0 -115 5 -141t27 -51q39 -43 144 -43h29v-41h-605v41h41q102 0 144 43 q23 25 27.5 51.5t4.5 140.5v234l-389 608q-86 133 -138 168t-163 37zM369 1608q0 45 32.5 76.5t77.5 31.5t78 -32.5t33 -77.5t-33 -78t-78 -33q-47 0 -78.5 33t-31.5 80zM911 1608q0 45 33 76.5t78 31.5q47 0 79 -32.5t32 -77.5t-33 -78t-78 -33q-47 0 -79 33t-32 80z" />
<glyph unicode="&#x2c6;" horiz-adv-x="1024" d="M246 1049v36l237 396h64l231 -396v-36l-272 274z" />
<glyph unicode="&#x2dc;" horiz-adv-x="1024" d="M209 1102q6 121 39 170q51 80 139 80q37 0 67.5 -13.5t98.5 -62.5q86 -61 125 -62q45 0 68.5 32t29.5 104h25v-21q0 -98 -48 -161.5t-122 -63.5q-35 0 -64.5 12t-93.5 58q-96 66 -131 65q-92 0 -109 -137h-24z" />
<glyph unicode="&#x2000;" horiz-adv-x="892" />
<glyph unicode="&#x2001;" horiz-adv-x="1785" />
<glyph unicode="&#x2002;" horiz-adv-x="892" />
<glyph unicode="&#x2003;" horiz-adv-x="1785" />
<glyph unicode="&#x2004;" horiz-adv-x="593" />
<glyph unicode="&#x2005;" horiz-adv-x="446" />
<glyph unicode="&#x2006;" horiz-adv-x="296" />
<glyph unicode="&#x2007;" horiz-adv-x="296" />
<glyph unicode="&#x2008;" horiz-adv-x="223" />
<glyph unicode="&#x2009;" horiz-adv-x="356" />
<glyph unicode="&#x200a;" horiz-adv-x="98" />
<glyph unicode="&#x2010;" horiz-adv-x="870" d="M72 358v148h716v-148h-716z" />
<glyph unicode="&#x2011;" horiz-adv-x="870" d="M72 358v148h716v-148h-716z" />
<glyph unicode="&#x2013;" horiz-adv-x="1097" d="M-12 500v98h1124v-98h-1124z" />
<glyph unicode="&#x2014;" horiz-adv-x="2197" d="M-12 500v98h2222v-98h-2222z" />
<glyph unicode="&#x2018;" horiz-adv-x="571" d="M150 1128q0 100 67.5 190.5t175.5 131.5l15 -41q-168 -96 -168 -217q0 -47 28 -47q8 0 31 4q20 4 29 4q39 0 66.5 -29.5t27.5 -70.5q0 -47 -34 -78t-85 -31q-66 0 -109.5 52t-43.5 132z" />
<glyph unicode="&#x2019;" horiz-adv-x="503" d="M117 1339q0 47 33.5 79t85.5 32q66 0 109.5 -52t43.5 -132q0 -100 -67.5 -190.5t-176.5 -131.5l-14 39q168 100 168 219q0 47 -29 47l-30 -6q-20 -4 -31 -4q-39 0 -65.5 29.5t-26.5 70.5z" />
<glyph unicode="&#x201a;" horiz-adv-x="571" d="M150 72q0 47 33.5 78.5t84.5 31.5q66 0 110 -52t44 -132q0 -100 -67.5 -190.5t-176.5 -133.5l-14 41q168 96 168 219q0 47 -29 48l-31 -7q-20 -4 -30 -4q-39 0 -65.5 30t-26.5 71z" />
<glyph unicode="&#x201c;" horiz-adv-x="1052" d="M160 1128q0 100 67.5 190.5t175.5 131.5l15 -41q-168 -96 -168 -217q0 -47 29 -47q8 0 30 4q20 4 29 4q39 0 66.5 -29.5t27.5 -70.5q0 -47 -33.5 -78t-85.5 -31q-66 0 -109.5 52t-43.5 132zM657 1128q0 100 69 189.5t177 132.5l15 -41q-170 -94 -170 -217q0 -47 28 -47 q8 0 31 4q20 4 31 4q39 0 66.5 -29.5t27.5 -70.5q0 -45 -35 -77t-84 -32q-68 0 -112 52t-44 132z" />
<glyph unicode="&#x201d;" horiz-adv-x="1052" d="M150 1339q0 47 33.5 79t84.5 32q66 0 110 -52t44 -132q0 -100 -67.5 -190.5t-176.5 -131.5l-14 39q168 100 168 219q0 47 -29 47l-31 -6q-20 -4 -30 -4q-39 0 -65.5 29.5t-26.5 70.5zM647 1341q0 45 35 77t84 32q66 0 110 -52t44 -132q0 -100 -68 -190.5t-176 -131.5 l-14 39q168 96 167 219q0 47 -28 47l-31 -6q-20 -4 -31 -4q-39 0 -65.5 29.5t-26.5 72.5z" />
<glyph unicode="&#x201e;" horiz-adv-x="1052" d="M150 72q0 47 33.5 78.5t84.5 31.5q66 0 110 -52t44 -132q0 -100 -67.5 -190.5t-176.5 -133.5l-14 41q168 96 168 219q0 47 -29 48l-31 -7q-20 -4 -30 -4q-39 0 -65.5 30t-26.5 71zM647 74q0 45 35 76.5t84 31.5q66 0 110 -52t44 -132q0 -100 -68 -191.5t-176 -132.5 l-14 41q168 96 167 219q0 47 -28 48l-31 -7q-20 -4 -31 -4q-39 0 -65.5 30t-26.5 73z" />
<glyph unicode="&#x2022;" horiz-adv-x="1366" d="M401 692q0 119 84 202t205 83q113 0 196 -84t83 -199q0 -119 -83 -201.5t-200 -82.5t-201 82.5t-84 199.5z" />
<glyph unicode="&#x2026;" horiz-adv-x="2197" d="M254 80q0 43 32.5 72.5t80.5 29.5q51 0 82.5 -29.5t31.5 -74.5q0 -47 -31.5 -76t-82.5 -29q-49 0 -81 30t-32 77zM985 80q0 43 33 72.5t80 29.5q51 0 82.5 -29.5t31.5 -74.5q0 -47 -31.5 -76t-82.5 -29q-49 0 -81 30t-32 77zM1718 80q0 43 33 72.5t80 29.5q51 0 83 -29.5 t32 -74.5q0 -47 -32 -76t-83 -29q-49 0 -81 30t-32 77z" />
<glyph unicode="&#x202f;" horiz-adv-x="356" />
<glyph unicode="&#x2039;" horiz-adv-x="503" d="M74 481l325 408h39l-211 -408l211 -403h-39z" />
<glyph unicode="&#x203a;" horiz-adv-x="503" d="M66 78l210 403l-210 408h38l326 -408l-326 -403h-38z" />
<glyph unicode="&#x205f;" horiz-adv-x="446" />
<glyph unicode="&#x20ac;" horiz-adv-x="1687" d="M82 600l22 53h97v54h-119l22 53h103q33 285 250 463t532 178q193 0 389 -72q47 -18 76 -18q16 0 37 12h33l20 -315h-41q-55 152 -193.5 246t-308.5 94q-160 0 -298 -76t-209 -203q-78 -135 -86 -309h833l-22 -53h-813q2 -23 2 -54h788l-22 -53h-760q29 -246 206 -410.5 t410 -164.5q348 0 533 319h41q-14 -59 -59.5 -159.5t-82.5 -161.5q-18 4 -43 4q-37 0 -190 -33q-127 -29 -262 -29q-313 0 -528.5 178.5t-235.5 456.5h-121z" />
<glyph unicode="&#x2122;" horiz-adv-x="2138" d="M61 1176l21 210h31q4 -14 15 -17t58 -3h543q45 0 57.5 3t16.5 17h28l21 -210h-29q-18 88 -39 114q-12 16 -22 19.5t-57 3.5h-191v-565q0 -63 3 -79t15 -28q20 -23 80 -23h45v-30h-403v30h49q57 0 78 23q12 14 15 29.5t3 77.5v565h-188q-47 0 -59.5 -4t-26.5 -23 q-18 -31 -33 -110h-31zM954 588v30h13q59 0 77.5 23t22.5 107l29 483q0 8 1 23.5t1 25.5q0 29 -16.5 40t-61.5 15v31h199l305 -621l303 621h194v-31q-55 -4 -69.5 -11t-14.5 -34q0 -10 5 -63l34 -475q8 -100 19.5 -117t77.5 -17h16v-30h-336v30q63 0 88 17.5t25 62.5 q0 25 -4 74l-33 465l-313 -649h-35l-322 649l-31 -481q-2 -29 -2 -64q0 -37 22.5 -54t78.5 -20v-30h-273z" />
</font>
</defs>
</svg>
