<?xml version="1.0" standalone="no"?>
<!DOCTYPE svg PUBLIC "-//W3C//DTD SVG 1.1//EN" "http://www.w3.org/Graphics/SVG/1.1/DTD/svg11.dtd" >
<svg xmlns="http://www.w3.org/2000/svg">
<metadata>
This is a custom SVG webfont generated by Font Squirrel.
Copyright   : Typeface  FontSite Inc 19962009 All Rights Reserved wwwfontsitecom
Designer    : FontSitecom
Foundry URL : httpwwwfontsitecom
</metadata>
<defs>
<font id="webfontaZaICZA3" horiz-adv-x="1097" >
<font-face units-per-em="2048" ascent="1479" descent="-569" />
<missing-glyph horiz-adv-x="512" />
<glyph unicode=" "  horiz-adv-x="512" />
<glyph unicode="&#x09;" horiz-adv-x="512" />
<glyph unicode="&#xa0;" horiz-adv-x="512" />
<glyph unicode="!" horiz-adv-x="686" d="M168 124.5q0 63.5 51 105.5t125 42q76 0 126 -41t50 -104.5t-52 -106.5t-130 -43q-72 0 -121 42t-49 105.5zM176 1354q0 27 13.5 36t48.5 9h204q39 0 52.5 -8.5t13.5 -34.5q0 -20 -4 -45l-123 -817h-76l-125 823q-4 31 -4 37z" />
<glyph unicode="&#x22;" horiz-adv-x="710" d="M88 1270q0 119 113 119q49 0 80.5 -31t31.5 -80q0 -43 -20 -141l-60 -297h-65l-64 297q-16 78 -16 133zM395 1270q0 119 113 119q49 0 81 -31t32 -80q0 -43 -21 -141l-59 -297h-66l-63 297q-17 78 -17 133z" />
<glyph unicode="#" d="M72 449l16 112h193l38 270h-194l16 113h193l59 422h119l-59 -422h272l59 422h121l-59 -422h182l-16 -113h-183l-36 -270h182l-17 -112h-182l-63 -449h-119l61 449h-272l-61 -449h-119l61 449h-192zM399 561h273l39 270h-273z" />
<glyph unicode="$" d="M84 274q0 55 34 91t87 36t85 -35.5t52 -125.5q20 -94 55 -134t101 -53v531q-137 76 -185 108q-193 139 -192 328q0 147 102.5 245.5t274.5 116.5v88h69v-86q150 -6 265.5 -84.5t115.5 -175.5q0 -47 -33.5 -79.5t-78.5 -32.5q-70 0 -109 61q-14 23 -35 92 q-35 111 -125 142v-441q133 -70 174 -94q137 -82 196.5 -171t59.5 -208q0 -166 -120.5 -282.5t-309.5 -133.5v-182h-69v180q-168 8 -291 96t-123 203zM326 1132.5q0 -67.5 40 -121t132 -108.5v408q-72 -8 -122 -59.5t-50 -119zM567 51q88 12 146.5 79t58.5 157q0 80 -48 140 t-157 120v-496z" />
<glyph unicode="%" horiz-adv-x="1738" d="M61 985q0 168 101.5 284.5t245.5 116.5q145 0 243.5 -115.5t98.5 -285.5t-98.5 -284.5t-244 -114.5t-246 115.5t-100.5 283.5zM236 985q0 -184 77 -262q45 -41 93 -41q78 0 126 86t48 227q0 131 -47.5 212t-122.5 81q-80 0 -127 -82t-47 -221zM268 -61l979 1464h156 l-979 -1464h-156zM989 379q0 168 101.5 284.5t244.5 116.5q145 0 243.5 -115.5t98.5 -285.5t-98 -284.5t-243.5 -114.5t-246 115.5t-100.5 283.5zM1163 379q0 -184 78 -262q45 -41 92 -41q78 0 126 86t48 227q0 131 -47 212t-123 81q-80 0 -127 -82t-47 -221z" />
<glyph unicode="&#x26;" horiz-adv-x="1648" d="M125 344q0 125 86 217t270 168q-164 150 -164 289q0 119 101.5 192.5t263.5 73.5q143 0 231 -63.5t88 -167.5q0 -156 -198 -254q78 -53 141.5 -121t161.5 -197q59 84 115.5 195.5t56.5 150.5q0 37 -100 37h-29v82h434v-82h-35q-78 0 -112.5 -22.5t-75.5 -102.5 q-139 -258 -203 -342l62 -106q57 -100 97 -139t87 -39q63 0 125 57l41 -78q-57 -55 -143.5 -90t-168.5 -35q-143 0 -225 99q-29 33 -76 104q-90 -94 -210.5 -149.5t-237.5 -55.5q-164 0 -273.5 108.5t-109.5 270.5zM393 428q0 -119 79 -210t181 -91q117 0 256 127 q-100 184 -336 399l-22 21q-158 -96 -158 -246zM557 1081q0 -59 39 -110q23 -31 106 -101l21 -16l10 8l4 4q80 80 80 181q0 70 -40 111.5t-103 41.5q-53 0 -85 -33t-32 -86z" />
<glyph unicode="'" horiz-adv-x="403" d="M88 1270q0 119 113 119q49 0 80.5 -31t31.5 -80q0 -43 -20 -141l-60 -297h-65l-64 297q-16 78 -16 133z" />
<glyph unicode="(" horiz-adv-x="778" d="M147 487q0 360 252 676q109 141 226 236h92q-158 -190 -229.5 -408.5t-71.5 -517.5q0 -291 70.5 -509t224.5 -398h-93q-174 158 -258 274q-213 291 -213 647z" />
<glyph unicode=")" horiz-adv-x="778" d="M31 1399h92q123 -98 256 -273q223 -297 223 -639q0 -387 -246 -690q-80 -98 -227 -231h-92q154 180 225.5 399t71.5 512q0 295 -72.5 515.5t-230.5 406.5z" />
<glyph unicode="*" d="M55 1008l27 84l348 -31l76 338h82l76 -338l352 31l26 -82l-303 -176l138 -322l-70 -47l-264 233l-258 -233l-74 47l143 322z" />
<glyph unicode="+" d="M113 596v123h376v348h123v-348h375v-123h-375v-348h-123v348h-376z" />
<glyph unicode="," horiz-adv-x="686" d="M139 124.5q0 65.5 47 106.5t125 41q106 0 171 -68.5t65 -183.5q0 -145 -99.5 -243.5t-246.5 -98.5h-15l-18 95q106 8 174 58t68 122q0 35 -33 35q-4 0 -31 -4q-29 -4 -43 -4q-74 0 -119 39.5t-45 105z" />
<glyph unicode="-" horiz-adv-x="915" d="M80 336v219h760v-219h-760z" />
<glyph unicode="." horiz-adv-x="686" d="M166 124.5q0 63.5 51 105.5t125 42q76 0 126 -41t50 -104.5t-52 -106.5t-130 -43q-72 0 -121 42t-49 105.5z" />
<glyph unicode="/" horiz-adv-x="755" d="M12 -528l492 2017h192l-491 -2017h-193z" />
<glyph unicode="0" d="M94 688q0 334 148 547q53 76 136 121t173 45q207 0 331 -198.5t124 -528.5q0 -311 -127 -509t-328 -198t-329 203t-128 518zM375 807q0 -393 10 -537q10 -106 53 -163.5t115 -57.5q127 0 158 170q16 86 16 367q0 418 -16 549q-10 82 -56.5 132t-111.5 50 q-109 0 -146 -131q-22 -84 -22 -379z" />
<glyph unicode="1" d="M156 1075q264 123 436 326h125v-1227q0 -96 74 -98l145 -4v-72h-700v72l139 4q70 2 69 88v960q-33 -25 -118.5 -63.5t-139.5 -52.5z" />
<glyph unicode="2" d="M70 0v78q272 283 438 491q143 186 143 367q0 131 -59.5 207t-161.5 76q-90 0 -160.5 -68t-93.5 -176h-84q27 190 147.5 308t290.5 118q166 0 275.5 -110.5t109.5 -278.5q0 -133 -62 -233.5t-251 -270.5q-193 -176 -274 -279h381q102 0 137 31t53 137h72l-43 -397h-858z " />
<glyph unicode="3" d="M61 152q0 49 34 81.5t83 32.5q43 0 73 -20.5t66 -73.5q39 -57 73 -80.5t81 -23.5q86 0 139.5 84t53.5 217q0 139 -61.5 227t-162.5 88q-29 0 -69 -14l-37 63q106 78 166.5 166t60.5 166q0 72 -45 119t-113 47q-123 0 -208 -162l-64 29q45 141 150.5 222t240.5 81 q125 0 210 -70.5t85 -173.5q0 -88 -54 -160.5t-177 -148.5q113 -2 178 -47q158 -100 158 -322q0 -223 -154 -368.5t-389 -145.5q-133 0 -225.5 54.5t-92.5 132.5z" />
<glyph unicode="4" d="M72 342v98l628 961h117v-914h184v-145h-184v-375h-272v375h-473zM205 487h340v523z" />
<glyph unicode="5" d="M98 145q0 49 33 80t84 31q45 0 76 -23.5t69 -89.5q51 -86 121 -86q88 0 145.5 83t57.5 210q0 147 -72.5 236.5t-191.5 89.5q-86 0 -170 -43l-64 35l29 698h485q43 0 54.5 5t21.5 26l6 8h72l-39 -254h-522l-10 -262q113 27 180 26q209 0 344 -130t135 -332 q0 -213 -151.5 -350.5t-384.5 -137.5q-133 0 -220.5 51t-87.5 129z" />
<glyph unicode="6" d="M104 543q0 324 205 558t545 300l43 -68q-195 -66 -323 -215t-156 -348q106 80 225 80q168 0 270.5 -116t102.5 -304q0 -205 -122 -334t-314 -129q-213 0 -344.5 159t-131.5 417zM385 463q0 -416 184 -416q109 0 144 111q27 82 26 243q0 203 -45 277q-41 68 -123 67 q-76 0 -172 -73q0 -8 -2 -19q-12 -73 -12 -190z" />
<glyph unicode="7" d="M80 987l31 379h888v-86l-503 -1313h-217l493 1155h-440q-98 0 -127 -22.5t-47 -112.5h-78z" />
<glyph unicode="8" d="M102 334q0 215 267 323q-86 66 -123 101q-121 115 -121 270q0 158 121 265.5t299 107.5q172 0 296 -97.5t124 -232.5q0 -190 -258 -305q291 -154 290 -389q0 -168 -133 -289t-321 -121q-201 0 -338 131q-103 99 -103 236zM332 342q0 -139 58.5 -216t164.5 -77 q98 0 160.5 62.5t62.5 158.5q0 125 -112 209q-45 33 -197 119q-6 0 -20 12q-63 -51 -90 -112.5t-27 -155.5zM340 1128q0 -88 68.5 -160.5t230.5 -154.5l10 8q102 84 103 246q0 119 -56.5 185.5t-156.5 66.5q-90 0 -144.5 -52.5t-54.5 -138.5z" />
<glyph unicode="9" d="M88 938q0 199 127 331t315 132q213 0 344.5 -158t131.5 -416q0 -428 -359 -694q-145 -109 -391 -166l-51 72q188 57 317 205.5t168 353.5q-119 -76 -225 -76q-164 0 -270.5 117t-106.5 299zM369 983q0 -213 39 -289q39 -70 120 -69q76 0 181 69q14 150 14 232 q0 395 -188 395q-88 0 -127 -81t-39 -257z" />
<glyph unicode=":" horiz-adv-x="686" d="M168 124.5q0 63.5 51 105.5t125 42q76 0 126 -41t50 -104.5t-52 -106.5t-130 -43q-72 0 -121 42t-49 105.5zM168 772.5q0 63.5 51 105.5t125 42q76 0 126 -41t50 -104.5t-52 -106.5t-130 -43q-72 0 -121 42t-49 105.5z" />
<glyph unicode=";" horiz-adv-x="686" d="M139 124.5q0 65.5 47 106.5t125 41q106 0 171 -68.5t65 -183.5q0 -145 -99.5 -243.5t-246.5 -98.5h-15l-18 95q106 8 174 58t68 122q0 35 -33 35q-4 0 -31 -4q-29 -4 -43 -4q-74 0 -119 39.5t-45 105zM172 772.5q0 63.5 51 105.5t127 42t126 -41t50 -104.5t-52 -106.5 t-130 -43q-74 0 -123 42t-49 105.5z" />
<glyph unicode="&#x3c;" d="M117 739v19l864 540v-129l-516 -325l516 -350v-344z" />
<glyph unicode="=" d="M113 459v123h874v-123h-874zM113 733v123h874v-123h-874z" />
<glyph unicode="&#x3e;" d="M117 150v129l516 325l-516 350v344l864 -589v-19z" />
<glyph unicode="?" horiz-adv-x="800" d="M98 1253q0 66 59.5 107t155.5 41q182 0 298 -125t116 -322q0 -205 -141 -292q-76 -49 -236 -93q-59 -16 -59 -59q0 -29 39 -104h-78q-94 156 -94 251q0 76 49 119t168 76q111 29 162 55q84 49 84 127q0 61 -40 101.5t-102 40.5q-39 0 -129 -23q-80 -18 -119 -18 q-61 0 -97 31.5t-36 86.5zM139 124.5q0 63.5 51.5 105.5t127 42t126 -41t50.5 -104.5t-52.5 -106.5t-130.5 -43q-74 0 -123 42t-49 105.5z" />
<glyph unicode="@" horiz-adv-x="1529" d="M96 467q0 297 207 508t500 211q266 0 448.5 -174t182.5 -424q0 -297 -273 -436q-123 -63 -252 -64q-66 0 -92 24.5t-26 82.5q0 53 14 112q-129 -131 -182.5 -174t-83.5 -43q-23 0 -51.5 20.5t-45.5 51.5q-25 39 -24 100q0 190 151 361q195 219 447 219h16q23 -2 41 -2h27 l-115 -561q-10 -45 -10 -62q0 -39 43 -39q49 0 113.5 39t111.5 96q100 119 100 269q0 217 -157.5 368.5t-382.5 151.5q-256 0 -436.5 -185.5t-180.5 -447.5q0 -266 182.5 -450.5t444.5 -184.5q217 0 406 141h110q-82 -88 -162 -131q-170 -94 -360 -94q-295 0 -503 210 t-208 507zM582 369q0 -53 19.5 -86t49.5 -33q27 0 50.5 18.5t107.5 100.5l10 8l72 356q-8 2 -21 2q-119 0 -203.5 -108t-84.5 -258z" />
<glyph unicode="A" horiz-adv-x="1585" d="M0 0v86h33q82 0 128 43t87 160l375 1048l-23 62h322l440 -1116q43 -109 90 -150t133 -47v-86h-717v86h76q70 0 101.5 19.5t31.5 64.5q0 33 -26 94l-101 246h-477l-92 -260q-20 -61 -21 -82q0 -41 35 -59q49 -23 160 -23h29v-86h-584zM518 631h383l-203 512z" />
<glyph unicode="B" horiz-adv-x="1505" d="M0 0v86h10q141 0 198.5 41t57.5 143v817q0 125 -32.5 159t-157.5 34h-56v86q424 35 627 35q274 0 436 -53q117 -37 186.5 -120t69.5 -184q0 -201 -270 -258q158 -37 253 -139t95 -235t-93 -236.5t-251 -146.5q-102 -29 -289 -29h-784zM569 317q0 -125 33 -165 q43 -53 166 -54q166 0 240 92q70 86 69 211q0 86 -33.5 159t-93.5 114q-82 55 -282 55q-61 0 -99 -2v-410zM569 821q74 -6 125 -6q184 0 252 59q72 66 72 179q0 84 -44 148.5t-118 88.5q-78 27 -186 27q-33 0 -101 -6v-490z" />
<glyph unicode="C" horiz-adv-x="1607" d="M96 680q0 303 245 512t599 209q170 0 348 -72q53 -20 72 -20q27 0 43 22h55l21 -385h-88q-51 164 -165 253t-272 89q-236 0 -383 -161.5t-147 -421.5q0 -266 160.5 -446.5t396.5 -180.5q152 0 271.5 83t185.5 232h88q-10 -76 -49 -200.5t-76 -198.5q-59 16 -129 16 q-45 0 -189 -24q-98 -16 -190 -17q-336 0 -566.5 206t-230.5 505z" />
<glyph unicode="D" horiz-adv-x="1792" d="M47 0v86h14q113 0 156 43q20 20 27.5 50t7.5 100v808q0 76 -9.5 108t-35.5 52q-43 33 -146 33h-12v86l172 12q244 18 486 19q334 0 534 -60q209 -63 332 -230t123 -388q0 -207 -116 -383t-302 -252q-209 -84 -561 -84h-670zM555 256q0 -113 31.5 -141.5t154.5 -28.5 q336 0 498 199q129 164 129 401q0 162 -60.5 295t-168.5 209q-147 104 -412 104q-66 0 -172 -10v-1028z" />
<glyph unicode="E" horiz-adv-x="1413" d="M-10 0v86h71q113 0 156 43q35 33 35 150v808q0 76 -9.5 108t-35.5 52q-43 33 -146 33h-22v86h1208l25 -317h-86q-14 111 -43 151q-20 29 -47 37t-99 8h-442v-500h322q82 0 118.5 12.5t57.5 47.5q16 29 20 96h90v-436h-88v20q0 78 -43 109t-153 31h-324v-310v-83 q0 -24 5 -53t9 -35.5t21.5 -14.5t32.5 -8h51h295q111 0 158 18.5t79 73.5q31 51 49 131h82l-26 -344h-1321z" />
<glyph unicode="F" horiz-adv-x="1308" d="M86 0v86h14q102 0 133 41q18 25 19 137v838q0 104 -32 141t-120 37h-12v86h1110v-309h-80q-10 133 -45 160.5t-190 27.5h-328v-502h266q145 0 187.5 29t44.5 131h88v-438h-88q0 86 -31 119q-25 25 -59.5 32t-124.5 7h-283v-344q0 -125 31.5 -159t146.5 -34h12v-86h-659z " />
<glyph unicode="G" horiz-adv-x="1699" d="M96 682q0 315 225.5 517t575.5 202q141 0 389 -66q55 -14 88 -14q43 0 64 29h55v-400h-90q-43 170 -163 265.5t-290 95.5q-233 0 -378.5 -168t-145.5 -438q0 -272 150.5 -451.5t377.5 -179.5q137 0 236 57v289q0 63 -16.5 92t-61.5 41q-57 16 -192 18v84h729v-84 q-88 -2 -122 -32.5t-34 -106.5v-328q-354 -135 -623 -135q-344 0 -559 198t-215 515z" />
<glyph unicode="H" horiz-adv-x="1837" d="M51 0v86h10q113 0 156 43q20 20 27.5 50t7.5 100v808q0 76 -9.5 108t-35.5 52q-43 33 -146 33h-10v86h705v-86h-11q-113 0 -155 -43q-20 -20 -27.5 -50t-7.5 -100v-321h725v321q0 74 -9 107t-36 53q-45 33 -141 33h-11v86h703v-86h-12q-113 0 -156 -43q-35 -33 -35 -150 v-808q0 -76 9.5 -107t35.5 -51q43 -35 146 -35h12v-86h-703v86h11q109 0 151 43q35 33 35 150v358h-725v-358q0 -76 9 -107t36 -51q43 -35 145 -35h11v-86h-705z" />
<glyph unicode="I" horiz-adv-x="808" d="M61 0v86h7q106 0 149 43q20 20 27.5 50t7.5 100v808q0 76 -9.5 108t-35.5 52q-45 33 -139 33h-7v86h699v-86h-15q-113 0 -155 -43q-20 -20 -27.5 -50t-7.5 -100v-808q0 -76 9 -107t36 -51q43 -35 145 -35h15v-86h-699z" />
<glyph unicode="J" horiz-adv-x="800" d="M-221 -373q0 55 46 97.5t107 42.5q39 0 68 -17.5t80 -71.5q41 -43 74 -43q68 0 90 86q16 55 16 242v1124q0 76 -9 108t-36 52q-43 33 -145 33h-13v86h699v-86h-8q-106 0 -150 -43q-20 -20 -27.5 -50t-7.5 -100v-806q0 -195 -14 -281q-41 -238 -180.5 -369t-352.5 -131 q-237 0 -237 127z" />
<glyph unicode="K" horiz-adv-x="1624" d="M43 0v86h18q113 0 156 43q35 33 35 150v808q0 76 -9.5 108t-35.5 52q-43 33 -146 33h-18v86h717v-86h-37q-119 0 -152 -66q-16 -35 -16 -165v-340q164 25 324 202q178 203 178 297q0 39 -34 54.5t-122 17.5v86h586v-86q-137 -10 -191.5 -44t-146.5 -163 q-162 -233 -262 -303q55 -31 133 -119t215 -264q147 -193 221 -247t189 -54v-86h-748v86q86 2 113 14q39 14 39 45q0 55 -265 340q-142 154 -211 154h-6q-6 0 -12 -2v-358q0 -76 9 -107t36 -51q43 -35 145 -35h15v-86h-717z" />
<glyph unicode="L" horiz-adv-x="1333" d="M33 0v86h28q113 0 156 43q35 33 35 150v808q0 76 -9.5 108t-35.5 52q-43 33 -146 33h-24v86h745v-86h-37q-113 0 -155 -43q-35 -33 -35 -150v-821q0 -100 17.5 -122.5t95.5 -22.5h235q152 0 213 59q90 90 168 201h88l-160 -381h-1179z" />
<glyph unicode="M" horiz-adv-x="2037" d="M43 0v86q117 2 146.5 40t39.5 191l50 795q2 20 2 53q0 59 -32 85t-116 30v86h463l428 -924l410 924h473v-86l-27 -2q-90 -6 -113.5 -23.5t-21.5 -78.5l2 -64l53 -809q8 -143 37 -175t158 -42v-86h-692v86h36q102 0 136 28.5t34 118.5q0 18 -6 99l-51 780l-494 -1112h-53 l-504 1085l-51 -782l-2 -70q-2 -84 38 -115.5t144 -31.5v-86h-487z" />
<glyph unicode="N" horiz-adv-x="1792" d="M72 0v86h22q100 0 137 51q20 27 21 129v967q-68 47 -176 47v86h452l897 -934v662q0 119 -37.5 152.5t-168.5 33.5h-25v86h567v-86h-24q-102 0 -144 -27q-23 -16 -28.5 -40.5t-5.5 -106.5v-1114h-119l-1055 1102v-811q0 -88 16.5 -123t63.5 -56q49 -18 137 -18v-86h-530z " />
<glyph unicode="O" horiz-adv-x="1814" d="M96 680q0 150 64.5 288t183.5 240q106 94 265 147.5t327 53.5q348 0 567 -194.5t219 -503.5q0 -324 -233.5 -533t-595.5 -209q-352 0 -574.5 198t-222.5 513zM426 766q0 -313 143.5 -508t374.5 -195q236 0 354 193q96 160 97 383q0 291 -158 502q-133 174 -354 174 q-209 0 -333 -149.5t-124 -399.5z" />
<glyph unicode="P" horiz-adv-x="1421" d="M51 1280v86q539 35 707 35q215 0 368 -68q111 -51 173.5 -147t62.5 -215q0 -190 -149.5 -304t-401.5 -114q-113 0 -254 22v-296q0 -76 9 -107t36 -51q43 -35 146 -35h67v-86h-747v86h34q102 0 134 41q18 29 18 137v838q0 109 -18 137q-31 41 -134 41h-51zM557 666 q70 -14 156 -15q154 0 236.5 86t82.5 244t-83 244t-234 86q-82 0 -158 -21v-624z" />
<glyph unicode="Q" horiz-adv-x="1814" d="M96 670q0 319 238.5 529t603.5 210q346 0 565 -195.5t219 -502.5q0 -211 -109.5 -383t-303.5 -271q-98 -47 -181 -61q127 -84 228 -184q205 -205 395 -213l-39 -84q-57 -14 -123 -15q-119 0 -254 47q-100 35 -180 86.5t-240 184.5q-154 131 -286 188q-252 72 -392.5 246 t-140.5 418zM426 766q0 -313 143.5 -509t374.5 -196q238 0 354 195q96 160 97 383q0 291 -158 502q-133 174 -354 174q-209 0 -333 -149.5t-124 -399.5z" />
<glyph unicode="R" horiz-adv-x="1697" d="M27 0v86h34q113 0 156 43q20 20 27.5 50t7.5 100v808q0 76 -9.5 108t-35.5 52q-43 33 -146 33h-30v86q412 35 647 35q279 0 446 -55q121 -41 193 -134.5t72 -212.5q0 -125 -87.5 -220t-238.5 -136q10 -10 21.5 -19.5t19.5 -17.5l19 -20l19 -21l21 -25l22 -27l25 -34 l28 -37l34 -44q25 -32 37 -50q123 -166 206.5 -220t217.5 -65v-86q-82 -2 -144 -2q-246 0 -354 54q-76 35 -128 90t-196 250q-98 137 -182 213h-174v-303q0 -76 9 -107t36 -51q43 -35 145 -35h50v-86h-768zM555 666h53q233 0 342 76.5t109 244.5q0 324 -412 324 q-31 0 -92 -6v-639z" />
<glyph unicode="S" horiz-adv-x="1234" d="M129 403h84q115 -330 379 -329q106 0 180 62.5t74 152.5q0 109 -111 194q-51 41 -252 146q-162 84 -235 159q-109 109 -109 254q0 158 125 258.5t322 100.5q135 0 303 -51q20 -6 35 -7q20 0 43 23h47l41 -354h-88q-33 131 -132.5 211t-226.5 80q-92 0 -153.5 -43 t-61.5 -109q0 -59 46 -110.5t153 -106.5q182 -96 287 -166q252 -168 251 -391q0 -170 -138 -289t-337 -119q-72 0 -129 11.5t-207 54.5q-18 6 -32 6q-29 0 -45 -35h-58z" />
<glyph unicode="T" horiz-adv-x="1601" d="M80 993l37 410h71q29 -27 49.5 -32t110.5 -5h985q55 0 76 7t37 30h67l39 -410h-86q-35 174 -73.5 217t-165.5 43h-260v-974q0 -76 9 -107t36 -51q43 -35 145 -35h53v-86h-790v86h53q113 0 156 43q35 33 35 150v974h-230q-147 0 -189 -42t-75 -218h-90z" />
<glyph unicode="U" horiz-adv-x="1701" d="M27 1280v86h688v-86h-10q-106 0 -150 -43q-20 -20 -27.5 -50t-7.5 -100v-542q0 -113 9.5 -163t37.5 -99q47 -80 139.5 -124t215.5 -44q164 0 271 72.5t140 203.5q16 61 17 240v383q0 172 -45 219q-47 47 -156 47h-19v86h570v-86h-17q-113 0 -163 -51q-37 -39 -37 -191 v-407q0 -215 -41 -330q-119 -332 -590 -332q-244 0 -407.5 94.5t-206.5 262.5q-20 80 -21 227v534q0 127 -29 156q-37 37 -147 37h-14z" />
<glyph unicode="V" horiz-adv-x="1619" d="M-4 1278v88h762v-88h-39q-180 0 -180 -88q0 -33 36 -113l336 -721l322 762q23 53 22 76q0 84 -182 84h-12v88h557v-88h-16q-92 0 -142.5 -50t-118.5 -208l-446 -1051h-137l-518 1127q-53 117 -95.5 149.5t-134.5 32.5h-14z" />
<glyph unicode="W" horiz-adv-x="2168" d="M-6 1280v86h584v-86q-82 -6 -82 -59q0 -25 28 -82l402 -840l141 289l-260 545q-43 92 -70.5 117.5t-79.5 29.5v86h963v-86q-61 -14 -94 -45t-74 -113l-160 -325l232 -469l309 780q18 47 18 80q0 92 -129 92v86h443v-86q-82 -8 -125 -48t-86 -149l-445 -1114h-145 l-234 486l-229 -486h-145l-537 1129q-55 117 -88 145q-43 37 -119 37h-18zM1083 1237q0 -16 19 -53l125 -252l125 248q18 41 18 59q0 41 -86 41h-119q-82 0 -82 -43z" />
<glyph unicode="X" horiz-adv-x="1763" d="M33 0v86q113 14 182.5 53t183.5 156l346 354l-329 412q-109 135 -176 176q-61 41 -170 41h-25v88h834v-88h-54q-78 0 -106.5 -11.5t-28.5 -39.5q0 -20 10.5 -35.5t55.5 -73.5l198 -248l226 232q76 80 75 123q0 31 -27.5 42t-103.5 11h-28v88h592v-88q-111 -2 -181.5 -45 t-212.5 -193l-256 -270l396 -491q90 -113 151.5 -149t169.5 -44v-86h-770v86h27q127 0 127 61q0 35 -45 86l-269 318l-338 -348q-33 -35 -32 -60q0 -57 153 -57h27v-86h-602z" />
<glyph unicode="Y" horiz-adv-x="1619" d="M-6 1278v88h717v-88h-19q-131 0 -131 -59v-8q0 -3 2 -7t3 -7t6.5 -9t9.5 -12.5t13 -18.5l17 -22l324 -430l242 376q53 82 53 129q0 68 -119 68h-27v88h521v-88q-106 -8 -152.5 -42t-136.5 -173l-332 -514v-270q0 -76 9.5 -107t35.5 -51q43 -35 146 -35h34v-86h-751v86h33 q113 0 155 43q20 20 27.5 50t7.5 100v270l-428 567q-84 111 -111 131q-41 31 -135 31h-14z" />
<glyph unicode="Z" horiz-adv-x="1593" d="M100 0v117l975 1132h-497q-129 0 -168 -10q-59 -16 -89 -71.5t-45 -170.5h-81l12 369h1268v-121l-975 -1128h643q96 0 140 21.5t79 84.5q39 70 70 217h84l-27 -440h-1389z" />
<glyph unicode="[" horiz-adv-x="778" d="M242 -412v1778h524v-70q-20 0 -45 -2t-42 -3t-22 -1q-127 -6 -155 -49q-10 -18 -10 -70v-1359q0 -68 4 -87.5t20 -29.5q47 -33 254 -33v-74h-528z" />
<glyph unicode="\" horiz-adv-x="755" d="M12 1489h191l493 -2017h-192z" />
<glyph unicode="]" horiz-adv-x="778" d="M8 -338q207 0 254 33q16 12 20.5 30.5t4.5 86.5v1359q0 55 -15 74q-29 39 -151 45l-109 6v70h525v-1778h-529v74z" />
<glyph unicode="^" horiz-adv-x="1024" d="M-61 569l589 865h19l538 -865h-129l-325 516l-350 -516h-342z" />
<glyph unicode="_" horiz-adv-x="1024" d="M0 -188h1024v-152h-1024v152z" />
<glyph unicode="`" horiz-adv-x="1024" d="M162 1436h354l162 -414h-129z" />
<glyph unicode="a" horiz-adv-x="1013" d="M80 207q0 129 100 203q43 31 150 63q188 57 270 131v82q0 63 -39 105.5t-96 42.5q-119 0 -119 -132q0 -20 4 -38l-246 -86q-10 43 -10 73q0 125 142 199q143 72 278 72q86 0 175 -37t134 -90q49 -61 49 -181v-276q0 -147 9 -168q10 -35 41 -35q20 0 59 27l33 -51 q-53 -57 -125 -94t-125 -37q-125 0 -154 131l-22 -15l-31 -28q-96 -90 -221 -91q-119 0 -187.5 62t-68.5 168zM344 252q0 -68 31 -110t80 -42q47 0 149 90v316q-43 -35 -141 -80q-66 -33 -92.5 -70.5t-26.5 -103.5z" />
<glyph unicode="b" horiz-adv-x="1216" d="M16 1309v53l334 106h70v-731q199 182 366 183q150 0 252.5 -123t102.5 -299q0 -225 -159 -374t-398 -149q-76 0 -206 20.5t-226 49.5v1104q0 72 -13.5 94.5t-64.5 42.5zM420 369q0 -156 47 -227.5t149 -71.5q117 0 182.5 87t65.5 242q0 154 -69.5 250t-180.5 96 q-109 0 -194 -112v-264z" />
<glyph unicode="c" horiz-adv-x="1052" d="M76 412q0 215 163.5 362.5t403.5 147.5q143 0 238.5 -53.5t95.5 -133.5q0 -49 -31 -79.5t-82 -30.5q-49 0 -81.5 20.5t-102.5 95.5q-70 78 -127 78q-82 0 -132 -92t-50 -242q0 -176 75.5 -285.5t196.5 -109.5q143 0 279 158l63 -37q-158 -233 -448 -234 q-201 0 -331 123.5t-130 311.5z" />
<glyph unicode="d" horiz-adv-x="1212" d="M76 391q0 233 147 387q133 141 365 142q104 0 196 -29v256q0 61 -7 82.5t-36 40.5q-31 20 -104 37v53l342 108h74v-1179q0 -96 17 -129t71 -33q35 0 67 12v-65l-364 -97h-60v175q-199 -174 -352 -175q-156 0 -256 116t-100 298zM344 510q0 -164 66.5 -267.5t173 -103.5 t200.5 111v489q-61 55 -105 75t-104 20q-109 0 -170 -86t-61 -238z" />
<glyph unicode="e" horiz-adv-x="1036" d="M76 428q0 215 132 353.5t339 138.5q109 0 194.5 -44.5t130.5 -121.5q33 -53 54 -160q8 -49 43 -70v-49h-613q10 -139 91 -237.5t188 -98.5q115 0 264 158l49 -43q-94 -131 -219 -204t-252 -73q-178 0 -289.5 125t-111.5 326zM352 545h314q-2 127 -43 198.5t-113 71.5 q-70 0 -114 -67.5t-44 -174.5v-28z" />
<glyph unicode="f" horiz-adv-x="706" d="M18 0v70h39q68 0 95.5 34.5t27.5 118.5v559h-162v47l162 68q6 172 80 295t214 205t278 82q96 0 191 -45t95 -91q0 -12 -18 -38l-68 -86q-25 -31 -47 -31q-16 0 -28.5 8t-67.5 57q-109 100 -186 101q-49 0 -92.5 -30t-59.5 -75q-23 -61 -22 -190v-162h219l-15 -115h-204 v-538q0 -98 40.5 -136t147.5 -38h47v-70h-666z" />
<glyph unicode="g" horiz-adv-x="1183" d="M76 -289q0 88 137 148q53 23 76 61q-186 61 -187 207q0 43 25 70.5t84 54.5q39 16 188 61q-113 6 -199.5 88t-86.5 183q0 143 129 239.5t319 96.5q178 0 295 -86l311 79v-227l-221 51q45 -63 45 -141q0 -70 -38 -132.5t-103 -98.5q-131 -76 -295 -76h-27 q-113 -39 -147.5 -58.5t-34.5 -46.5q0 -72 277 -71q45 0 69 2q39 2 72 2q182 0 281.5 -67.5t99.5 -190.5q0 -156 -178.5 -261.5t-444.5 -105.5q-188 0 -317 62.5t-129 156.5zM309 -221q0 -78 96.5 -135.5t227.5 -57.5q133 0 224 53.5t91 131.5q0 113 -190 113q-13 0 -27 -1 l-119 -4q-18 -1 -35 0q-97 0 -184 19l-8 -7q-76 -57 -76 -112zM383 623q0 -246 176 -246q78 0 119 51t41 145q0 119 -46 187.5t-126 68.5q-76 0 -120 -55t-44 -151z" />
<glyph unicode="h" horiz-adv-x="1255" d="M29 0v70h10q98 0 119.5 31.5t21.5 174.5v895q0 70 -17.5 89.5t-113.5 52.5l-18 6v39l362 110h56v-714q109 76 217 121t178 45q240 0 239 -392v-252q0 -137 19.5 -171.5t95.5 -34.5h6v-70h-518v70h8q84 0 105 41q16 25 16 165v287q0 88 -39 140.5t-104 52.5 q-94 0 -223 -82v-398q0 -139 20 -172.5t109 -33.5h8v-70h-557z" />
<glyph unicode="i" horiz-adv-x="628" d="M33 774v53l375 123h41v-706q0 -104 24 -135q35 -39 96 -39h15v-70h-549v70h22q68 0 95.5 34.5t27.5 118.5v414q0 57 -11 71.5t-65 36.5zM131 1292q0 61 53.5 106.5t126.5 45.5q70 0 120 -44t50 -107.5t-52 -106.5t-128 -43q-72 0 -121 43t-49 106z" />
<glyph unicode="j" horiz-adv-x="620" d="M-260 -373q0 51 43 91t96 40q39 0 68.5 -21.5t75.5 -80.5q33 -47 67 -47q53 0 78 92q10 45 10 238v706q0 49 -11 64.5t-63 33.5l-73 27v53l370 125h45v-864q0 -150 -16 -219q-41 -172 -164 -270.5t-299 -98.5q-106 0 -166.5 35t-60.5 96zM131 1292q0 61 53.5 106.5 t126.5 45.5q70 0 120 -44t50 -107.5t-52 -106.5t-128 -43q-72 0 -121 43t-49 106z" />
<glyph unicode="k" horiz-adv-x="1202" d="M45 0v70h12q68 0 95.5 34.5t27.5 118.5v967q0 49 -12 66.5t-57 31.5l-66 23v51l350 106h54v-954l296 248q27 20 27 37q0 20 -15.5 25t-76.5 5h-14v68h454v-70h-16q-127 0 -260 -112l-150 -125l318 -400q94 -121 170 -120h18v-70h-506v70h8q45 0 46 28q0 14 -23 43 l-276 355v-252q0 -104 24 -135q39 -39 96 -39h9v-70h-533z" />
<glyph unicode="l" horiz-adv-x="620" d="M29 1294v66l381 108h39v-1224q0 -104 24 -135q39 -39 96 -39h11v-70h-545v70h22q68 0 95.5 34.5t27.5 118.5v905q0 74 -10 97.5t-47 36.5z" />
<glyph unicode="m" horiz-adv-x="2037" d="M37 764v55l371 125h41v-252q180 127 284.5 177.5t190.5 50.5q94 0 153.5 -60.5t73.5 -167.5q74 55 176 117q195 111 309 111q119 0 174.5 -90.5t55.5 -286.5v-267q0 -139 16 -165q20 -41 100 -41h7v-70h-516v70q74 10 99 68.5t25 219.5v131q0 139 -31.5 202t-103.5 63 q-96 0 -303 -138v-372q0 -106 25 -133q35 -41 90 -41h8v-70h-516v70h8q63 0 90 35.5t27 117.5v316q0 215 -133 215q-111 0 -309 -142v-368q0 -104 24 -135q35 -39 96 -39h27v-70h-555v70h14q70 0 97.5 34.5t27.5 118.5v441q0 53 -92 84z" />
<glyph unicode="n" horiz-adv-x="1257" d="M31 764v55l377 125h41v-196q45 31 100 61q193 111 307 111q150 0 199 -138q31 -84 30 -239v-267q0 -139 17 -165q20 -41 100 -41h10v-70h-520v70q74 10 99.5 68.5t25.5 219.5v131q0 139 -31.5 202t-103.5 63q-86 0 -233 -97v-413q0 -104 24 -135q35 -39 96 -39h31v-70 h-559v70h14q70 0 97.5 34.5t27.5 118.5v441q0 59 -119 92z" />
<glyph unicode="o" horiz-adv-x="1220" d="M76 442q0 201 159.5 340.5t391.5 139.5q227 0 373.5 -129t146.5 -328q0 -211 -158 -349.5t-399 -138.5q-225 0 -369.5 130t-144.5 335zM367 567q0 -174 71 -334q76 -166 221 -165q92 0 144.5 71.5t52.5 200.5q0 213 -80 351t-205 138q-96 0 -150 -69.5t-54 -192.5z" />
<glyph unicode="p" horiz-adv-x="1245" d="M35 -430h24q76 0 101 47q20 33 20 160v862q0 84 -61 104l-80 27v55l352 119h58v-209q133 109 207.5 147t156.5 38q154 0 256 -119t102 -295q0 -229 -155 -391q-133 -137 -350 -138q-98 0 -217 27v-221q0 -125 41.5 -165t175.5 -48v-70h-631v70zM449 164 q100 -106 223 -107q100 0 164.5 90.5t64.5 233.5q0 166 -65.5 270.5t-167.5 104.5q-94 0 -219 -113v-479z" />
<glyph unicode="q" horiz-adv-x="1216" d="M76 395q0 223 153.5 374t382.5 151q174 0 322 -89l94 89h53q-18 -139 -18 -267v-899q0 -82 7 -109.5t32 -45.5q31 -27 94 -29v-70h-623v70h72q100 0 129 45q20 31 21 137v410q-184 -184 -359 -185q-154 0 -257 120t-103 298zM352 489q0 -150 68.5 -244.5t177.5 -94.5 q53 0 93 22.5t104 85.5v309q0 125 -50.5 192.5t-142.5 67.5q-115 0 -182.5 -91t-67.5 -247z" />
<glyph unicode="r" horiz-adv-x="862" d="M41 0v70h16q68 0 95.5 34.5t27.5 118.5v361q0 74 -14 100.5t-66 46.5l-59 23v55l360 135h48v-246q78 141 112.5 181.5t81.5 40.5q39 0 92 -21l127 -49q-43 -150 -104 -234l-105 39q-45 16 -75 17q-61 0 -129 -99v-329q0 -104 29.5 -139t117.5 -35h57v-70h-612z" />
<glyph unicode="s" horiz-adv-x="823" d="M92 258h70q74 -186 229 -186q47 0 80 29.5t33 70.5q0 39 -33 72q-27 27 -164 114q-121 78 -167 139.5t-46 143.5q0 127 95.5 203t250.5 76q115 0 242 -46l4 -235h-68q-63 190 -208 190q-43 0 -72 -24.5t-29 -61.5q0 -41 36 -77.5t124 -87.5q102 -59 133 -80t66 -56 q74 -74 73 -188q0 -121 -81.5 -200t-208.5 -79q-90 0 -205 29q-16 4 -23 4q-16 0 -45 -28h-61z" />
<glyph unicode="t" horiz-adv-x="757" d="M55 788v43q92 35 192.5 140.5t131.5 199.5h61v-266h291l-31 -117h-260v-495q0 -92 15 -119q25 -47 88 -47q76 0 166 111l32 -62q-51 -88 -140 -143.5t-181 -55.5q-158 0 -213 115q-35 70 -35 219v477h-117z" />
<glyph unicode="u" horiz-adv-x="1251" d="M88 791v49l315 80h46v-482q0 -186 34 -235q37 -59 109 -60q78 0 221 90v398q0 63 -15.5 86.5t-64.5 40.5l-100 30v52l448 80v-672q0 -84 12.5 -108.5t53.5 -24.5q33 0 63 14v-68l-354 -84h-43v175q-274 -174 -395 -175q-238 0 -238 334v334q0 63 -8 86t-39 37z" />
<glyph unicode="v" horiz-adv-x="1116" d="M-10 827v70h557v-70h-47q-45 0 -61.5 -10t-16.5 -36.5t31 -94.5l186 -420l170 389q25 53 25 86q0 39 -36 58.5t-118 27.5v70h438v-70q-88 -6 -122.5 -40.5t-94.5 -168.5l-280 -630h-136l-309 665q-47 100 -81.5 134t-104.5 40z" />
<glyph unicode="w" horiz-adv-x="1689" d="M-8 827v70h526v-70q-86 -10 -86 -75q0 -20 19 -64l165 -397l177 397q-29 76 -62 109q-31 31 -71 31q-2 0 -5 -1v70h498v-70q-98 0 -98 -71q0 -25 26 -90l156 -375l156 375q18 43 18 71q0 84 -127 90v70h406v-70q-74 -6 -115 -47t-88 -151l-273 -641h-124l-244 571 l-260 -571h-121l-272 637q-49 117 -89 157.5t-112 44.5z" />
<glyph unicode="x" horiz-adv-x="1167" d="M29 827v70h538v-70q-74 0 -73 -36q0 -14 14 -33l137 -170l123 131q27 35 27 57q0 49 -95 51v70h410v-70q-68 -8 -124 -41.5t-136 -115.5l-150 -156l244 -295q70 -84 115 -116.5t98 -32.5v-70h-565v70h20q66 0 66 41q0 23 -33 65l-125 156l-139 -150q-33 -35 -33 -61 q0 -51 88 -51v-70h-391v70q94 0 236 147l180 186l-252 306q-53 66 -90 89t-90 29z" />
<glyph unicode="y" horiz-adv-x="1112" d="M-12 827v70h561v-70h-17q-96 0 -96 -67q0 -27 29 -84l174 -359l168 338q23 45 22 78q0 41 -36.5 66.5t-100.5 27.5v70h410v-70q-74 -16 -111 -49t-82 -127l-442 -905q-66 -133 -96 -174q-61 -84 -152 -84q-59 0 -98 36t-39 89q0 129 166 141q127 6 190 148l56 121 l-299 604q-63 127 -98 161.5t-109 38.5z" />
<glyph unicode="z" horiz-adv-x="1081" d="M45 0v70l580 706h-306q-63 0 -97 -32.5t-91 -153.5h-74l72 368h74v-16q0 -29 14 -37t68 -8h725v-61l-586 -715h274q88 0 128 14.5t79 57.5q45 53 80 112h68l-103 -305h-905z" />
<glyph unicode="{" horiz-adv-x="778" d="M104 481v56q90 4 117 41q20 27 24.5 58.5t4.5 164.5v286q0 203 129 256q20 8 39.5 9.5t86 3.5t152.5 8l29 2v-68q-127 -2 -164 -44t-37 -181v-360q0 -88 -36.5 -135.5t-118.5 -67.5v-6q82 -14 118.5 -70.5t36.5 -165.5v-383q0 -98 15.5 -140t58.5 -64.5t123 -22.5h4v-68 q-236 0 -291 19q-78 25 -111.5 86t-33.5 180v377q0 129 -22.5 171t-98.5 52q-2 2 -25 6z" />
<glyph unicode="|" horiz-adv-x="1024" d="M412 -342v1708h202v-1708h-202z" />
<glyph unicode="}" horiz-adv-x="778" d="M92 -342h12q86 0 132 33q33 25 45 64.5t12 129.5v383q0 109 37 165t119 71v6q-82 20 -119 67.5t-37 135.5v360q0 139 -37 181t-164 44v68l29 -2h117q150 0 208 -51q82 -70 82 -226v-286q0 -133 4.5 -165t24.5 -58q27 -37 117 -41v-56q-23 -4 -25 -6l-31 -4 q-57 -20 -73.5 -60t-16.5 -159v-377q0 -123 -37.5 -185.5t-123.5 -84.5q-57 -14 -275 -15v68z" />
<glyph unicode="~" horiz-adv-x="1366" d="M281 1264q125 227 270 227q53 0 166 -41q111 -39 162 -39q88 0 161 92l47 -28q-115 -227 -274 -228q-51 0 -213 60q-57 23 -119 22q-72 0 -137 -74l-18 -20z" />
<glyph unicode="&#xa1;" horiz-adv-x="686" d="M162 839.5q0 63.5 52 106.5t130 43q72 0 121 -42t49 -105.5t-51 -105.5t-125 -42q-76 0 -126 41t-50 104.5zM174 -391q0 16 4 45l125 819h74l125 -825q4 -27 4 -35q0 -27 -13.5 -37t-48.5 -10h-202q-41 0 -54.5 8t-13.5 35z" />
<glyph unicode="&#xa2;" d="M109 412q0 213 162.5 360.5t400.5 147.5q43 0 76 -5l102 261h90l-111 -277q84 -23 132.5 -65.5t48.5 -98.5q0 -49 -31 -79.5t-82 -30.5q-78 0 -147 75l-222 -555q61 -55 150 -55q141 0 276 158l64 -37q-156 -233 -451 -234q-55 0 -102 11l-141 -357h-91l150 379 q-131 51 -202.5 157t-71.5 245zM403 489q0 -170 64 -272l221 551q-51 49 -102 49q-80 0 -131.5 -92.5t-51.5 -235.5z" />
<glyph unicode="&#xa3;" d="M-82 -6q0 51 46 99t151 108q23 49 55 137q25 70 66 168h-273l29 84h276q182 451 331 634t333 183q94 0 171 -44t77 -97q0 -43 -36 -82t-77 -39q-27 0 -46.5 16.5t-59.5 71.5q-39 51 -56.5 67.5t-36.5 16.5q-35 0 -67.5 -57.5t-98.5 -235.5q-113 -297 -184 -434h344 l-26 -84h-365q-70 -119 -178 -242q82 23 117 23q82 0 159 -58q16 -10 101 -84q131 -117 188 -116q29 0 50.5 24.5t21.5 57.5q0 35 -29 86q-31 53 -31 90q0 39 31 65.5t74 26.5q53 0 84 -44t31 -118q0 -125 -100.5 -213t-239.5 -88q-119 0 -232 76q-51 33 -164 141 q-47 45 -82 45q-25 0 -75 -33q-33 -102 -90.5 -165.5t-114.5 -63.5q-31 0 -52.5 22.5t-21.5 55.5z" />
<glyph unicode="&#xa4;" d="M86 279l137 135q-96 119 -96 268t96 264l-137 137l59 60l138 -135q117 94 266 94q156 0 266 -94l137 135l60 -60l-138 -135q96 -115 97 -266q0 -154 -97 -268l138 -135l-60 -62l-137 137q-115 -94 -266.5 -94t-265.5 94l-138 -137zM295 680q0 -102 73.5 -177t176.5 -75 q109 0 183.5 72.5t74.5 177.5q0 106 -74 181t-180 75q-104 0 -179 -74t-75 -180z" />
<glyph unicode="&#xa5;" d="M-39 1292v74h567v-74h-18q-84 0 -84 -49q0 -27 27 -84l59 -125h260l25 76q33 100 32 119q0 63 -81 63h-23v74h377v-74q-88 -4 -131 -45t-82 -153l-21 -60h183v-84h-211l-47 -135h258v-84h-287l-57 -170v-317q0 -109 32 -142q33 -31 111 -30h31v-72h-619v72h29 q84 0 117 39q27 33 26 133v317l-82 170h-311v84h270l-65 135h-205v84h166l-53 109q-51 102 -78 125.5t-103 23.5h-12zM551 950l113 -233l79 233h-192z" />
<glyph unicode="&#xa6;" horiz-adv-x="1024" d="M412 313h202v-655h-202v655zM412 641v725h202v-725h-202z" />
<glyph unicode="&#xa7;" d="M135 870q0 217 152.5 378t357.5 161q109 0 196 -46t87 -106q0 -45 -32 -79.5t-71 -34.5q-29 0 -53 15.5t-84 68.5q-86 74 -143 73q-43 0 -75 -29.5t-32 -68.5q0 -55 51 -141q25 -43 166 -258q186 -289 234 -400q80 -186 80 -329q0 -205 -162 -356.5t-383 -151.5 q-90 0 -170 52t-80 110q0 43 32 74.5t73 31.5q45 0 106 -61q55 -57 88 -77t72 -20q47 0 77.5 30t30.5 75q0 43 -36.5 111.5t-178.5 285.5q-182 283 -242.5 420t-60.5 272zM254 936q0 -109 60.5 -242t246.5 -432q111 -178 144.5 -266t39.5 -211q104 109 105 254 q0 90 -44 199.5t-157 291.5q-184 299 -237.5 410t-67.5 227q-90 -86 -90 -231z" />
<glyph unicode="&#xa8;" horiz-adv-x="1024" d="M168 1229q0 53 39 91t92 38t92 -39t39 -92t-39 -92t-92 -39t-92 39t-39 94zM594 1229q0 53 39 91t92 38t92 -39t39 -92t-39 -92t-92 -39t-92 39t-39 94z" />
<glyph unicode="&#xa9;" horiz-adv-x="1634" d="M96 682q0 297 212 508t511 211q301 0 511 -211t210 -512q0 -297 -214 -505t-519 -208q-291 0 -501 212t-210 505zM201 682q0 -254 180 -438.5t428 -184.5q262 0 444.5 180.5t182.5 438.5q0 262 -180.5 445.5t-436.5 183.5t-437 -182.5t-181 -442.5zM416 680 q0 152 128 256t312 104q84 0 182 -34q27 -10 35 -10.5t19 12.5h38l11 -203h-58q-53 168 -219 168q-119 0 -192.5 -78t-73.5 -203q0 -127 80 -214t199 -87q160 0 231 156h57q-12 -104 -67 -211q-37 10 -70 10q-29 0 -96 -12q-47 -8 -101 -8q-174 0 -294.5 102t-120.5 252z " />
<glyph unicode="&#xaa;" horiz-adv-x="888" d="M96 623v88h699v-88h-699zM158 963q0 78 63 124q35 20 94 39q109 29 162 74v45q0 35 -21.5 57.5t-54.5 22.5q-66 0 -65 -70q0 -14 2 -28l-164 -56q-8 35 -8 54q0 80 90 123t176 43q51 0 108.5 -22.5t86.5 -55.5q31 -37 30 -111v-164q0 -82 3.5 -97t19.5 -15q12 0 39 18 l29 -41q-86 -82 -164 -82q-37 0 -63.5 19.5t-35.5 52.5l-12 -8l-10 -11q-55 -55 -141 -55q-76 0 -120 39t-44 105zM334 989q0 -39 16.5 -61.5t44.5 -22.5q33 0 84 51v168q-25 -14 -78 -39q-67 -33 -67 -96z" />
<glyph unicode="&#xab;" horiz-adv-x="937" d="M53 485l365 412h74l-179 -412l172 -409h-67zM506 485l299 377h69l-139 -377l139 -379h-71z" />
<glyph unicode="&#xac;" horiz-adv-x="1024" d="M61 406v139h902v-545h-328v406h-574z" />
<glyph unicode="&#xad;" horiz-adv-x="915" d="M80 336v219h760v-219h-760z" />
<glyph unicode="&#xae;" horiz-adv-x="1634" d="M96 682q0 297 212 508t511 211q301 0 511 -211t210 -512q0 -297 -214 -505t-519 -208q-291 0 -501 212t-210 505zM201 682q0 -254 180 -438.5t428 -184.5q262 0 444.5 180.5t182.5 438.5q0 262 -180.5 445.5t-436.5 183.5t-437 -182.5t-181 -442.5zM399 342v55h25 q57 0 74.5 16.5t17.5 69.5v400q0 53 -17.5 69.5t-74.5 16.5h-23v55q215 18 340 18q213 0 297 -59q76 -57 76 -143q0 -61 -43 -110.5t-117 -70.5q31 -29 117 -137q59 -76 102.5 -104.5t104.5 -32.5v-53q-49 -2 -72 -2q-121 0 -180 26q-39 16 -66.5 44t-103.5 124 q-49 68 -90 103h-80v-144q0 -53 17.5 -69.5t74.5 -16.5h31v-55h-410zM686 682q117 2 156 18q90 33 90 134q0 152 -205 151q-25 0 -41 -4v-299z" />
<glyph unicode="&#xaf;" horiz-adv-x="1024" d="M160 1145v168h704v-168h-704z" />
<glyph unicode="&#xb0;" horiz-adv-x="634" d="M88 1169q0 94 66.5 160t162.5 66q94 0 161 -66.5t67 -161.5q0 -92 -66.5 -159.5t-161.5 -67.5q-96 0 -162.5 66.5t-66.5 162.5zM180 1169.5q0 -55.5 40 -95.5t97 -40q55 0 95.5 40t40.5 93q0 57 -40 97.5t-98 40.5q-55 0 -95 -40t-40 -95.5z" />
<glyph unicode="&#xb1;" d="M113 23v122h874v-122h-874zM113 596v123h376v348h123v-348h375v-123h-375v-348h-123v348h-376z" />
<glyph unicode="&#xb2;" horiz-adv-x="710" d="M53 803v55q172 172 271 293q88 106 88 211q0 74 -35 117t-94 43q-55 0 -97.5 -40t-54.5 -104h-65q16 121 91.5 194t186.5 73q104 0 174 -68t70 -170q0 -80 -39 -139.5t-156 -161.5q-98 -86 -160 -154h220q61 0 80.5 17.5t31.5 83.5h56l-27 -250h-541z" />
<glyph unicode="&#xb3;" horiz-adv-x="708" d="M47 899q0 33 22.5 54.5t57.5 21.5q49 0 90 -60q43 -59 90 -59q49 0 80 47t31 123q0 80 -37 130t-94 50q-20 0 -45 -10l-29 47q141 98 141 195q0 39 -25.5 64.5t-64.5 25.5q-72 0 -125 -96l-51 22q29 88 95.5 138t154.5 50q80 0 134 -44t54 -109q0 -90 -127 -174 q84 -4 137.5 -66.5t53.5 -156.5q0 -133 -97.5 -221.5t-242.5 -88.5q-86 0 -144.5 34t-58.5 83z" />
<glyph unicode="&#xb4;" horiz-adv-x="1024" d="M338 1022l162 414h346l-373 -414h-135z" />
<glyph unicode="&#xb5;" horiz-adv-x="983" d="M-14 -283q0 41 18 133q63 303 64 648v399h268v-549q0 -147 31 -203q12 -20 38.5 -35.5t53.5 -15.5q76 0 164 111v692h268v-627q0 -102 16.5 -136t67.5 -34q27 0 57 11v-41l-262 -93q-4 -2 -12 -2q-43 0 -72 37q-16 20 -45 107q-84 -90 -135 -120t-125 -30q-84 0 -132 37 t-89 133v-33q0 -61 9 -102t54 -184q23 -74 23 -105q0 -51 -36 -83.5t-91 -32.5q-59 0 -96 32.5t-37 85.5z" />
<glyph unicode="&#xb6;" d="M51 952q0 121 48 227.5t128 159.5q102 68 265 68h595v-86q-109 -8 -136 -49t-27 -189v-1183q0 -147 27.5 -188.5t135.5 -47.5v-88h-747v88q109 6 136.5 47t27.5 189v602h-51q-178 0 -290 124.5t-112 325.5zM649 -315h131v1613h-131v-1613z" />
<glyph unicode="&#xb7;" horiz-adv-x="686" d="M174 731q0 68 50 117t120 49t119 -49t49 -119t-49 -120t-119 -50q-72 0 -121 50t-49 122z" />
<glyph unicode="&#xb8;" horiz-adv-x="1024" d="M272 -397l21 65q53 -27 123 -26q39 0 67.5 26.5t28.5 63.5q0 76 -125 84l139 196h74l-49 -84q135 -35 135 -174q0 -88 -63.5 -146.5t-159.5 -58.5q-103 1 -191 54z" />
<glyph unicode="&#xb9;" horiz-adv-x="708" d="M102 1448q172 76 275 194h86v-731q0 -47 37 -49l96 -4v-55h-442v55l92 4q37 2 37 43v555q-96 -49 -156 -63z" />
<glyph unicode="&#xba;" horiz-adv-x="888" d="M96 623v88h699v-88h-699zM109 1100q0 123 100 207t246 84q141 0 233 -78t92 -199q0 -125 -99 -210t-247 -85q-143 0 -234 79t-91 202zM301 1176q0 -121 50 -205t122 -84q115 0 115 155q0 121 -47 201t-121 80q-55 0 -87 -38.5t-32 -108.5z" />
<glyph unicode="&#xbb;" horiz-adv-x="937" d="M55 111l142 378l-142 379h72l293 -379l-293 -378h-72zM438 76l178 411l-176 410h68l373 -410l-373 -411h-70z" />
<glyph unicode="&#xbc;" horiz-adv-x="1665" d="M102 1192q172 76 275 194h86v-731q0 -47 37 -49l96 -4v-55h-442v55l92 4q37 2 37 43v555q-96 -49 -156 -63zM367 0l874 1366h137l-874 -1366h-137zM1010 203v67l389 570h82v-539h114v-98h-114v-223h-181v223h-290zM1110 301h190v279z" />
<glyph unicode="&#xbd;" horiz-adv-x="1665" d="M102 1192q172 76 275 194h86v-731q0 -47 37 -49l96 -4v-55h-442v55l92 4q37 2 37 43v555q-96 -49 -156 -63zM326 0l874 1366h137l-874 -1366h-137zM1008 0v55q164 164 270 293q88 113 88 213q0 74 -35 117t-94 43q-55 0 -97 -40t-55 -106h-65q14 119 92 193t186 74 q104 0 174 -67.5t70 -170.5q0 -80 -39 -140.5t-155 -162.5q-111 -96 -160 -151h219q61 0 80.5 17t32.5 81h55l-27 -248h-540z" />
<glyph unicode="&#xbe;" horiz-adv-x="1665" d="M47 643q0 33 22.5 54.5t57.5 21.5q49 0 90 -60q43 -59 90 -59q49 0 80 47t31 123q0 80 -37 130t-94 50q-20 0 -45 -10l-29 47q141 98 141 195q0 39 -25.5 64.5t-64.5 25.5q-72 0 -125 -96l-51 22q29 88 95.5 138t154.5 50q80 0 134 -44t54 -109q0 -90 -127 -174 q84 -4 137.5 -66.5t53.5 -156.5q0 -133 -97.5 -221.5t-242.5 -88.5q-86 0 -144.5 34t-58.5 83zM352 0l875 1366h137l-875 -1366h-137zM1010 203v67l389 570h82v-539h114v-98h-114v-223h-181v223h-290zM1110 301h190v279z" />
<glyph unicode="&#xbf;" horiz-adv-x="800" d="M59 10q0 205 142 295q72 45 235 90q59 16 60 60q0 35 -39 104h78q92 -154 92 -252q0 -74 -49.5 -117t-167.5 -75q-111 -29 -160 -58q-84 -45 -84 -125q0 -61 40 -101t101 -40q49 0 129 21q80 18 119 18q61 0 97 -31.5t36 -87.5q0 -66 -59.5 -105.5t-155.5 -39.5 q-182 0 -298 124.5t-116 319.5zM293 839.5q0 63.5 52 106.5t130 43q72 0 121 -42t49 -105.5t-51 -105.5t-125 -42q-76 0 -126 41t-50 104.5z" />
<glyph unicode="&#xc0;" horiz-adv-x="1585" d="M0 0v86h33q82 0 128 43t87 160l375 1048l-23 62h322l440 -1116q43 -109 90 -150t133 -47v-86h-717v86h76q70 0 101.5 19.5t31.5 64.5q0 33 -26 94l-101 246h-477l-92 -260q-20 -61 -21 -82q0 -41 35 -59q49 -23 160 -23h29v-86h-584zM285 1851h395l235 -366h-163z M518 631h383l-203 512z" />
<glyph unicode="&#xc1;" horiz-adv-x="1585" d="M0 0v86h33q82 0 128 43t87 160l375 1048l-23 62h322l440 -1116q43 -109 90 -150t133 -47v-86h-717v86h76q70 0 101.5 19.5t31.5 64.5q0 33 -26 94l-101 246h-477l-92 -260q-20 -61 -21 -82q0 -41 35 -59q49 -23 160 -23h29v-86h-584zM518 631h383l-203 512zM616 1483 l240 368h383l-451 -368h-172z" />
<glyph unicode="&#xc2;" horiz-adv-x="1585" d="M0 0v86h33q82 0 128 43t87 160l375 1048l-23 62h322l440 -1116q43 -109 90 -150t133 -47v-86h-717v86h76q70 0 101.5 19.5t31.5 64.5q0 33 -26 94l-101 246h-477l-92 -260q-20 -61 -21 -82q0 -41 35 -59q49 -23 160 -23h29v-86h-584zM336 1485l244 366h395l244 -366h-218 l-221 215l-231 -215h-213zM518 631h383l-203 512z" />
<glyph unicode="&#xc3;" horiz-adv-x="1585" d="M0 0v86h33q82 0 128 43t87 160l375 1048l-23 62h322l440 -1116q43 -109 90 -150t133 -47v-86h-717v86h76q70 0 101.5 19.5t31.5 64.5q0 33 -26 94l-101 246h-477l-92 -260q-20 -61 -21 -82q0 -41 35 -59q49 -23 160 -23h29v-86h-584zM360 1479q10 92 31 143 q31 84 94.5 134t137.5 50q47 0 88 -14t139 -66q74 -37 123 -36q80 0 108 112h140q-4 -145 -77 -235t-186 -90q-55 0 -147 45q-147 72 -195 71q-45 0 -71.5 -26.5t-40.5 -87.5h-144zM518 631h383l-203 512z" />
<glyph unicode="&#xc4;" horiz-adv-x="1585" d="M0 0v86h33q82 0 128 43t87 160l375 1048l-23 62h322l440 -1116q43 -109 90 -150t133 -47v-86h-717v86h76q70 0 101.5 19.5t31.5 64.5q0 33 -26 94l-101 246h-477l-92 -260q-20 -61 -21 -82q0 -41 35 -59q49 -23 160 -23h29v-86h-584zM362 1638q0 63 45.5 108.5 t108.5 45.5q66 0 111 -46t45 -109.5t-45 -108.5t-108.5 -45t-110 44.5t-46.5 110.5zM518 631h383l-203 512zM913 1638q0 63 45.5 108.5t108.5 45.5t109.5 -46t46.5 -109.5t-45 -108.5t-109 -45q-66 0 -111 44.5t-45 110.5z" />
<glyph unicode="&#xc5;" horiz-adv-x="1585" d="M0 0v86h33q82 0 128 43t87 160l377 1050q-53 33 -85 91.5t-32 123.5q0 106 75.5 182t182 76t182.5 -75.5t76 -182.5q0 -113 -86 -194l424 -1077q43 -109 90 -150t133 -47v-86h-717v86h76q70 0 101.5 19.5t31.5 64.5q0 33 -26 94l-101 246h-477l-92 -260q-20 -61 -21 -82 q0 -41 35 -59q49 -23 160 -23h29v-86h-584zM518 631h383l-203 512zM621 1554q0 -61 43 -104t102 -43t102 43t43 102q0 61 -43 104.5t-102 43.5t-102 -43.5t-43 -102.5z" />
<glyph unicode="&#xc6;" horiz-adv-x="1972" d="M-35 0v86h19q147 0 280 258l422 821q20 41 21 68q0 31 -33 41q-14 4 -74 4h-43v88h1247l21 -319h-88l-4 24q-18 115 -54 143q-37 31 -139 31h-342v-500h223q106 0 145.5 32t45.5 126h88v-436h-88q-2 90 -42 124t-147 34h-225v-303q0 -143 19 -170q23 -31 75 -31h250 q131 0 191.5 51t81.5 182h83l-30 -354h-1194v86h31q109 0 153 43q23 20 30 50t7 100v192h-426l-96 -190q-43 -86 -43 -123q0 -33 25.5 -52.5t68.5 -19.5h45v-86h-504zM532 592h363v708z" />
<glyph unicode="&#xc7;" horiz-adv-x="1607" d="M96 680q0 303 245 512t599 209q170 0 348 -72q53 -20 72 -20q27 0 43 22h55l21 -385h-88q-51 164 -165 253t-272 89q-236 0 -383 -161.5t-147 -421.5q0 -266 160.5 -446.5t396.5 -180.5q152 0 271.5 83t185.5 232h88q-10 -76 -49 -200.5t-76 -198.5q-59 16 -129 16 q-57 0 -189 -22q-96 -16 -182 -19l-35 -49q84 -18 131 -69.5t47 -122.5q0 -98 -85 -163t-211 -65q-135 0 -254 58l26 73q76 -29 164 -28q53 0 91 29.5t38 70.5q0 45 -37 65.5t-129 28.5l152 178q-154 14 -273 70q-197 90 -313.5 262t-116.5 373z" />
<glyph unicode="&#xc8;" horiz-adv-x="1413" d="M-10 0v86h71q113 0 156 43q35 33 35 150v808q0 76 -9.5 108t-35.5 52q-43 33 -146 33h-22v86h1208l25 -317h-86q-14 111 -43 151q-20 29 -47 37t-99 8h-442v-500h322q82 0 118.5 12.5t57.5 47.5q16 29 20 96h90v-436h-88v20q0 78 -43 109t-153 31h-324v-310v-83 q0 -24 5 -53t9 -35.5t21.5 -14.5t32.5 -8h51h295q111 0 158 18.5t79 73.5q31 51 49 131h82l-26 -344h-1321zM266 1851h396l235 -366h-164z" />
<glyph unicode="&#xc9;" horiz-adv-x="1413" d="M-10 0v86h71q113 0 156 43q35 33 35 150v808q0 76 -9.5 108t-35.5 52q-43 33 -146 33h-22v86h1208l25 -317h-86q-14 111 -43 151q-20 29 -47 37t-99 8h-442v-500h322q82 0 118.5 12.5t57.5 47.5q16 29 20 96h90v-436h-88v20q0 78 -43 109t-153 31h-324v-310v-83 q0 -24 5 -53t9 -35.5t21.5 -14.5t32.5 -8h51h295q111 0 158 18.5t79 73.5q31 51 49 131h82l-26 -344h-1321zM543 1483l239 368h383l-450 -368h-172z" />
<glyph unicode="&#xca;" horiz-adv-x="1413" d="M-10 0v86h71q113 0 156 43q35 33 35 150v808q0 76 -9.5 108t-35.5 52q-43 33 -146 33h-22v86h1208l25 -317h-86q-14 111 -43 151q-20 29 -47 37t-99 8h-442v-500h322q82 0 118.5 12.5t57.5 47.5q16 29 20 96h90v-436h-88v20q0 78 -43 109t-153 31h-324v-310v-83 q0 -24 5 -53t9 -35.5t21.5 -14.5t32.5 -8h51h295q111 0 158 18.5t79 73.5q31 51 49 131h82l-26 -344h-1321zM250 1485l244 366h395l244 -366h-218l-221 215l-231 -215h-213z" />
<glyph unicode="&#xcb;" horiz-adv-x="1413" d="M-10 0v86h71q113 0 156 43q35 33 35 150v808q0 76 -9.5 108t-35.5 52q-43 33 -146 33h-22v86h1208l25 -317h-86q-14 111 -43 151q-20 29 -47 37t-99 8h-442v-500h322q82 0 118.5 12.5t57.5 47.5q16 29 20 96h90v-436h-88v20q0 78 -43 109t-153 31h-324v-310v-83 q0 -24 5 -53t9 -35.5t21.5 -14.5t32.5 -8h51h295q111 0 158 18.5t79 73.5q31 51 49 131h82l-26 -344h-1321zM248 1638q0 63 45 108.5t108 45.5q66 0 111 -46t45 -109.5t-45 -108.5t-108.5 -45t-109.5 44.5t-46 110.5zM799 1638q0 63 45 108.5t108.5 45.5t109.5 -46 t46 -109.5t-45 -108.5t-109 -45q-66 0 -110.5 44.5t-44.5 110.5z" />
<glyph unicode="&#xcc;" horiz-adv-x="808" d="M-35 1851h395l236 -366h-164zM61 0v86h7q106 0 149 43q20 20 27.5 50t7.5 100v808q0 76 -9.5 108t-35.5 52q-45 33 -139 33h-7v86h699v-86h-15q-113 0 -155 -43q-20 -20 -27.5 -50t-7.5 -100v-808q0 -76 9 -107t36 -51q43 -35 145 -35h15v-86h-699z" />
<glyph unicode="&#xcd;" horiz-adv-x="808" d="M61 0v86h7q106 0 149 43q20 20 27.5 50t7.5 100v808q0 76 -9.5 108t-35.5 52q-45 33 -139 33h-7v86h699v-86h-15q-113 0 -155 -43q-20 -20 -27.5 -50t-7.5 -100v-808q0 -76 9 -107t36 -51q43 -35 145 -35h15v-86h-699zM201 1483l239 368h383l-450 -368h-172z" />
<glyph unicode="&#xce;" horiz-adv-x="808" d="M-39 1485l244 366h395l244 -366h-217l-221 215l-232 -215h-213zM61 0v86h7q106 0 149 43q20 20 27.5 50t7.5 100v808q0 76 -9.5 108t-35.5 52q-45 33 -139 33h-7v86h699v-86h-15q-113 0 -155 -43q-20 -20 -27.5 -50t-7.5 -100v-808q0 -76 9 -107t36 -51q43 -35 145 -35 h15v-86h-699z" />
<glyph unicode="&#xcf;" horiz-adv-x="808" d="M37 1638q0 63 45 108.5t108.5 45.5t109.5 -46t46 -109.5t-45 -108.5t-108 -45q-66 0 -111 44.5t-45 110.5zM61 0v86h7q106 0 149 43q20 20 27.5 50t7.5 100v808q0 76 -9.5 108t-35.5 52q-45 33 -139 33h-7v86h699v-86h-15q-113 0 -155 -43q-20 -20 -27.5 -50t-7.5 -100 v-808q0 -76 9 -107t36 -51q43 -35 145 -35h15v-86h-699zM465 1638q0 63 45 108.5t108 45.5q66 0 111 -46t45 -109.5t-45 -108.5t-108.5 -45t-109.5 44.5t-46 110.5z" />
<glyph unicode="&#xd0;" horiz-adv-x="1792" d="M47 0v86h14q113 0 156 43q20 20 27.5 50t7.5 100v364h-191v78h191v366q0 76 -9.5 108t-35.5 52q-43 33 -146 33h-12v86l174 12q276 18 484 19q334 0 534 -60q209 -63 332 -230t123 -390q0 -207 -116 -382t-302 -251q-209 -84 -561 -84h-670zM555 256q0 -113 31.5 -141.5 t154.5 -28.5q336 0 498 199q129 164 129 399q0 162 -60.5 296t-168.5 210q-143 104 -412 104q-70 0 -172 -10v-563h344v-78h-344v-387z" />
<glyph unicode="&#xd1;" horiz-adv-x="1792" d="M72 0v86h22q100 0 137 51q20 27 21 129v967q-68 47 -176 47v86h452l897 -934v662q0 119 -37.5 152.5t-168.5 33.5h-25v86h567v-86h-24q-102 0 -144 -27q-23 -16 -28.5 -40.5t-5.5 -106.5v-1114h-119l-1055 1102v-811q0 -88 16.5 -123t63.5 -56q49 -18 137 -18v-86h-530z M463 1479q10 92 31 143q31 84 94 134t137 50q47 0 88 -14t139 -66q74 -37 123 -36q80 0 109 112h139q-4 -145 -76.5 -235t-185.5 -90q-55 0 -148 45q-147 72 -194 71q-45 0 -71.5 -26.5t-41.5 -87.5h-143z" />
<glyph unicode="&#xd2;" horiz-adv-x="1814" d="M96 680q0 150 64.5 288t183.5 240q106 94 265 147.5t327 53.5q348 0 567 -194.5t219 -503.5q0 -324 -233.5 -533t-595.5 -209q-352 0 -574.5 198t-222.5 513zM426 766q0 -313 143.5 -508t374.5 -195q236 0 354 193q96 160 97 383q0 291 -158 502q-133 174 -354 174 q-209 0 -333 -149.5t-124 -399.5zM510 1851h395l236 -366h-164z" />
<glyph unicode="&#xd3;" horiz-adv-x="1814" d="M96 680q0 150 64.5 288t183.5 240q106 94 265 147.5t327 53.5q348 0 567 -194.5t219 -503.5q0 -324 -233.5 -533t-595.5 -209q-352 0 -574.5 198t-222.5 513zM426 766q0 -313 143.5 -508t374.5 -195q236 0 354 193q96 160 97 383q0 291 -158 502q-133 174 -354 174 q-209 0 -333 -149.5t-124 -399.5zM664 1483l239 368h383l-450 -368h-172z" />
<glyph unicode="&#xd4;" horiz-adv-x="1814" d="M96 680q0 150 64.5 288t183.5 240q106 94 265 147.5t327 53.5q348 0 567 -194.5t219 -503.5q0 -324 -233.5 -533t-595.5 -209q-352 0 -574.5 198t-222.5 513zM426 766q0 -313 143.5 -508t374.5 -195q236 0 354 193q96 160 97 383q0 291 -158 502q-133 174 -354 174 q-209 0 -333 -149.5t-124 -399.5zM465 1485l244 366h395l244 -366h-218l-221 215l-231 -215h-213z" />
<glyph unicode="&#xd5;" horiz-adv-x="1814" d="M96 680q0 150 64.5 288t183.5 240q106 94 265 147.5t327 53.5q348 0 567 -194.5t219 -503.5q0 -324 -233.5 -533t-595.5 -209q-352 0 -574.5 198t-222.5 513zM426 766q0 -313 143.5 -508t374.5 -195q236 0 354 193q96 160 97 383q0 291 -158 502q-133 174 -354 174 q-209 0 -333 -149.5t-124 -399.5zM496 1479q10 92 30 143q31 84 94.5 134t137.5 50q47 0 88 -14t139 -66q74 -37 123 -36q80 0 109 112h139q-4 -145 -77 -235t-185 -90q-55 0 -148 45q-147 72 -194 71q-45 0 -72 -26.5t-41 -87.5h-143z" />
<glyph unicode="&#xd6;" horiz-adv-x="1814" d="M96 680q0 150 64.5 288t183.5 240q106 94 265 147.5t327 53.5q348 0 567 -194.5t219 -503.5q0 -324 -233.5 -533t-595.5 -209q-352 0 -574.5 198t-222.5 513zM426 766q0 -313 143.5 -508t374.5 -195q236 0 354 193q96 160 97 383q0 291 -158 502q-133 174 -354 174 q-209 0 -333 -149.5t-124 -399.5zM477 1638q0 63 45 108.5t109 45.5q66 0 110.5 -46t44.5 -109.5t-45 -108.5t-108.5 -45t-109.5 44.5t-46 110.5zM1028 1638q0 63 45 108.5t108.5 45.5t109.5 -46t46 -109.5t-45 -108.5t-108 -45q-66 0 -111 44.5t-45 110.5z" />
<glyph unicode="&#xd7;" d="M168 362l295 295l-295 295l86 86l295 -295l295 295l86 -86l-295 -295l295 -295l-86 -86l-295 295l-295 -295z" />
<glyph unicode="&#xd8;" horiz-adv-x="1818" d="M96 670q0 319 237.5 529t598.5 210q256 0 454 -111l177 207l63 -51l-172 -201q272 -203 272 -542q0 -317 -234.5 -529.5t-584.5 -212.5q-248 0 -461 109l-192 -225l-59 49l184 217q-133 92 -208 237.5t-75 313.5zM426 758q0 -264 113 -455l706 830q-141 182 -360 182 q-211 0 -335 -150.5t-124 -406.5zM584 238q137 -178 360 -179q238 0 354 195q96 162 97 387q0 219 -105 422z" />
<glyph unicode="&#xd9;" horiz-adv-x="1701" d="M27 1280v86h688v-86h-10q-106 0 -150 -43q-20 -20 -27.5 -50t-7.5 -100v-542q0 -113 9.5 -163t37.5 -99q47 -80 139.5 -124t215.5 -44q164 0 271 72.5t140 203.5q16 61 17 240v383q0 172 -45 219q-47 47 -156 47h-19v86h570v-86h-17q-113 0 -163 -51q-37 -39 -37 -191 v-407q0 -215 -41 -330q-119 -332 -590 -332q-244 0 -407.5 94.5t-206.5 262.5q-20 80 -21 227v534q0 127 -29 156q-37 37 -147 37h-14zM424 1851h395l236 -366h-164z" />
<glyph unicode="&#xda;" horiz-adv-x="1701" d="M27 1280v86h688v-86h-10q-106 0 -150 -43q-20 -20 -27.5 -50t-7.5 -100v-542q0 -113 9.5 -163t37.5 -99q47 -80 139.5 -124t215.5 -44q164 0 271 72.5t140 203.5q16 61 17 240v383q0 172 -45 219q-47 47 -156 47h-19v86h570v-86h-17q-113 0 -163 -51q-37 -39 -37 -191 v-407q0 -215 -41 -330q-119 -332 -590 -332q-244 0 -407.5 94.5t-206.5 262.5q-20 80 -21 227v534q0 127 -29 156q-37 37 -147 37h-14zM741 1483l240 368h383l-451 -368h-172z" />
<glyph unicode="&#xdb;" horiz-adv-x="1701" d="M27 1280v86h688v-86h-10q-106 0 -150 -43q-20 -20 -27.5 -50t-7.5 -100v-542q0 -113 9.5 -163t37.5 -99q47 -80 139.5 -124t215.5 -44q164 0 271 72.5t140 203.5q16 61 17 240v383q0 172 -45 219q-47 47 -156 47h-19v86h570v-86h-17q-113 0 -163 -51q-37 -39 -37 -191 v-407q0 -215 -41 -330q-119 -332 -590 -332q-244 0 -407.5 94.5t-206.5 262.5q-20 80 -21 227v534q0 127 -29 156q-37 37 -147 37h-14zM449 1485l243 366h395l244 -366h-217l-221 215l-231 -215h-213z" />
<glyph unicode="&#xdc;" horiz-adv-x="1701" d="M27 1280v86h688v-86h-10q-106 0 -150 -43q-20 -20 -27.5 -50t-7.5 -100v-542q0 -113 9.5 -163t37.5 -99q47 -80 139.5 -124t215.5 -44q164 0 271 72.5t140 203.5q16 61 17 240v383q0 172 -45 219q-47 47 -156 47h-19v86h570v-86h-17q-113 0 -163 -51q-37 -39 -37 -191 v-407q0 -215 -41 -330q-119 -332 -590 -332q-244 0 -407.5 94.5t-206.5 262.5q-20 80 -21 227v534q0 127 -29 156q-37 37 -147 37h-14zM475 1638q0 63 45 108.5t108.5 45.5t109.5 -46t46 -109.5t-45 -108.5t-108 -45q-66 0 -111 44.5t-45 110.5zM1026 1638q0 63 45 108.5 t109 45.5q66 0 110.5 -46t44.5 -109.5t-45 -108.5t-108.5 -45t-109.5 44.5t-46 110.5z" />
<glyph unicode="&#xdd;" horiz-adv-x="1619" d="M-6 1278v88h717v-88h-19q-131 0 -131 -59v-8q0 -3 2 -7t3 -7t6.5 -9t9.5 -12.5t13 -18.5l17 -22l324 -430l242 376q53 82 53 129q0 68 -119 68h-27v88h521v-88q-106 -8 -152.5 -42t-136.5 -173l-332 -514v-270q0 -76 9.5 -107t35.5 -51q43 -35 146 -35h34v-86h-751v86h33 q113 0 155 43q20 20 27.5 50t7.5 100v270l-428 567q-84 111 -111 131q-41 31 -135 31h-14zM700 1483l240 368h383l-451 -368h-172z" />
<glyph unicode="&#xde;" horiz-adv-x="1421" d="M51 1280v86h731v-86h-34q-104 0 -147.5 -33t-43.5 -112v-27q137 18 234 18q262 0 416.5 -115.5t154.5 -314.5q0 -188 -149.5 -301.5t-401.5 -113.5q-127 0 -254 22v-24q0 -76 9 -107t36 -51q43 -35 146 -35h67v-86h-747v86h34q102 0 134 41q18 29 18 137v838 q0 109 -18 137q-31 41 -134 41h-51zM557 393q70 -14 156 -14q154 0 236.5 85t82.5 242.5t-83 243.5t-234 86q-78 0 -158 -18v-625z" />
<glyph unicode="&#xdf;" horiz-adv-x="1241" d="M43 0v70h8q76 0 101 32q20 29 20 174v588q0 301 64 414q111 199 421 199q193 0 315 -93.5t122 -240.5q0 -127 -94.5 -223.5t-256.5 -133.5q117 -14 203 -57q221 -115 221 -336q0 -174 -138 -297t-335 -123q-20 0 -37 2v74q121 12 179.5 88t58.5 223q0 180 -78 284 t-219 114v69q231 8 231 275q0 152 -63 225q-63 70 -145 70q-98 0 -146 -101q-23 -47 -29 -104t-6 -203v-713q0 -152 23 -176q8 -10 34.5 -20t45.5 -10h8v-70h-508z" />
<glyph unicode="&#xe0;" horiz-adv-x="1013" d="M80 207q0 129 100 203q43 31 150 63q188 57 270 131v82q0 63 -39 105.5t-96 42.5q-119 0 -119 -132q0 -20 4 -38l-246 -86q-10 43 -10 73q0 125 142 199q143 72 278 72q86 0 175 -37t134 -90q49 -61 49 -181v-276q0 -147 9 -168q10 -35 41 -35q20 0 59 27l33 -51 q-53 -57 -125 -94t-125 -37q-125 0 -154 131l-22 -15l-31 -28q-96 -90 -221 -91q-119 0 -187.5 62t-68.5 168zM129 1436h354l162 -414h-129zM344 252q0 -68 31 -110t80 -42q47 0 149 90v316q-43 -35 -141 -80q-66 -33 -92.5 -70.5t-26.5 -103.5z" />
<glyph unicode="&#xe1;" horiz-adv-x="1013" d="M80 207q0 129 100 203q43 31 150 63q188 57 270 131v82q0 63 -39 105.5t-96 42.5q-119 0 -119 -132q0 -20 4 -38l-246 -86q-10 43 -10 73q0 125 142 199q143 72 278 72q86 0 175 -37t134 -90q49 -61 49 -181v-276q0 -147 9 -168q10 -35 41 -35q20 0 59 27l33 -51 q-53 -57 -125 -94t-125 -37q-125 0 -154 131l-22 -15l-31 -28q-96 -90 -221 -91q-119 0 -187.5 62t-68.5 168zM344 252q0 -68 31 -110t80 -42q47 0 149 90v316q-43 -35 -141 -80q-66 -33 -92.5 -70.5t-26.5 -103.5zM373 1022l162 414h346l-373 -414h-135z" />
<glyph unicode="&#xe2;" horiz-adv-x="1013" d="M80 207q0 129 100 203q43 31 150 63q188 57 270 131v82q0 63 -39 105.5t-96 42.5q-119 0 -119 -132q0 -20 4 -38l-246 -86q-10 43 -10 73q0 125 142 199q143 72 278 72q86 0 175 -37t134 -90q49 -61 49 -181v-276q0 -147 9 -168q10 -35 41 -35q20 0 59 27l33 -51 q-53 -57 -125 -94t-125 -37q-125 0 -154 131l-22 -15l-31 -28q-96 -90 -221 -91q-119 0 -187.5 62t-68.5 168zM154 1022l176 414h323l185 -414h-170l-174 231l-166 -231h-174zM344 252q0 -68 31 -110t80 -42q47 0 149 90v316q-43 -35 -141 -80q-66 -33 -92.5 -70.5 t-26.5 -103.5z" />
<glyph unicode="&#xe3;" horiz-adv-x="1013" d="M80 207q0 129 100 203q43 31 150 63q188 57 270 131v82q0 63 -39 105.5t-96 42.5q-119 0 -119 -132q0 -20 4 -38l-246 -86q-10 43 -10 73q0 125 142 199q143 72 278 72q86 0 175 -37t134 -90q49 -61 49 -181v-276q0 -147 9 -168q10 -35 41 -35q20 0 59 27l33 -51 q-53 -57 -125 -94t-125 -37q-125 0 -154 131l-22 -15l-31 -28q-96 -90 -221 -91q-119 0 -187.5 62t-68.5 168zM90 1067q0 145 67.5 235.5t176.5 90.5q74 0 180 -62q96 -53 139 -53q76 0 103 111h141q-6 -137 -74.5 -229.5t-165.5 -92.5q-41 0 -79.5 13.5t-131.5 60.5 q-80 41 -114 41q-74 0 -103 -115h-139zM344 252q0 -68 31 -110t80 -42q47 0 149 90v316q-43 -35 -141 -80q-66 -33 -92.5 -70.5t-26.5 -103.5z" />
<glyph unicode="&#xe4;" horiz-adv-x="1013" d="M80 207q0 129 100 203q43 31 150 63q188 57 270 131v82q0 63 -39 105.5t-96 42.5q-119 0 -119 -132q0 -20 4 -38l-246 -86q-10 43 -10 73q0 125 142 199q143 72 278 72q86 0 175 -37t134 -90q49 -61 49 -181v-276q0 -147 9 -168q10 -35 41 -35q20 0 59 27l33 -51 q-53 -57 -125 -94t-125 -37q-125 0 -154 131l-22 -15l-31 -28q-96 -90 -221 -91q-119 0 -187.5 62t-68.5 168zM147 1229q0 53 39 91t92.5 38t92.5 -39t39 -92t-39 -92t-92.5 -39t-92.5 39t-39 94zM344 252q0 -68 31 -110t80 -42q47 0 149 90v316q-43 -35 -141 -80 q-66 -33 -92.5 -70.5t-26.5 -103.5zM573 1229q0 53 39 91t92.5 38t92.5 -39t39 -92t-39 -92t-92.5 -39t-92.5 39t-39 94z" />
<glyph unicode="&#xe5;" horiz-adv-x="1013" d="M80 207q0 129 100 203q43 31 150 63q188 57 270 131v82q0 63 -39 105.5t-96 42.5q-119 0 -119 -132q0 -20 4 -38l-246 -86q-10 43 -10 73q0 125 142 199q143 72 278 72q86 0 175 -37t134 -90q49 -61 49 -181v-276q0 -147 9 -168q10 -35 41 -35q20 0 59 27l33 -51 q-53 -57 -125 -94t-125 -37q-125 0 -154 131l-22 -15l-31 -28q-96 -90 -221 -91q-119 0 -187.5 62t-68.5 168zM303 1245q0 86 63.5 148.5t149.5 62.5q88 0 149.5 -61.5t61.5 -149.5t-62.5 -150.5t-148.5 -62.5q-90 0 -151.5 61.5t-61.5 151.5zM344 252q0 -68 31 -110t80 -42 q47 0 149 90v316q-43 -35 -141 -80q-66 -33 -92.5 -70.5t-26.5 -103.5zM383 1245q0 -57 39 -97t94 -40t95 40t40 97q0 55 -39 95t-94 40t-95 -40t-40 -95z" />
<glyph unicode="&#xe6;" horiz-adv-x="1525" d="M82 207q0 145 115 213q59 37 161 65q147 39 234 107q4 29 4 55q0 84 -38 135.5t-101 51.5q-49 0 -80 -33t-31 -84q0 -4 1 -9.5t3 -13.5t4 -18l2 -12l-252 -89q-8 31 -8 58q0 121 88 184q147 102 328 103q162 0 264 -84q100 86 260 86q172 0 283 -101q66 -61 88 -174 q23 -100 51 -135v-35h-600q16 -158 89 -247t186 -89q133 0 262 154l43 -53q-86 -117 -216 -191t-249 -74q-94 0 -185.5 41t-154.5 111q-156 -150 -309 -149q-111 0 -176.5 62.5t-65.5 164.5zM342 250q0 -63 29.5 -106.5t74.5 -43.5q78 0 146 84v308q-78 -49 -121 -68 q-74 -33 -94 -59q-35 -41 -35 -115zM858 547h309q-10 109 -22 147q-39 125 -135 125q-72 0 -112 -71.5t-40 -200.5z" />
<glyph unicode="&#xe7;" horiz-adv-x="1052" d="M76 412q0 215 163.5 362.5t403.5 147.5q143 0 238.5 -53.5t95.5 -133.5q0 -49 -31 -79.5t-82 -30.5q-49 0 -81.5 20.5t-102.5 95.5q-70 78 -127 78q-82 0 -132 -92t-50 -242q0 -176 75.5 -285.5t196.5 -109.5q143 0 279 158l63 -37q-123 -195 -373 -229l-30 -54 q63 -16 98 -62t35 -112q0 -88 -63.5 -145.5t-159.5 -57.5q-102 0 -191 52l21 65q55 -25 122 -24q39 0 68 26.5t29 63.5q0 76 -125 84l114 159q-203 4 -328.5 125.5t-125.5 309.5z" />
<glyph unicode="&#xe8;" horiz-adv-x="1036" d="M76 428q0 215 132 353.5t339 138.5q109 0 194.5 -44.5t130.5 -121.5q33 -53 54 -160q8 -49 43 -70v-49h-613q10 -139 91 -237.5t188 -98.5q115 0 264 158l49 -43q-94 -131 -219 -204t-252 -73q-178 0 -289.5 125t-111.5 326zM168 1436h354l162 -414h-129zM352 545h314 q-2 127 -43 198.5t-113 71.5q-70 0 -114 -67.5t-44 -174.5v-28z" />
<glyph unicode="&#xe9;" horiz-adv-x="1036" d="M76 428q0 215 132 353.5t339 138.5q109 0 194.5 -44.5t130.5 -121.5q33 -53 54 -160q8 -49 43 -70v-49h-613q10 -139 91 -237.5t188 -98.5q115 0 264 158l49 -43q-94 -131 -219 -204t-252 -73q-178 0 -289.5 125t-111.5 326zM344 1022l162 414h346l-373 -414h-135z M352 545h314q-2 127 -43 198.5t-113 71.5q-70 0 -114 -67.5t-44 -174.5v-28z" />
<glyph unicode="&#xea;" horiz-adv-x="1036" d="M76 428q0 215 132 353.5t339 138.5q109 0 194.5 -44.5t130.5 -121.5q33 -53 54 -160q8 -49 43 -70v-49h-613q10 -139 91 -237.5t188 -98.5q115 0 264 158l49 -43q-94 -131 -219 -204t-252 -73q-178 0 -289.5 125t-111.5 326zM166 1022l176 414h324l184 -414h-170 l-174 231l-166 -231h-174zM352 545h314q-2 127 -43 198.5t-113 71.5q-70 0 -114 -67.5t-44 -174.5v-28z" />
<glyph unicode="&#xeb;" horiz-adv-x="1036" d="M76 428q0 215 132 353.5t339 138.5q109 0 194.5 -44.5t130.5 -121.5q33 -53 54 -160q8 -49 43 -70v-49h-613q10 -139 91 -237.5t188 -98.5q115 0 264 158l49 -43q-94 -131 -219 -204t-252 -73q-178 0 -289.5 125t-111.5 326zM174 1229q0 53 39 91t92 38t92 -39t39 -92 t-39 -92t-92 -39t-92 39t-39 94zM352 545h314q-2 127 -43 198.5t-113 71.5q-70 0 -114 -67.5t-44 -174.5v-28zM600 1229q0 53 39 91t92 38t92 -39t39 -92t-39 -92t-92 -39t-92 39t-39 94z" />
<glyph unicode="&#xec;" horiz-adv-x="628" d="M-90 1436h354l162 -414h-129zM33 774v53l375 123h41v-706q0 -104 24 -135q35 -39 96 -39h15v-70h-549v70h22q68 0 95.5 34.5t27.5 118.5v414q0 57 -11 71.5t-65 36.5z" />
<glyph unicode="&#xed;" horiz-adv-x="628" d="M33 774v53l375 123h41v-706q0 -104 24 -135q35 -39 96 -39h15v-70h-549v70h22q68 0 95.5 34.5t27.5 118.5v414q0 57 -11 71.5t-65 36.5zM141 1022l162 414h346l-373 -414h-135z" />
<glyph unicode="&#xee;" horiz-adv-x="628" d="M-66 1022l177 414h323l184 -414h-169l-175 231l-165 -231h-175zM33 774v53l375 123h41v-706q0 -104 24 -135q35 -39 96 -39h15v-70h-549v70h22q68 0 95.5 34.5t27.5 118.5v414q0 57 -11 71.5t-65 36.5z" />
<glyph unicode="&#xef;" horiz-adv-x="628" d="M-12 1229q0 53 39 91t92 38t92 -39t39 -92t-39 -92t-92 -39t-92 39t-39 94zM33 774v53l375 123h41v-706q0 -104 24 -135q35 -39 96 -39h15v-70h-549v70h22q68 0 95.5 34.5t27.5 118.5v414q0 57 -11 71.5t-65 36.5zM332 1229q0 53 39 91t92 38t92 -39t39 -92t-39 -92 t-92 -39t-92 39t-39 94z" />
<glyph unicode="&#xf0;" horiz-adv-x="1216" d="M76 432q0 195 154.5 342.5t357.5 147.5q70 0 149 -29q-33 176 -133 313l-223 -145l-41 63l215 140q-55 63 -154 143l45 61q55 -25 222 -122l223 145l41 -64l-199 -129q96 -76 149.5 -133t104.5 -135q156 -244 156 -510q0 -254 -152 -399q-150 -143 -399 -144 q-184 0 -313 86q-94 63 -148.5 163t-54.5 206zM365 559q0 -133 40.5 -253t108.5 -185q57 -57 139 -58q96 0 151.5 73t55.5 202q0 215 -82 354t-207 139q-100 0 -153 -70.5t-53 -201.5z" />
<glyph unicode="&#xf1;" horiz-adv-x="1257" d="M31 764v55l377 125h41v-196q45 31 100 61q193 111 307 111q150 0 199 -138q31 -84 30 -239v-267q0 -139 17 -165q20 -41 100 -41h10v-70h-520v70q74 10 99.5 68.5t25.5 219.5v131q0 139 -31.5 202t-103.5 63q-86 0 -233 -97v-413q0 -104 24 -135q35 -39 96 -39h31v-70 h-559v70h14q70 0 97.5 34.5t27.5 118.5v441q0 59 -119 92zM213 1067q0 145 67.5 235.5t176.5 90.5q74 0 180 -62q96 -53 139 -53q76 0 103 111h141q-6 -137 -74.5 -229.5t-165.5 -92.5q-41 0 -79.5 13.5t-131.5 60.5q-80 41 -114 41q-74 0 -103 -115h-139z" />
<glyph unicode="&#xf2;" horiz-adv-x="1220" d="M76 442q0 201 159.5 340.5t391.5 139.5q227 0 373.5 -129t146.5 -328q0 -211 -158 -349.5t-399 -138.5q-225 0 -369.5 130t-144.5 335zM262 1436h354l162 -414h-129zM367 567q0 -174 71 -334q76 -166 221 -165q92 0 144.5 71.5t52.5 200.5q0 213 -80 351t-205 138 q-96 0 -150 -69.5t-54 -192.5z" />
<glyph unicode="&#xf3;" horiz-adv-x="1220" d="M76 442q0 201 159.5 340.5t391.5 139.5q227 0 373.5 -129t146.5 -328q0 -211 -158 -349.5t-399 -138.5q-225 0 -369.5 130t-144.5 335zM367 567q0 -174 71 -334q76 -166 221 -165q92 0 144.5 71.5t52.5 200.5q0 213 -80 351t-205 138q-96 0 -150 -69.5t-54 -192.5z M436 1022l162 414h346l-373 -414h-135z" />
<glyph unicode="&#xf4;" horiz-adv-x="1220" d="M76 442q0 201 159.5 340.5t391.5 139.5q227 0 373.5 -129t146.5 -328q0 -211 -158 -349.5t-399 -138.5q-225 0 -369.5 130t-144.5 335zM281 1022l176 414h323l185 -414h-170l-174 231l-166 -231h-174zM367 567q0 -174 71 -334q76 -166 221 -165q92 0 144.5 71.5 t52.5 200.5q0 213 -80 351t-205 138q-96 0 -150 -69.5t-54 -192.5z" />
<glyph unicode="&#xf5;" horiz-adv-x="1220" d="M76 442q0 201 159.5 340.5t391.5 139.5q227 0 373.5 -129t146.5 -328q0 -211 -158 -349.5t-399 -138.5q-225 0 -369.5 130t-144.5 335zM215 1067q0 145 67.5 235.5t176.5 90.5q74 0 180 -62q96 -53 139 -53q76 0 103 111h141q-6 -137 -74.5 -229.5t-165.5 -92.5 q-41 0 -79.5 13.5t-131.5 60.5q-80 41 -114 41q-74 0 -103 -115h-139zM367 567q0 -174 71 -334q76 -166 221 -165q92 0 144.5 71.5t52.5 200.5q0 213 -80 351t-205 138q-96 0 -150 -69.5t-54 -192.5z" />
<glyph unicode="&#xf6;" horiz-adv-x="1220" d="M76 442q0 201 159.5 340.5t391.5 139.5q227 0 373.5 -129t146.5 -328q0 -211 -158 -349.5t-399 -138.5q-225 0 -369.5 130t-144.5 335zM266 1229q0 53 39 91t92.5 38t92 -39t38.5 -92t-38.5 -92t-92 -39t-92.5 39t-39 94zM367 567q0 -174 71 -334q76 -166 221 -165 q92 0 144.5 71.5t52.5 200.5q0 213 -80 351t-205 138q-96 0 -150 -69.5t-54 -192.5zM692 1229q0 53 39 91t92.5 38t92 -39t38.5 -92t-38.5 -92t-92 -39t-92.5 39t-39 94z" />
<glyph unicode="&#xf7;" d="M113 596v123h874v-123h-874zM438 315q0 47 33 80t80 33q45 0 78 -33t33 -80q0 -45 -33 -77.5t-78 -32.5t-79 32.5t-34 77.5zM438 997q0 47 33 80t80 33q45 0 78 -33t33 -80q0 -45 -33 -77.5t-78 -32.5t-79 32.5t-34 77.5z" />
<glyph unicode="&#xf8;" horiz-adv-x="1220" d="M76 436q0 207 157.5 346.5t391.5 139.5q158 0 282 -66l142 166l61 -55l-133 -156q170 -135 170 -346q0 -207 -158 -347.5t-389 -140.5q-162 0 -285 64l-122 -141l-62 49l115 135q-170 131 -170 352zM367 569q0 -154 51 -286l354 415q-72 131 -201 131q-96 0 -150 -69.5 t-54 -190.5zM455 203q76 -135 202 -135q94 0 146.5 70.5t52.5 201.5q0 147 -45 276z" />
<glyph unicode="&#xf9;" horiz-adv-x="1251" d="M88 791v49l315 80h46v-482q0 -186 34 -235q37 -59 109 -60q78 0 221 90v398q0 63 -15.5 86.5t-64.5 40.5l-100 30v52l448 80v-672q0 -84 12.5 -108.5t53.5 -24.5q33 0 63 14v-68l-354 -84h-43v175q-274 -174 -395 -175q-238 0 -238 334v334q0 63 -8 86t-39 37zM236 1436 h354l162 -414h-129z" />
<glyph unicode="&#xfa;" horiz-adv-x="1251" d="M88 791v49l315 80h46v-482q0 -186 34 -235q37 -59 109 -60q78 0 221 90v398q0 63 -15.5 86.5t-64.5 40.5l-100 30v52l448 80v-672q0 -84 12.5 -108.5t53.5 -24.5q33 0 63 14v-68l-354 -84h-43v175q-274 -174 -395 -175q-238 0 -238 334v334q0 63 -8 86t-39 37zM494 1022 l161 414h346l-372 -414h-135z" />
<glyph unicode="&#xfb;" horiz-adv-x="1251" d="M88 791v49l315 80h46v-482q0 -186 34 -235q37 -59 109 -60q78 0 221 90v398q0 63 -15.5 86.5t-64.5 40.5l-100 30v52l448 80v-672q0 -84 12.5 -108.5t53.5 -24.5q33 0 63 14v-68l-354 -84h-43v175q-274 -174 -395 -175q-238 0 -238 334v334q0 63 -8 86t-39 37zM274 1022 l177 414h323l184 -414h-170l-174 231l-165 -231h-175z" />
<glyph unicode="&#xfc;" horiz-adv-x="1251" d="M88 791v49l315 80h46v-482q0 -186 34 -235q37 -59 109 -60q78 0 221 90v398q0 63 -15.5 86.5t-64.5 40.5l-100 30v52l448 80v-672q0 -84 12.5 -108.5t53.5 -24.5q33 0 63 14v-68l-354 -84h-43v175q-274 -174 -395 -175q-238 0 -238 334v334q0 63 -8 86t-39 37zM283 1229 q0 53 38.5 91t92 38t92.5 -39t39 -92t-39 -92t-92.5 -39t-92 39t-38.5 94zM709 1229q0 53 38.5 91t92 38t92.5 -39t39 -92t-39 -92t-92.5 -39t-92 39t-38.5 94z" />
<glyph unicode="&#xfd;" horiz-adv-x="1112" d="M-12 827v70h561v-70h-17q-96 0 -96 -67q0 -27 29 -84l174 -359l168 338q23 45 22 78q0 41 -36.5 66.5t-100.5 27.5v70h410v-70q-74 -16 -111 -49t-82 -127l-442 -905q-66 -133 -96 -174q-61 -84 -152 -84q-59 0 -98 36t-39 89q0 129 166 141q127 6 190 148l56 121 l-299 604q-63 127 -98 161.5t-109 38.5zM463 1022l162 414h346l-373 -414h-135z" />
<glyph unicode="&#xfe;" horiz-adv-x="1245" d="M35 -430h24q76 0 101 47q20 33 20 160v1384q0 82 -61 105l-80 28v56l352 118h58v-733q133 109 207.5 147t156.5 38q152 0 255 -119t103 -295q0 -229 -155 -391q-133 -137 -350 -138q-98 0 -217 27v-221q0 -125 41.5 -165t175.5 -48v-70h-631v70zM449 164 q100 -106 223 -107q100 0 164.5 90.5t64.5 233.5q0 166 -65.5 270.5t-167.5 104.5q-94 0 -219 -113v-479z" />
<glyph unicode="&#xff;" horiz-adv-x="1112" d="M-12 827v70h561v-70h-17q-96 0 -96 -67q0 -27 29 -84l174 -359l168 338q23 45 22 78q0 41 -36.5 66.5t-100.5 27.5v70h410v-70q-74 -16 -111 -49t-82 -127l-442 -905q-66 -133 -96 -174q-61 -84 -152 -84q-59 0 -98 36t-39 89q0 129 166 141q127 6 190 148l56 121 l-299 604q-63 127 -98 161.5t-109 38.5zM225 1229q0 53 39 91t92.5 38t92 -39t38.5 -92t-38.5 -92t-92 -39t-92.5 39t-39 94zM651 1229q0 53 39 91t92.5 38t92 -39t38.5 -92t-38.5 -92t-92 -39t-92.5 39t-39 94z" />
<glyph unicode="&#x152;" horiz-adv-x="2322" d="M94 682q0 164 72 310.5t199 244.5q190 147 487 147q45 0 186 -10q106 -8 248 -8h875l16 -322h-86q-23 145 -58.5 173t-195.5 28h-324v-497h250q119 0 157 29.5t46 125.5h86v-436h-88q0 96 -41 128t-166 32h-244v-506h367q104 0 152.5 17.5t76.5 64.5q35 57 52 149h88 l-31 -352h-1143q-78 0 -136 -5t-81 -5q-381 0 -579 217q-185 203 -185 475zM422 733q0 -266 154.5 -454.5t371.5 -188.5q84 0 147.5 39t86.5 102q29 76 28 250v490q0 162 -43 221q-70 98 -252 98q-223 0 -358 -152.5t-135 -404.5z" />
<glyph unicode="&#x153;" horiz-adv-x="1699" d="M74 446.5q0 200.5 149.5 336t370.5 135.5q195 0 336 -101q137 102 291 103q164 0 262 -93q66 -59 102 -186q18 -61 21 -66l6 -14l20 -35v-49h-567q16 -150 89 -238.5t175 -88.5q123 0 240 135l53 -52q-80 -115 -203 -183t-250 -68q-135 0 -266 92q-172 -98 -338 -99 q-209 0 -350 135.5t-141 336zM354 575q0 -195 99 -385q59 -121 174 -120q86 0 137 65.5t51 175.5q0 88 -23.5 195.5t-58.5 175.5q-31 63 -83 100t-109 37q-84 0 -135.5 -66.5t-51.5 -177.5zM1063 547h278q-4 129 -39.5 201.5t-99.5 72.5q-47 0 -82 -35.5t-47 -99.5 q-10 -43 -10 -139z" />
<glyph unicode="&#x178;" horiz-adv-x="1619" d="M-6 1278v88h717v-88h-19q-131 0 -131 -59v-8q0 -3 2 -7t3 -7t6.5 -9t9.5 -12.5t13 -18.5l17 -22l324 -430l242 376q53 82 53 129q0 68 -119 68h-27v88h521v-88q-106 -8 -152.5 -42t-136.5 -173l-332 -514v-270q0 -76 9.5 -107t35.5 -51q43 -35 146 -35h34v-86h-751v86h33 q113 0 155 43q20 20 27.5 50t7.5 100v270l-428 567q-84 111 -111 131q-41 31 -135 31h-14zM420 1638q0 63 45 108.5t108 45.5q66 0 111 -46t45 -109.5t-45 -108.5t-108.5 -45t-109.5 44.5t-46 110.5zM971 1638q0 63 45 108.5t108.5 45.5t109.5 -46t46 -109.5t-45 -108.5 t-109 -45q-66 0 -110.5 44.5t-44.5 110.5z" />
<glyph unicode="&#x2c6;" horiz-adv-x="1024" d="M160 1022l176 414h323l185 -414h-170l-174 231l-166 -231h-174z" />
<glyph unicode="&#x2dc;" horiz-adv-x="1024" d="M96 1067q0 145 67.5 235.5t176.5 90.5q74 0 180 -62q96 -53 139 -53q76 0 103 111h141q-6 -137 -74.5 -229.5t-164.5 -92.5q-41 0 -80 13.5t-131 60.5q-80 41 -115 41q-74 0 -102 -115h-140z" />
<glyph unicode="&#x2000;" horiz-adv-x="925" />
<glyph unicode="&#x2001;" horiz-adv-x="1851" />
<glyph unicode="&#x2002;" horiz-adv-x="925" />
<glyph unicode="&#x2003;" horiz-adv-x="1851" />
<glyph unicode="&#x2004;" horiz-adv-x="616" />
<glyph unicode="&#x2005;" horiz-adv-x="462" />
<glyph unicode="&#x2006;" horiz-adv-x="307" />
<glyph unicode="&#x2007;" horiz-adv-x="307" />
<glyph unicode="&#x2008;" horiz-adv-x="231" />
<glyph unicode="&#x2009;" horiz-adv-x="368" />
<glyph unicode="&#x200a;" horiz-adv-x="102" />
<glyph unicode="&#x2010;" horiz-adv-x="915" d="M80 336v219h760v-219h-760z" />
<glyph unicode="&#x2011;" horiz-adv-x="915" d="M80 336v219h760v-219h-760z" />
<glyph unicode="&#x2013;" d="M-12 451v198h1124v-198h-1124z" />
<glyph unicode="&#x2014;" horiz-adv-x="2197" d="M-12 451v198h2222v-198h-2222z" />
<glyph unicode="&#x2018;" horiz-adv-x="686" d="M147 1059q0 145 99.5 243.5t247.5 98.5q8 0 14 -2l16 -92q-104 -8 -171.5 -58.5t-67.5 -122.5q0 -35 32 -34q4 0 31 4q29 4 43 4q74 0 119 -40t45 -105.5t-47 -106.5t-125 -41q-106 0 -171 68.5t-65 183.5z" />
<glyph unicode="&#x2019;" horiz-adv-x="618" d="M100 1253.5q0 65.5 47.5 106.5t124.5 41q106 0 171 -68.5t65 -183.5q0 -147 -97.5 -244.5t-248.5 -97.5h-15l-18 92q106 8 174 59.5t68 122.5q0 35 -33 35q-4 0 -31 -4q-29 -4 -43 -4q-74 0 -119 40t-45 105.5z" />
<glyph unicode="&#x201a;" horiz-adv-x="686" d="M135 124.5q0 65.5 47 106.5t125 41q106 0 171 -68.5t65 -183.5q0 -145 -99.5 -243.5t-246.5 -98.5h-15l-18 95q106 8 174 58t68 122q0 35 -33 35q-4 0 -31 -4q-29 -4 -43 -4q-74 0 -119 39.5t-45 105z" />
<glyph unicode="&#x201c;" horiz-adv-x="1282" d="M141 1059q0 145 99.5 243.5t246.5 98.5q8 0 15 -2l16 -92q-104 -8 -171.5 -58.5t-67.5 -122.5q0 -35 32 -34q4 0 31 4q29 4 43 4q74 0 119 -40t45 -105.5t-47 -106.5t-125 -41q-106 0 -171 68.5t-65 183.5zM748 1059q0 145 99 243.5t247 98.5q6 0 12 -2l18 -92 q-106 -8 -172.5 -58.5t-66.5 -122.5q0 -35 33 -34q4 0 30 4q29 4 41 4q76 0 120 -40t44 -105.5t-47 -106.5t-125 -41q-106 0 -169.5 68.5t-63.5 183.5z" />
<glyph unicode="&#x201d;" horiz-adv-x="1282" d="M129 1253.5q0 65.5 47 106.5t125 41q106 0 171 -68.5t65 -183.5q0 -147 -97.5 -244.5t-249.5 -97.5h-14l-18 92q106 8 173.5 59.5t67.5 122.5q0 35 -32 35q-4 0 -31 -4q-29 -4 -43 -4q-74 0 -119 40t-45 105.5zM737 1253.5q0 65.5 47 106.5t125 41q106 0 170 -68.5 t64 -183.5q0 -147 -97.5 -244.5t-248.5 -97.5h-13l-18 92q104 8 172 59.5t68 122.5q0 35 -33 35q-4 0 -31 -4q-25 -4 -41 -4q-76 0 -120 40t-44 105.5z" />
<glyph unicode="&#x201e;" horiz-adv-x="1282" d="M127 124.5q0 65.5 47 106.5t125 41q106 0 171 -68.5t65 -183.5q0 -145 -99.5 -243.5t-247.5 -98.5h-14l-18 95q106 8 173.5 58t67.5 122q0 35 -32 35q-4 0 -31 -4q-29 -4 -43 -4q-74 0 -119 39.5t-45 105zM735 124.5q0 65.5 47 106.5t125 41q106 0 170 -68.5t64 -183.5 q0 -145 -99.5 -243.5t-246.5 -98.5h-13l-18 95q104 6 172 57t68 123q0 35 -33 35q-4 0 -31 -4q-25 -4 -41 -4q-76 0 -120 39.5t-44 105z" />
<glyph unicode="&#x2022;" horiz-adv-x="1366" d="M401 692q0 119 84 202t205 83q113 0 196 -84t83 -199q0 -119 -83 -201.5t-200 -82.5t-201 82.5t-84 199.5z" />
<glyph unicode="&#x2026;" horiz-adv-x="2060" d="M166 124.5q0 63.5 51 105.5t125 42q76 0 126 -41t50 -104.5t-52 -106.5t-130 -43q-72 0 -121 42t-49 105.5zM852 124.5q0 63.5 51 105.5t127 42t126 -41t50 -104.5t-52 -106.5t-130 -43q-74 0 -123 42t-49 105.5zM1538 124.5q0 63.5 51 105.5t127 42t126 -41t50 -104.5 t-52 -106.5t-130 -43q-74 0 -123 42t-49 105.5z" />
<glyph unicode="&#x202f;" horiz-adv-x="368" />
<glyph unicode="&#x2039;" horiz-adv-x="548" d="M47 483l369 414h73l-180 -414l180 -407h-73z" />
<glyph unicode="&#x203a;" horiz-adv-x="548" d="M55 76l176 409l-176 412h70l369 -412l-367 -409h-72z" />
<glyph unicode="&#x205f;" horiz-adv-x="462" />
<glyph unicode="&#x20ac;" horiz-adv-x="1746" d="M94 569l35 84h98q-2 16 -2 26.5t2 27.5h-133l35 84h107q49 268 283.5 439t549.5 171q172 0 350 -72q51 -20 72 -20q27 0 43 22h53l21 -385h-86q-53 164 -166 253t-271 89q-215 0 -356 -134t-170 -363h719l-35 -84h-688q0 -43 2 -54h666l-37 -84h-619q39 -219 190.5 -356 t352.5 -137q152 0 271.5 83t185.5 234h88q-8 -74 -48 -198.5t-77 -200.5q-59 16 -127 16q-45 0 -189 -24q-104 -16 -190 -17q-301 0 -520 167t-268 433h-142z" />
<glyph unicode="&#x2122;" horiz-adv-x="2238" d="M68 1143l22 243h51q16 -16 29 -18q10 -2 61 -2h576q47 0 63 20h50l24 -243h-63q-23 102 -43.5 124.5t-92.5 22.5h-145v-540q0 -63 19.5 -82t85.5 -19h38v-61h-477v61h39q66 0 85.5 18.5t19.5 82.5v540h-127q-84 0 -107.5 -22.5t-42.5 -124.5h-65zM1038 588v61h9 q61 0 77.5 19.5t22.5 105.5l31 473q2 31 -17.5 42t-70.5 16v61h282l248 -508l235 508h287v-61l-22 -2q-49 -4 -60.5 -11.5t-11.5 -38.5q0 -23 2 -34l31 -455q4 -78 19.5 -93.5t92.5 -21.5v-61h-417v61h28q57 0 74.5 14.5t17.5 61.5q0 12 -2 55l-28 410l-281 -602h-39 l-286 588l-29 -412v-41q0 -41 21.5 -57.5t78.5 -16.5h6v-61h-299z" />
</font>
</defs>
</svg>
