<?xml version="1.0" standalone="no"?>
<!DOCTYPE svg PUBLIC "-//W3C//DTD SVG 1.1//EN" "http://www.w3.org/Graphics/SVG/1.1/DTD/svg11.dtd" >
<svg xmlns="http://www.w3.org/2000/svg">
<metadata>Generated by IcoMoon</metadata>
<defs>
<font id="the_grid" horiz-adv-x="1024">
<font-face units-per-em="1024" ascent="960" descent="-64" />
<missing-glyph horiz-adv-x="1024" />
<glyph unicode="&#x20;" horiz-adv-x="512" d="" />
<glyph unicode="&#xe600;" glyph-name="arrow-down" d="M961.728 489.129l-424-423.424q-10.848-10.848-25.696-10.848t-25.696 10.848l-424 423.424q-10.848 10.848-10.848 26.016t10.848 26.016l94.88 94.272q10.848 10.848 25.696 10.848t25.696-10.848l303.424-303.424 303.424 303.424q10.848 10.848 25.696 10.848t25.696-10.848l94.88-94.272q10.848-10.848 10.848-26.016t-10.848-26.016z" />
<glyph unicode="&#xe601;" glyph-name="arrow-next" d="M263.424-10.871l-94.272 94.88q-10.848 10.848-10.848 25.696t10.848 25.696l303.424 303.424-303.424 303.424q-10.848 10.848-10.848 25.696t10.848 25.696l94.272 94.88q10.848 10.848 26.016 10.848t26.016-10.848l423.424-424q10.848-10.848 10.848-25.696t-10.848-25.696l-423.424-424q-10.848-10.848-26.016-10.848t-26.016 10.848z" />
<glyph unicode="&#xe602;" glyph-name="arrow-next-thin" d="M363.328 123.529l-22.624 22.624 292.672 292.672-292.672 292.672 22.624 22.624 315.328-315.328z" />
<glyph unicode="&#xe603;" glyph-name="arrow-prev" d="M562.272-10.871l-423.424 424q-10.848 10.848-10.848 25.696t10.848 25.696l423.424 424q10.848 10.848 26.016 10.848t26.016-10.848l94.272-94.88q10.848-10.848 10.848-25.696t-10.848-25.696l-303.424-303.424 303.424-303.424q10.848-10.848 10.848-25.696t-10.848-25.696l-94.272-94.88q-10.848-10.848-26.016-10.848t-26.016 10.848z" />
<glyph unicode="&#xe604;" glyph-name="arrow-prev-thin" d="M628.672 123.529l-315.328 315.328 315.328 315.328 22.624-22.624-292.672-292.672 292.672-292.672z" />
<glyph unicode="&#xe605;" glyph-name="arrows-diagonal" d="M144 310.857c-8.8 0-16-7.2-16-16v-224c0-2.080 0.48-4.16 1.28-6.080 1.6-3.84 4.8-7.040 8.64-8.64 1.92-0.8 4-1.28 6.080-1.28h224c8.8 0 16 7.2 16 16s-7.2 16-16 16h-185.44l681.44 681.44v-185.44c0-8.8 7.2-16 16-16s16 7.2 16 16v224c0 2.080-0.48 4.16-1.28 6.080-1.6 3.84-4.8 7.040-8.64 8.64-1.92 0.8-4 1.28-6.080 1.28h-224c-8.8 0-16-7.2-16-16s7.2-16 16-16h185.44l-681.44-681.44v185.44c0 8.8-7.2 16-16 16z" />
<glyph unicode="&#xe606;" glyph-name="settings" d="M992 822.857h-448c-19.2 0-32-12.8-32-32s12.8-32 32-32h448c19.2 0 32 12.8 32 32s-12.8 32-32 32zM256 630.857h160c19.2 0 32 12.8 32 32v256c0 19.2-12.8 32-32 32h-160c-19.2 0-32-12.8-32-32v-96h-192c-19.2 0-32-12.8-32-32s12.8-32 32-32h192v-96c0-19.2 12.8-32 32-32zM288 886.857h96v-192h-96v192zM992 118.857h-448c-19.2 0-32-12.8-32-32s12.8-32 32-32h448c19.2 0 32 12.8 32 32s-12.8 32-32 32zM32 54.857h192v-96c0-19.2 12.8-32 32-32h160c19.2 0 32 12.8 32 32v256c0 19.2-12.8 32-32 32h-160c-19.2 0-32-12.8-32-32v-96h-192c-19.2 0-32-12.8-32-32s12.8-32 32-32zM288 182.857h96v-192h-96v192zM992 470.857h-96c-19.2 0-32-12.8-32-32s12.8-32 32-32h96c19.2 0 32 12.8 32 32s-12.8 32-32 32zM32 406.857h544v-96c0-19.2 12.8-32 32-32h160c19.2 0 32 12.8 32 32v256c0 19.2-12.8 32-32 32h-160c-19.2 0-32-12.8-32-32v-96h-544c-19.2 0-32-12.8-32-32s12.8-32 32-32zM640 534.857h96v-192h-96v192z" />
<glyph unicode="&#xe607;" glyph-name="arrows-out" d="M112 630.857c8.8 0 16 7.2 16 16v153.44l260.64-260.64c3.2-3.2 7.2-4.8 11.36-4.8s8.16 1.6 11.36 4.64c6.24 6.24 6.24 16.32 0 22.56l-260.8 260.8h153.44c8.8 0 16 7.2 16 16s-7.2 16-16 16h-192c-2.080 0-4.16-0.48-6.080-1.28-4-1.6-7.040-4.8-8.64-8.64-0.8-1.92-1.28-4-1.28-6.080v-192c0-8.8 7.2-16 16-16zM720 854.857c-8.8 0-16-7.2-16-16s7.2-16 16-16h153.44l-260.8-260.64c-6.24-6.24-6.24-16.32 0-22.56 3.2-3.2 7.2-4.8 11.36-4.8s8.16 1.6 11.36 4.64l260.64 260.8v-153.44c0-8.8 7.2-16 16-16s16 7.2 16 16v192c0 2.080-0.48 4.16-1.28 6.080-1.6 3.84-4.8 7.040-8.64 8.64-1.92 0.8-4 1.28-6.080 1.28h-192zM105.92 24.137c1.92-0.8 4-1.28 6.080-1.28h192c8.8 0 16 7.2 16 16s-7.2 16-16 16h-153.44l260.64 260.64c6.24 6.24 6.24 16.32 0 22.56s-16.32 6.24-22.56 0l-260.64-260.64v153.44c0 8.8-7.2 16-16 16s-16-7.2-16-16v-192c0-2.080 0.48-4.16 1.28-6.080 1.6-4 4.64-7.040 8.64-8.64zM704 38.857c0-8.8 7.2-16 16-16h192c2.080 0 4.16 0.48 6.080 1.28 4 1.6 7.040 4.8 8.64 8.64 0.8 1.92 1.28 4 1.28 6.080v192c0 8.8-7.2 16-16 16s-16-7.2-16-16v-153.44l-260.64 260.8c-6.24 6.24-16.32 6.24-22.56 0s-6.24-16.32 0-22.56l260.64-260.8h-153.44c-8.8 0-16-7.2-16-16z" />
<glyph unicode="&#xe608;" glyph-name="arrow-up" d="M961.728 190.281l-94.88-94.272q-10.848-10.848-25.696-10.848t-25.696 10.848l-303.424 303.424-303.424-303.424q-10.848-10.848-25.696-10.848t-25.696 10.848l-94.88 94.272q-10.848 10.848-10.848 26.016t10.848 26.016l424 423.424q10.848 10.848 25.696 10.848t25.696-10.848l424-423.424q10.848-10.848 10.848-26.016t-10.848-26.016z" />
<glyph unicode="&#xe609;" glyph-name="arrow-up-thin" d="M196.672 322.185l315.328 315.328 315.328-315.328-22.624-22.624-292.672 292.672-292.672-292.672z" />
<glyph unicode="&#xe60a;" glyph-name="arrow-down-thin" d="M827.328 555.529l-315.328-315.328-315.328 315.328 22.624 22.624 292.672-292.672 292.672 292.672z" />
<glyph unicode="&#xe60c;" glyph-name="reply" d="M598 554.667q-208-30-321-159t-149-311q154 218 470 218v-174l298 298-298 298v-170z" />
<glyph unicode="&#xe60d;" glyph-name="add" d="M810 384.667h-256v-256h-84v256h-256v84h256v256h84v-256h256v-84z" />
<glyph unicode="&#xe60e;" glyph-name="cancel" d="M626.784 438.825l195.072-195.072c12.672-12.672 12.672-33.248 0-45.92l-68.832-68.832c-12.672-12.672-33.216-12.672-45.92 0l-195.104 195.072-195.104-195.072c-12.672-12.672-33.216-12.672-45.888 0l-68.864 68.832c-12.672 12.672-12.672 33.216 0 45.92l195.104 195.072-195.104 195.104c-12.672 12.672-12.672 33.248 0 45.92l68.896 68.832c12.672 12.672 33.216 12.672 45.888 0l195.072-195.104 195.104 195.104c12.672 12.672 33.216 12.672 45.92 0l68.832-68.864c12.672-12.672 12.672-33.216 0-45.92l-195.072-195.072z" />
<glyph unicode="&#xe60f;" glyph-name="chain" d="M868.576 256.009q0 22.848-16.032 38.848l-118.848 118.848q-16.032 16.032-38.848 16.032-24 0-41.152-18.272 1.728-1.728 10.848-10.56t12.288-12.288 8.544-10.848 7.424-14.56 2.016-15.712q0-22.848-16.032-38.848t-38.848-16.032q-8.544 0-15.712 2.016t-14.56 7.424-10.848 8.544-12.288 12.288-10.56 10.848q-18.88-17.696-18.88-41.728 0-22.848 16.032-38.848l117.728-118.272q15.424-15.424 38.848-15.424 22.848 0 38.848 14.848l84 83.424q16.032 16.032 16.032 38.304zM466.88 658.857q0 22.848-16.032 38.848l-117.728 118.272q-16.032 16.032-38.848 16.032-22.272 0-38.848-15.424l-84-83.424q-16.032-16.032-16.032-38.304 0-22.848 16.032-38.848l118.848-118.848q15.424-15.424 38.848-15.424 24 0 41.152 17.696-1.728 1.728-10.848 10.56t-12.288 12.288-8.544 10.848-7.424 14.56-2.016 15.712q0 22.848 16.032 38.848t38.848 16.032q8.544 0 15.712-2.016t14.56-7.424 10.848-8.544 12.288-12.288 10.56-10.848q18.88 17.696 18.88 41.728zM978.272 256.009q0-68.576-48.576-116l-84-83.424q-47.424-47.424-116-47.424-69.152 0-116.544 48.576l-117.728 118.272q-47.424 47.424-47.424 116 0 70.304 50.272 119.456l-50.272 50.272q-49.152-50.272-118.848-50.272-68.576 0-116.544 48.032l-118.848 118.848q-48.032 48.032-48.032 116.544t48.576 116l84 83.424q47.424 47.424 116 47.424 69.152 0 116.544-48.576l117.728-118.272q47.424-47.424 47.424-116 0-70.304-50.272-119.456l50.272-50.272q49.152 50.272 118.848 50.272 68.576 0 116.544-48.032l118.848-118.848q48.032-48.032 48.032-116.544z" />
<glyph unicode="&#xe610;" glyph-name="chain-broken" d="M287.424 224.585l-146.272-146.272q-5.696-5.152-13.12-5.152-6.848 0-13.12 5.152-5.152 5.696-5.152 13.12t5.152 13.12l146.272 146.272q5.696 5.152 13.12 5.152t13.12-5.152q5.152-5.696 5.152-13.12t-5.152-13.12zM384 201.129v-182.848q0-8-5.152-13.12t-13.12-5.152-13.12 5.152-5.152 13.12v182.848q0 8 5.152 13.12t13.12 5.152 13.12-5.152 5.152-13.12zM256 329.129q0-8-5.152-13.12t-13.12-5.152h-182.848q-8 0-13.12 5.152t-5.152 13.12 5.152 13.12 13.12 5.152h182.848q8 0 13.12-5.152t5.152-13.12zM978.272 256.009q0-68.576-48.576-116l-84-83.424q-47.424-47.424-116-47.424-69.152 0-116.544 48.576l-190.88 191.424q-12 12-24 32l136.544 10.272 156-156.576q15.424-15.424 38.848-15.712t38.848 15.136l84 83.424q16.032 16.032 16.032 38.304 0 22.848-16.032 38.848l-156.576 157.152 10.272 136.544q20-12 32-24l192-192q48.032-49.152 48.032-116.544zM625.696 669.705l-136.544-10.272-156 156.576q-16.032 16.032-38.848 16.032-22.272 0-38.848-15.424l-84-83.424q-16.032-16.032-16.032-38.304 0-22.848 16.032-38.848l156.576-156.576-10.272-137.152q-20 12-32 24l-192 192q-48.032 49.152-48.032 116.544 0 68.576 48.576 116l84 83.424q47.424 47.424 116 47.424 69.152 0 116.544-48.576l190.88-191.424q12-12 24-32zM987.424 621.705q0-8-5.152-13.12t-13.12-5.152h-182.848q-8 0-13.12 5.152t-5.152 13.12 5.152 13.12 13.12 5.152h182.848q8 0 13.12-5.152t5.152-13.12zM676.576 932.585v-182.848q0-8-5.152-13.12t-13.12-5.152-13.12 5.152-5.152 13.12v182.848q0 8 5.152 13.12t13.12 5.152 13.12-5.152 5.152-13.12zM909.12 846.313l-146.272-146.272q-6.304-5.152-13.12-5.152t-13.12 5.152q-5.152 5.696-5.152 13.12t5.152 13.12l146.272 146.272q5.696 5.152 13.12 5.152t13.12-5.152q5.152-5.696 5.152-13.12t-5.152-13.12z" />
<glyph unicode="&#xe611;" glyph-name="close" d="M809.984 676.852l-237.995-237.995 237.995-237.995-59.989-59.989-237.995 237.995-237.995-237.995-59.989 59.989 237.995 237.995-237.995 237.995 59.989 59.989 237.995-237.995 237.995 237.995z" />
<glyph unicode="&#xe612;" glyph-name="check" d="M896 725.334q18.333 0 30.5-12.167t12.167-30.5q0-18-12.333-30.333l-512-512q-12.333-12.333-30.333-12.333t-30.333 12.333l-256 256q-12.333 12.333-12.333 30.333 0 18.333 12.167 30.5t30.5 12.167q18 0 30.333-12.333l225.667-226 481.667 482q12.333 12.333 30.333 12.333z" />
<glyph unicode="&#xe613;" glyph-name="chat-2" d="M277.333 554.667c35.328 0 64-28.629 64-64s-28.672-64-64-64-64 28.629-64 64 28.672 64 64 64zM490.667 554.667c35.328 0 64-28.629 64-64s-28.672-64-64-64-64 28.629-64 64 28.672 64 64 64zM704 554.667c35.328 0 64-28.629 64-64s-28.672-64-64-64-64 28.629-64 64 28.672 64 64 64zM853.333 896h-725.333c-70.571 0-128-57.429-128-128v-512c0-70.571 85.333-85.333 128-85.333v-256l384 256h341.333c70.571 0 128 57.429 128 128v469.333c0 70.571-57.429 128-128 128zM896 298.667c0-23.509-19.157-42.667-42.667-42.667h-384l-256-213.333v213.333h-85.333c-23.509 0-42.667 19.157-42.667 42.667v469.333c0 23.509 19.157 42.667 42.667 42.667h725.333c23.509 0 42.667-19.157 42.667-42.667v-469.333z" />
<glyph unicode="&#xe614;" glyph-name="chat" d="M853.333 896h-725.333c-70.571 0-128-57.429-128-128v-512c0-70.571 85.333-85.333 128-85.333v-256l384 256h341.333c70.571 0 128 57.429 128 128v469.333c0 70.571-57.429 128-128 128zM896 298.667c0-23.509-19.157-42.667-42.667-42.667h-384l-256-213.333v213.333h-85.333c-23.509 0-42.667 19.157-42.667 42.667v469.333c0 23.509 19.157 42.667 42.667 42.667h725.333c23.509 0 42.667-19.157 42.667-42.667v-469.333z" />
<glyph unicode="&#xe615;" glyph-name="comment" d="M512 731.428q-116.571 0-218-39.714t-161.143-107.143-59.714-145.714q0-64 40.857-122t115.143-100.286l49.714-28.571-15.429-54.857q-13.714-52-40-98.286 86.857 36 157.143 97.714l24.571 21.714 32.571-3.429q39.429-4.571 74.286-4.571 116.571 0 218 39.714t161.143 107.143 59.714 145.714-59.714 145.714-161.143 107.143-218 39.714zM1024 438.857q0-99.429-68.571-183.714t-186.286-133.143-257.143-48.857q-40 0-82.857 4.571-113.143-100-262.857-138.286-28-8-65.143-12.571h-2.857q-8.571 0-15.429 6t-9.143 15.714v0.571q-1.714 2.286-0.286 6.857t1.143 5.714 2.571 5.429l3.429 5.143t4 4.857 4.571 5.143q4 4.571 17.714 19.714t19.714 21.714 17.714 22.571 18.571 29.143 15.429 33.714 14.857 43.429q-89.714 50.857-141.429 125.714t-51.714 160.571q0 99.429 68.571 183.714t186.286 133.143 257.143 48.857 257.143-48.857 186.286-133.143 68.571-183.714z" />
<glyph unicode="&#xe617;" glyph-name="facebook" d="M767.424 944.009v-150.848h-89.696q-49.152 0-66.304-20.544t-17.152-61.696v-108h167.424l-22.272-169.152h-145.152v-433.696h-174.848v433.696h-145.696v169.152h145.696v124.576q0 106.272 59.424 164.864t158.272 58.592q84 0 130.304-6.848z" />
<glyph unicode="&#xe61b;" glyph-name="google-plus" horiz-adv-x="1317" d="M821.143 429.143q0-118.857-49.714-211.714t-141.714-145.143-210.857-52.286q-85.143 0-162.857 33.143t-133.714 89.143-89.143 133.714-33.143 162.857 33.143 162.857 89.143 133.714 133.714 89.143 162.857 33.143q163.429 0 280.571-109.714l-113.714-109.143q-66.857 64.571-166.857 64.571-70.286 0-130-35.429t-94.571-96.286-34.857-132.857 34.857-132.857 94.571-96.286 130-35.429q47.429 0 87.143 13.143t65.429 32.857 44.857 44.857 28 47.429 12.286 42.286h-237.714v144h395.429q6.857-36 6.857-69.714zM1316.571 498.857v-120h-119.429v-119.429h-120v119.429h-119.429v120h119.429v119.429h120v-119.429h119.429z" />
<glyph unicode="&#xe61c;" glyph-name="heart" d="M512 0.009q-14.848 0-25.152 10.272l-356.576 344q-5.696 4.576-15.712 14.848t-31.712 37.408-38.848 55.712-30.56 69.152-13.408 78.848q0 125.696 72.544 196.576t200.544 70.848q35.424 0 72.288-12.288t68.576-33.12 54.56-39.136 43.456-38.848q20.544 20.544 43.456 38.848t54.56 39.136 68.576 33.12 72.288 12.288q128 0 200.544-70.848t72.544-196.576q0-126.272-130.848-257.12l-356-342.848q-10.272-10.272-25.152-10.272z" />
<glyph unicode="&#xe61d;" glyph-name="heart-o" d="M950.848 610.313q0 46.304-12.288 81.696t-31.424 56.288-46.56 34.016-53.728 17.696-56 4.576-64-14.56-63.168-36.576-49.44-41.152-34.304-35.136q-10.272-12.576-28-12.576t-28 12.576q-13.728 16.032-34.304 35.136t-49.44 41.152-63.168 36.576-64 14.56-56-4.576-53.728-17.696-46.56-34.016-31.424-56.288-12.288-81.696q0-96 106.848-202.848l332-320 331.456 319.424q107.456 107.456 107.456 203.456zM1024 610.313q0-126.272-130.848-257.12l-356-342.848q-10.272-10.272-25.152-10.272t-25.152 10.272l-356.576 344q-5.696 4.576-15.712 14.848t-31.712 37.408-38.848 55.712-30.56 69.152-13.408 78.848q0 125.696 72.544 196.576t200.544 70.848q35.424 0 72.288-12.288t68.576-33.12 54.56-39.136 43.456-38.848q20.544 20.544 43.456 38.848t54.56 39.136 68.576 33.12 72.288 12.288q128 0 200.544-70.848t72.544-196.576z" />
<glyph unicode="&#xe620;" glyph-name="link" d="M725.344 908.201q50.336 0 97.152-18.976t83.84-55.968 56.032-83.84 18.976-97.152q0-50.016-19.168-97.152t-55.84-83.84l-128-128q-3.68-3.68-11.008-10.336-35.68-31.648-79.648-48.16t-90.336-16.512q-58.336 0-110.336 24.992-39.008 18.336-70.656 50.016t-50.016 70.656q24.992 24.992 60.32 24.992 12.32 0 24.992-3.68 21.664-34.976 56.672-56.672 40.992-24.992 88.992-24.992 33.312 0 64.672 12.672t56.032 37.344l128 128q24.672 24.672 37.344 56.032t12.672 64.672-12.672 64.672-37.344 56.032-56.032 37.344-64.672 12.672-64.672-12.672-56.032-37.344l-89.696-89.696q-42.656 11.648-88.32 11.648-7.328 0-20.64-0.672 6.656 7.328 10.336 11.008l128 128q36.64 36.64 83.84 55.84t97.152 19.168zM426.656 609.513q58.336 0 110.336-24.992 39.008-18.336 70.656-50.016t50.016-70.656q-24.992-24.992-60.32-24.992-12.32 0-24.992 3.68-21.664 34.976-56.672 56.672-40.992 24.992-88.992 24.992-33.312 0-64.672-12.672t-56.032-37.344l-128-128q-24.672-24.672-37.344-56.032t-12.672-64.672 12.672-64.672 37.344-56.032 56.032-37.344 64.672-12.672 64.672 12.672 56.032 37.344l89.696 89.696q42.656-11.648 88.32-11.648 7.328 0 20.64 0.672-6.656-7.328-10.336-11.008l-128-128q-36.992-36.992-83.84-56.032t-97.152-18.976q-50.016 0-97.152 19.168t-83.84 55.84q-36.992 36.992-56.032 83.84t-18.976 97.152 18.976 97.152 56.032 83.84l128 128q3.68 3.68 11.008 10.336 35.68 31.648 79.648 48.16t90.336 16.512z" />
<glyph unicode="&#xe623;" glyph-name="mail-forward" d="M1024 585.129q0-14.848-10.848-25.696l-292.576-292.576q-10.848-10.848-25.696-10.848t-25.696 10.848-10.848 25.696v146.272h-128q-56 0-100.288-3.424t-88-12.288-76-24.288-60.256-39.712-45.728-57.696-27.712-79.136-9.984-103.424q0-31.424 2.848-70.304 0-3.424 1.44-13.408t1.44-15.136q0-8.544-4.864-14.304t-13.408-5.696q-9.152 0-16.032 9.728-4 5.152-7.424 12.576t-7.712 17.152-5.984 13.728q-72.544 162.848-72.544 257.728 0 113.696 30.272 190.272 92.576 230.304 500 230.304h128v146.272q0 14.848 10.848 25.696t25.696 10.848 25.696-10.848l292.576-292.576q10.848-10.848 10.848-25.696z" />
<glyph unicode="&#xe627;" glyph-name="paperclip" d="M272 22.857c47.040 0 91.2 18.24 124.32 51.36l398.88 385.12c6.4 6.080 6.56 16.32 0.48 22.56-6.080 6.4-16.32 6.56-22.56 0.32l-399.36-385.12c-27.2-27.2-63.36-42.24-101.76-42.24s-74.56 15.040-101.76 42.24c-27.2 27.2-42.24 63.36-42.24 101.76s15.040 74.56 42.080 101.6l502.72 489.44c21.12 21.28 49.28 32.96 79.2 32.96s58.080-11.68 79.2-32.8c21.12-21.12 32.8-49.28 32.8-79.2s-11.68-58.080-32.64-79.040l-374.88-361.6c-15.040-15.040-35.040-23.36-56.48-23.36 0 0 0 0 0 0-21.44 0-41.44 8.32-56.64 23.36-15.040 15.2-23.36 35.2-23.36 56.64s8.32 41.44 23.2 56.32l260 252.16c6.4 6.080 6.56 16.32 0.32 22.56-6.24 6.4-16.32 6.56-22.56 0.32l-260.16-252.16c-21.12-21.12-32.8-49.28-32.8-79.2s11.68-58.080 32.8-79.2c21.12-21.12 49.28-32.8 79.2-32.8 0 0 0 0 0 0 29.92 0 58.080 11.68 79.040 32.64l374.88 361.6c27.040 27.2 42.080 63.36 42.080 101.76s-15.040 74.56-42.24 101.76c-27.2 27.2-63.36 42.24-101.76 42.24s-74.56-15.040-101.6-42.080l-502.88-489.44c-33.28-33.28-51.52-77.44-51.52-124.48s18.24-91.2 51.52-124.48c33.28-33.28 77.44-51.52 124.48-51.52z" />
<glyph unicode="&#xe62a;" glyph-name="pinterest" d="M146.272 609.705q0 61.696 21.44 116.288t59.136 95.168 86.848 70.304 105.728 44.576 115.424 14.848q90.304 0 168-37.984t126.272-110.56 48.576-164q0-54.848-10.848-107.456t-34.304-101.152-57.152-85.44-82.88-58.848-108-22.016q-38.848 0-77.12 18.272t-54.848 50.272q-5.696-22.272-16.032-64.288t-13.408-54.272-11.712-40.544-14.848-40.544-18.272-35.744-26.304-44.288-35.424-49.44l-8-2.848-5.152 5.696q-8.544 89.696-8.544 107.456 0 52.544 12.288 118.016t37.984 164.288 29.696 116q-18.272 37.152-18.272 96.576 0 47.424 29.696 89.152t75.456 41.728q34.848 0 54.272-23.136t19.424-58.592q0-37.696-25.152-109.12t-25.152-106.848q0-36 25.696-59.712t62.272-23.712q31.424 0 58.304 14.304t44.864 38.848 32 54.272 21.728 63.168 11.456 63.424 3.744 56.864q0 98.848-62.56 154.016t-163.136 55.136q-114.272 0-190.88-73.984t-76.576-187.712q0-25.152 7.136-48.576t15.424-37.152 15.424-26.016 7.136-17.44q0-16.032-8.544-41.728t-21.152-25.696q-1.12 0-9.728 1.728-29.152 8.544-51.712 32t-34.848 54.016-18.592 61.696-6.304 60.864z" />
<glyph unicode="&#xe62b;" glyph-name="play" d="M900.576 421.161l-758.848-421.696q-13.12-7.424-22.56-1.728t-9.44 20.544v841.152q0 14.848 9.44 20.544t22.56-1.728l758.848-421.696q13.12-7.424 13.12-17.696t-13.12-17.696z" />
<glyph unicode="&#xe62c;" glyph-name="quote" d="M272.128 776.713c-82.432 0-149.312-68.768-149.312-153.6s66.88-153.6 149.312-153.6c149.248 0 49.76-296.896-149.312-296.896v-71.68c355.264-0.064 494.496 675.776 149.312 675.776zM702.208 776.713c-82.368 0-149.248-68.768-149.248-153.6s66.88-153.6 149.248-153.6c149.312 0 49.824-296.896-149.248-296.896v-71.68c355.232-0.064 494.432 675.776 149.248 675.776z" />
<glyph unicode="&#xe62e;" glyph-name="zoom-3" d="M864 99.497l-228.064 228.032c42.496 52.288 68.064 118.848 68.064 191.328 0 167.648-136.352 304-304 304s-304-136.352-304-304c0-167.648 136.352-304 304-304 72.448 0 139.008 25.568 191.328 68.064l228-228.064 44.672 44.64zM128 518.857c0 149.984 122.016 272 272 272s272-122.016 272-272-122.016-272-272-272-272 122.016-272 272z" />
<glyph unicode="&#xe62f;" glyph-name="zoom-2" d="M992.256 79.433l-242.56 206.272c-25.088 22.592-51.904 32.896-73.536 31.936 57.28 67.072 91.84 154.048 91.84 249.152 0 212.096-171.904 384-384 384s-384-171.904-384-384 171.904-384 384-384c95.104 0 182.080 34.56 249.152 91.84-1.024-21.632 9.344-48.448 31.936-73.536l206.272-242.56c35.328-39.232 92.992-42.56 128.192-7.36s31.872 92.928-7.36 128.192zM384 310.857c-141.376 0-256 114.624-256 256s114.624 256 256 256 256-114.624 256-256-114.624-256-256-256z" />
<glyph unicode="&#xe631;" glyph-name="shop-bag" d="M112-9.143h800c8.8 0 16 7.2 16 16v608c0 8.8-7.2 16-16 16h-208v64c0 105.92-86.080 192-192 192s-192-86.080-192-192v-64h-208c-8.8 0-16-7.2-16-16v-608c0-8.8 7.2-16 16-16zM352 694.857c0 88.16 71.84 160 160 160s160-71.84 160-160v-64h-320v64zM128 598.857h192v-80c0-8.8 7.2-16 16-16s16 7.2 16 16v80h320v-80c0-8.8 7.2-16 16-16s16 7.2 16 16v80h192v-576h-768v576z" />
<glyph unicode="&#xe632;" glyph-name="shop-bag-2" d="M112-9.143h800c0.16 0 0.16 0 0.32 0 8.8 0 16 7.2 16 16 0 1.6-0.32 3.36-0.8 4.8l-63.68 604.8c-0.8 8.16-7.68 14.4-15.84 14.4h-144v64c0 105.92-86.080 192-192 192s-192-86.080-192-192v-64h-144c-8.16 0-15.040-6.24-15.84-14.4l-64-608c-0.48-4.48 0.96-8.96 4-12.32s7.36-5.28 11.84-5.28zM352 694.857c0 88.16 71.84 160 160 160s160-71.84 160-160v-64h-320v64zM190.4 598.857h129.6v-66.88c-18.56-6.56-32-24.16-32-45.12 0-26.4 21.6-48 48-48s48 21.6 48 48c0 20.8-13.44 38.4-32 45.12v66.88h320v-66.88c-18.56-6.56-32-24.16-32-45.12 0-26.4 21.6-48 48-48s48 21.6 48 48c0 20.8-13.44 38.4-32 45.12v66.88h129.6l60.64-576h-764.48l60.64 576zM336 502.857c8.8 0 16-7.2 16-16s-7.2-16-16-16-16 7.2-16 16 7.2 16 16 16zM688 502.857c8.8 0 16-7.2 16-16s-7.2-16-16-16-16 7.2-16 16 7.2 16 16 16z" />
<glyph unicode="&#xe633;" glyph-name="shop-bag-3" d="M472.8 820.137c-7.36 4.96-17.28 2.88-22.24-4.48l-192-288c-4.96-7.36-2.88-17.28 4.48-22.24 2.88-1.76 5.92-2.56 8.96-2.56 5.12 0 10.24 2.56 13.28 7.2l192 288c4.96 7.2 2.88 17.28-4.48 22.080zM720 502.857c3.040 0 6.080 0.8 8.8 2.72 7.36 4.96 9.28 14.88 4.48 22.24l-192 288c-4.96 7.36-14.88 9.28-22.24 4.48-7.36-4.96-9.28-14.88-4.48-22.24l192-288c3.2-4.64 8.32-7.2 13.44-7.2zM384 566.857h224c8.8 0 16 7.2 16 16s-7.2 16-16 16h-224c-8.8 0-16-7.2-16-16s7.2-16 16-16zM65.12 447.497l63.040-330.88c3.52-35.2 30.72-61.76 63.84-61.76h608c32.8 0 59.040 25.44 63.68 60.96l63.2 331.68c17.28 10.4 29.76 29.28 32.96 53.28 0.16 0.64 0.16 1.44 0.16 2.080v80c0 8.8-7.2 16-16 16h-192c-8.8 0-16-7.2-16-16s7.2-16 16-16h176v-62.88c-2.56-16.64-13.28-33.12-32-33.12h-800c-18.88 0-30.72 17.28-32 32v64h176c8.8 0 16 7.2 16 16s-7.2 16-16 16h-192c-8.8 0-16-7.2-16-16v-81.44c2.080-23.68 15.040-43.2 33.12-53.92zM832.16 120.937c-2.24-16.96-13.12-34.080-32.16-34.080h-608c-18.88 0-30.72 17.28-32 33.44 0 0.48-0.16 1.12-0.16 1.6l-60.48 316.96h793.28l-60.48-317.92z" />
<glyph unicode="&#xe636;" glyph-name="star" d="M987.424 581.161q0-12.576-14.848-27.424l-207.424-202.272 49.152-285.696q0.576-4 0.576-11.456 0-12-5.984-20.288t-17.44-8.288q-10.848 0-22.848 6.848l-256.576 134.848-256.576-134.848q-12.576-6.848-22.848-6.848-12 0-17.984 8.288t-5.984 20.288q0 3.424 1.12 11.456l49.152 285.696-208.032 202.272q-14.304 15.424-14.304 27.424 0 21.152 32 26.304l286.88 41.728 128.576 260q10.848 23.456 28 23.456t28-23.456l128.576-260 286.88-41.728q32-5.152 32-26.304z" />
<glyph unicode="&#xe637;" glyph-name="star-o" d="M686.304 377.161l174.848 169.728-241.152 35.424-108 218.304-108-218.304-241.152-35.424 174.848-169.728-41.728-240.576 216 113.696 215.456-113.696zM987.424 581.161q0-12.576-14.848-27.424l-207.424-202.272 49.152-285.696q0.576-4 0.576-11.456 0-28.576-23.456-28.576-10.848 0-22.848 6.848l-256.576 134.848-256.576-134.848q-12.576-6.848-22.848-6.848-12 0-17.984 8.288t-5.984 20.288q0 3.424 1.12 11.456l49.152 285.696-208.032 202.272q-14.304 15.424-14.304 27.424 0 21.152 32 26.304l286.88 41.728 128.576 260q10.848 23.456 28 23.456t28-23.456l128.576-260 286.88-41.728q32-5.152 32-26.304z" />
<glyph unicode="&#xe638;" glyph-name="tag" d="M752 598.857c44.16 0 80 35.84 80 80s-35.84 80-80 80-80-35.84-80-80 35.84-80 80-80zM752 726.857c26.4 0 48-21.6 48-48s-21.6-48-48-48-48 21.6-48 48 21.6 48 48 48zM96 342.857c0-17.12 6.72-33.12 18.72-45.28l256-256c12.16-12 28.16-18.72 45.28-18.72s33.12 6.72 45.12 18.56l448.16 432.16c12 12.16 18.72 28.16 18.72 45.28v272c0 35.36-28.64 64-64 64h-272c-17.12 0-33.12-6.72-45.44-18.88l-431.84-447.84c-12-12.16-18.72-28.16-18.72-45.28zM137.6 365.737l431.84 447.68c5.92 6.080 14.080 9.44 22.56 9.44h272c17.6 0 32-14.4 32-32v-272c0-8.48-3.36-16.64-9.12-22.4l-448.32-432.16c-12.16-12-33.12-12-45.28 0l-256 256c-5.92 5.92-9.28 14.080-9.28 22.56s3.36 16.64 9.6 22.88z" />
<glyph unicode="&#xe63a;" glyph-name="tumblr" d="M758.848 191.401l45.728-135.424q-13.12-20-63.424-37.696t-101.152-18.272q-59.424-1.12-108.864 14.848t-81.44 42.272-54.272 60.576-31.712 68.576-9.44 67.424v310.848h-96v122.848q41.152 14.848 73.728 39.712t52 51.424 33.12 58.304 19.424 56.576 8.544 50.592q0.576 2.848 2.56 4.864t4.288 2.016h139.456v-242.272h190.272v-143.968h-190.88v-296q0-17.152 3.744-32t12.864-29.984 28.256-23.712 46.56-8q44.576 1.12 76.576 16.576z" />
<glyph unicode="&#xe63b;" glyph-name="twitter" d="M962.272 717.705q-38.304-56-92.576-95.424 0.576-8 0.576-24 0-74.272-21.728-148.288t-66.016-142.016-105.44-120.288-147.424-83.424-184.576-31.168q-154.848 0-283.424 82.88 20-2.304 44.576-2.304 128.576 0 229.152 78.848-60 1.12-107.456 36.864t-65.12 91.136q18.88-2.848 34.848-2.848 24.576 0 48.576 6.304-64 13.12-105.984 63.712t-41.984 117.44v2.304q38.848-21.728 83.424-23.456-37.696 25.152-60 65.728t-22.272 88q0 50.272 25.152 93.152 69.152-85.152 168.288-136.288t212.288-56.864q-4.576 21.728-4.576 42.272 0 76.576 54.016 130.56t130.56 54.016q80.032 0 134.848-58.304 62.272 12 117.152 44.576-21.152-65.728-81.152-101.696 53.152 5.696 106.272 28.576z" />
<glyph unicode="&#xe648;" glyph-name="youtube-play" d="M731.424 438.857q0 21.152-17.152 30.88l-292.576 182.848q-17.696 11.456-37.152 1.12-18.88-10.272-18.88-32v-365.728q0-21.728 18.88-32 9.152-4.576 17.696-4.576 11.456 0 19.424 5.696l292.576 182.848q17.152 9.728 17.152 30.88zM1024 438.857q0-54.848-0.576-85.728t-4.864-78.016-12.864-84.288q-9.152-41.728-39.424-70.304t-70.848-33.12q-126.88-14.304-383.424-14.304t-383.424 14.304q-40.544 4.576-71.136 33.12t-39.712 70.304q-8 37.152-12.288 84.288t-4.864 78.016-0.576 85.728 0.576 85.728 4.864 78.016 12.864 84.288q9.152 41.728 39.424 70.304t70.848 33.12q126.88 14.304 383.424 14.304t383.424-14.304q40.544-4.576 71.136-33.12t39.712-70.304q8-37.152 12.288-84.288t4.864-78.016 0.576-85.728z" />
<glyph unicode="&#xe649;" glyph-name="zoom-6" d="M426.656 908.201q77.984 0 149.152-30.496t122.496-81.824 81.824-122.496 30.496-149.152q0-66.976-21.856-128.352t-62.176-111.328l242.336-242.016q12.32-12.32 12.32-30.336 0-18.336-12.16-30.496t-30.496-12.16q-18.016 0-30.336 12.32l-242.016 242.336q-50.016-40.32-111.328-62.176t-128.352-21.856q-77.984 0-149.152 30.496t-122.496 81.824-81.824 122.496-30.496 149.152 30.496 149.152 81.824 122.496 122.496 81.824 149.152 30.496zM426.656 822.857q-60.672 0-116-23.68t-95.328-63.648-63.648-95.328-23.68-116 23.68-116 63.648-95.328 95.328-63.648 116-23.68 116 23.68 95.328 63.648 63.648 95.328 23.68 116-23.68 116-63.648 95.328-95.328 63.648-116 23.68zM426.656 694.857q17.664 0 30.176-12.512t12.512-30.176v-85.344h85.344q17.664 0 30.176-12.512t12.512-30.176-12.512-30.176-30.176-12.512h-85.344v-85.344q0-17.664-12.512-30.176t-30.176-12.512-30.176 12.512-12.512 30.176v85.344h-85.344q-17.664 0-30.176 12.512t-12.512 30.176 12.512 30.176 30.176 12.512h85.344v85.344q0 17.664 12.512 30.176t30.176 12.512z" />
<glyph unicode="&#xe900;" glyph-name="eye" d="M512 134.857c248 0 452.8 283.2 460.8 294.4 3.2 4.8 3.2 12.8 0 19.2-8 11.2-211.2 294.4-460.8 294.4-251.2 0-452.8-283.2-460.8-294.4-3.2-4.8-3.2-12.8 0-17.6 8-12.8 211.2-296 460.8-296zM512 710.857c209.6 0 390.4-224 428.8-272-38.4-48-220.8-272-428.8-272-209.6 0-390.4 224-428.8 272 36.8 48 217.6 272 428.8 272zM512 262.857c97.6 0 176 78.4 176 176s-78.4 176-176 176-176-78.4-176-176 78.4-176 176-176zM512 582.857c80 0 144-64 144-144s-64-144-144-144-144 64-144 144c0 80 64 144 144 144z" />
<glyph unicode="&#xe901;" glyph-name="comment-2" d="M512 902.857c-278.4 0-496-176-496-400 0-225.6 222.4-408 496-408 41.6 0 84.8 4.8 132.8 16l244.8-102.4c1.6-1.6 4.8-1.6 6.4-1.6 3.2 0 6.4 1.6 9.6 3.2 4.8 3.2 6.4 8 6.4 14.4l-16 219.2c72 73.6 112 164.8 112 259.2 0 224-217.6 400-496 400zM868.8 261.257c-3.2-3.2-4.8-8-4.8-12.8l14.4-201.6-225.6 94.4c-1.6 1.6-4.8 1.6-6.4 1.6s-1.6 0-3.2 0c-48-11.2-89.6-16-131.2-16-256 0-464 168-464 376 0 206.4 203.2 368 464 368s464-161.6 464-368c0-89.6-36.8-172.8-107.2-241.6z" />
<glyph unicode="&#xe902;" glyph-name="play-2" d="M288 54.857c-35.296 0-64 28.704-64 64v640c0 35.296 28.704 64 64 64 12.336 0 24.704-3.92 36.784-11.664l479.008-319.296c17.696-11.968 28.208-31.776 28.208-53.040 0-21.248-10.496-41.056-28.096-53.008l-478.88-319.184c-12.32-7.888-24.688-11.808-37.024-11.808zM288 790.857c-17.648 0-32-14.352-32-32v-640c0-17.664 14.352-32 32-32 6.208 0 12.592 2.16 19.536 6.592l478.496 319.008c8.704 5.872 13.968 15.776 13.968 26.4s-5.264 20.528-14.048 26.496l-478.672 319.072c-6.688 4.272-13.072 6.432-19.28 6.432z" />
<glyph unicode="&#xe903;" glyph-name="comment-4" d="M512 886.857c282.77 0 512-186.25 512-416 0-229.752-229.23-416-512-416-27.156 0-53.81 1.734-79.824 5.044-109.978-109.978-241.25-129.7-368.176-132.596v26.916c68.536 33.578 128 94.74 128 164.636 0 9.754-0.758 19.33-2.164 28.696-115.796 76.264-189.836 192.754-189.836 323.304 0 229.75 229.23 416 512 416z" />
<glyph unicode="&#xe904;" glyph-name="play-3" d="M512 960c-282.77 0-512-229.23-512-512s229.23-512 512-512 512 229.23 512 512-229.23 512-512 512zM512 32c-229.75 0-416 186.25-416 416s186.25 416 416 416 416-186.25 416-416-186.25-416-416-416zM384 672l384-224-384-224z" />
<glyph unicode="&#xe905;" glyph-name="tools" d="M286.547 494.984c16.843-16.812 81.716-85.279 81.716-85.279l35.968 37.093-56.373 58.248 108.214 114.934c0 0-48.842 47.623-27.468 28.655 20.438 75.903 1.812 160.589-55.842 220.243-57.154 59.186-138.37 78.592-211.337 58.218l123.653-127.715-32.53-125.309-121.060-33.438-123.59 127.748c-19.718-75.436-0.969-159.339 56.311-218.556 60.093-62.123 146.621-80.373 222.338-54.842zM698.815 370.769l-149.121-147.308 245.932-254.805c20.062-20.812 46.498-31.188 72.872-31.188 26.25 0 52.624 10.375 72.811 31.188 40.249 41.624 40.249 108.997 0 150.62l-242.494 251.493zM1023.681 798.162l-156.621 161.839-461.673-477.298 56.373-58.248-276.335-285.616-63.154-33.749-89.217-145.559 22.719-23.562 140.839 92.247 32.655 65.312 276.336 285.554 56.404-58.248 461.674 477.328z" />
<glyph unicode="&#xe906;" glyph-name="shop-cart-add" d="M306 308.667c0-6 4-10 10-10h494v-86h-512c-46 0-84 40-84 86 0 14 4 28 10 40l58 106-154 324h-86v84h140c27.003-56.33 53.665-113.001 80-170 34.063-71.271 67.603-143.063 102-214h300c54.786 99.881 110.533 198.8 164 300l74-42-164-298c-14-26-42-44-74-44h-318l-38-70zM726 170.667c46 0 84-40 84-86s-38-84-84-84-86 38-86 84 40 86 86 86zM298 170.667c46 0 86-40 86-86s-40-84-86-84-84 38-84 84 38 86 84 86zM470 554.667v128h-128v86h128v128h84v-128h128v-86h-128v-128h-84z" />
<glyph unicode="&#xe907;" glyph-name="video" d="M1024 716.8v61.491c0 22.63-18.278 40.909-40.909 40.909h-942.080c-22.682 0-41.011-18.278-41.011-40.909v-61.491h102.4v-102.4h-102.4v-102.4h102.4v-102.4h-102.4v-102.4h102.4v-102.4h-102.4v-61.389c0-22.63 18.33-41.011 41.011-41.011h942.080c22.63 0 40.909 18.381 40.909 41.011v61.389h-102.4v102.4h102.4v102.4h-102.4v102.4h102.4v102.4h-102.4v102.4h102.4zM409.6 307.2v307.2l256-153.6-256-153.6z" />
<glyph unicode="&#xe908;" glyph-name="shop-cart-2" d="M665.6 102.4c0-56.525 45.773-102.4 102.4-102.4 56.525 0 102.4 45.875 102.4 102.4 0 56.627-45.875 102.4-102.4 102.4-56.627 0-102.4-45.773-102.4-102.4zM153.6 102.4c0-56.525 45.824-102.4 102.4-102.4 56.474 0 102.4 45.875 102.4 102.4 0 56.627-45.926 102.4-102.4 102.4-56.576 0-102.4-45.773-102.4-102.4zM335.206 349.594l566.682 161.894c10.803 3.123 19.712 14.797 19.712 26.112v281.6h-716.8v81.92c0 11.264-9.267 20.48-20.429 20.48h-163.942c-11.213 0-20.429-9.216-20.429-20.48v-81.92h102.4l97.792-458.598 4.608-48.282v-84.429c0-11.213 9.216-20.48 20.48-20.48h675.84c11.264 0 20.48 9.318 20.48 20.48v79.309h-575.898c-58.88 0-60.109 28.211-10.496 42.394z" />
<glyph unicode="&#xe909;" glyph-name="soundcloud" horiz-adv-x="1317" d="M448 166.857l9.143 137.714-9.143 298.857q-0.571 5.714-4.286 9.714t-9.429 4q-5.143 0-9.143-4t-4-9.714l-8-298.857 8-137.714q0.571-5.714 4.286-9.429t8.857-3.714q12.571 0 13.714 13.143zM617.143 183.428l6.286 120.571-6.857 334.857q0 9.143-7.429 13.714-4.571 2.857-9.143 2.857t-9.143-2.857q-7.429-4.571-7.429-13.714l-0.571-3.429-5.714-330.857q0-0.571 6.286-134.857v-0.571q0-5.714 3.429-9.714 5.143-6.286 13.143-6.286 6.286 0 11.429 5.143 5.143 4 5.143 11.429zM20 377.714l11.429-73.143-11.429-72q-1.143-5.143-5.143-5.143t-5.143 5.143l-9.714 72 9.714 73.143q1.143 5.143 5.143 5.143t5.143-5.143zM69.143 422.857l14.857-118.286-14.857-116q-1.143-5.143-5.714-5.143-5.143 0-5.143 5.714l-13.143 115.429 13.143 118.286q0 5.143 5.143 5.143 4.571 0 5.714-5.143zM121.714 444.571l14.286-140-14.286-135.429q0-6.286-6.286-6.286-5.714 0-6.857 6.286l-12 135.429 12 140q1.143 6.857 6.857 6.857 6.286 0 6.286-6.857zM175.429 448.571l13.143-144-13.143-139.429q-1.143-7.429-8-7.429-7.429 0-7.429 7.429l-12 139.429 12 144q0 7.429 7.429 7.429 6.857 0 8-7.429zM229.143 438.286l12-133.714-12-140.571q-1.143-9.143-9.143-9.143-3.429 0-6 2.571t-2.571 6.571l-11.429 140.571 11.429 133.714q0 3.429 2.571 6t6 2.571q8 0 9.143-8.571zM282.857 521.714l12-217.143-12-140.571q0-4-2.857-7.143t-6.857-3.143q-9.143 0-10.286 10.286l-10.286 140.571 10.286 217.143q1.143 10.286 10.286 10.286 4 0 6.857-3.143t2.857-7.143zM336.571 570.857l10.857-267.429-10.857-139.429q0-4.571-3.143-7.714t-7.714-3.143q-10.286 0-11.429 10.857l-9.143 139.429 9.143 267.429q1.143 10.857 11.429 10.857 4.571 0 7.714-3.143t3.143-7.714zM392.571 593.714l10.286-289.143-10.286-138.286q-1.143-12-12.571-12-10.857 0-12 12l-9.143 138.286 9.143 289.143q0 5.143 3.714 8.857t8.286 3.714q5.143 0 8.571-3.714t4-8.857zM616.571 169.714v0 0zM503.429 596l8.571-291.429-8.571-136.571q0-5.714-4.286-10t-10-4.286-9.714 4-4.571 10.286l-8 136.571 8 291.429q0 6.286 4.286 10.286t10 4 10-4 4.286-10.286zM560 585.143l8-281.143-8-134.857q0-6.286-4.571-10.857t-10.857-4.571-10.857 4.571-5.143 10.857l-6.857 134.857 6.857 281.143q0.571 6.857 5.143 11.429t10.857 4.571 10.571-4.571 4.857-11.429zM681.143 304l-8-132q0-7.429-5.143-12.571t-12.571-5.143-12.571 5.143-5.714 12.571l-3.429 65.143-3.429 66.857 6.857 363.429v1.714q1.143 8.571 6.857 13.714 5.143 4 11.429 4 4.571 0 8.571-2.857 8-4.571 9.143-14.857zM1316.571 314.857q0-66.857-47.429-114t-114.286-47.143h-449.143q-7.429 1.143-12.571 6.286t-5.143 12.571v513.714q0 13.143 16 18.857 48.571 19.429 103.429 19.429 111.429 0 193.143-75.143t91.429-184.857q30.286 12.571 62.857 12.571 66.857 0 114.286-47.429t47.429-114.857z" />
<glyph unicode="&#xe90a;" glyph-name="vimeo" horiz-adv-x="1032" d="M976.571 654.857q-5.714-134.857-189.714-372-190.286-246.286-321.143-246.286-81.143 0-137.143 150.286-25.143 91.429-75.429 275.429-41.143 149.714-89.714 149.714-10.286 0-72.571-43.429l-44 56q13.714 12 61.714 55.143t74.286 66q89.143 78.857 137.714 83.429 54.286 5.143 87.429-31.714t46.286-116.286q25.143-164 37.714-213.143 31.429-142.286 68.571-142.286 29.143 0 88 92 57.714 92 62.286 140.571 7.429 79.429-62.286 79.429-32.571 0-69.143-14.857 68.571 224.571 262.286 218.286 143.429-4.571 134.857-186.286z" />
<glyph unicode="&#xe90b;" glyph-name="behance" horiz-adv-x="1170" d="M1056 757.143h-292v-70.857h292v70.857zM912 513.714q-51.429 0-83.429-30t-35.429-81.429h233.143q-10.286 111.429-114.286 111.429zM921.143 179.428q36 0 69.714 18.286t43.429 49.714h126.286q-57.143-175.429-244-175.429-122.286 0-194.571 75.429t-72.286 198.286q0 118.857 74.571 197.429t192.286 78.571q78.857 0 137.429-38.857t87.429-102.286 28.857-141.714q0-9.714-1.143-26.857h-376q0-63.429 32.857-98t95.143-34.571zM158.286 208h169.143q117.143 0 117.143 95.429 0 102.857-113.714 102.857h-172.571v-198.286zM158.286 514.857h160.571q44.571 0 70.571 20.857t26 64.857q0 82.286-108.571 82.286h-148.571v-168zM0 805.714h339.429q49.714 0 88.571-8t72.286-27.143 51.429-55.143 18-88q0-103.429-98.286-150.286 65.143-18.286 98.286-65.714t33.143-116.571q0-42.857-14-78t-37.714-59.143-56.286-40.571-69.143-24-76.571-7.429h-349.143v720z" />
<glyph unicode="&#xe90c;" glyph-name="pause-3" d="M512 960c-282.77 0-512-229.23-512-512s229.23-512 512-512 512 229.23 512 512-229.23 512-512 512zM512 32c-229.75 0-416 186.25-416 416s186.25 416 416 416 416-186.25 416-416-186.25-416-416-416zM320 640h128v-384h-128zM576 640h128v-384h-128z" />
<glyph unicode="&#xe90d;" glyph-name="add-2" d="M512 853.334q17.667 0 30.167-12.5t12.5-30.167v-341.333h341.333q17.667 0 30.167-12.5t12.5-30.167-12.5-30.167-30.167-12.5h-341.333v-341.333q0-17.667-12.5-30.167t-30.167-12.5-30.167 12.5-12.5 30.167v341.333h-341.333q-17.667 0-30.167 12.5t-12.5 30.167 12.5 30.167 30.167 12.5h341.333v341.333q0 17.667 12.5 30.167t30.167 12.5z" />
<glyph unicode="&#xe90e;" glyph-name="map-marker" horiz-adv-x="585" d="M438.857 585.143q0 60.571-42.857 103.429t-103.429 42.857-103.429-42.857-42.857-103.429 42.857-103.429 103.429-42.857 103.429 42.857 42.857 103.429zM585.143 585.143q0-62.286-18.857-102.286l-208-442.286q-9.143-18.857-27.143-29.714t-38.571-10.857-38.571 10.857-26.571 29.714l-208.571 442.286q-18.857 40-18.857 102.286 0 121.143 85.714 206.857t206.857 85.714 206.857-85.714 85.714-206.857z" />
<glyph unicode="&#xe90f;" glyph-name="add-3" d="M1024 576h-384v384h-256v-384h-384v-256h384v-384h256v384h384z" />
<glyph unicode="&#xe910;" glyph-name="pause-4" d="M682.667 810.667q53 0 90.5-37.5t37.5-90.5v-512q0-53-37.5-90.5t-90.5-37.5-90.5 37.5-37.5 90.5v512q0 53 37.5 90.5t90.5 37.5zM341.333 810.667q53 0 90.5-37.5t37.5-90.5v-512q0-53-37.5-90.5t-90.5-37.5-90.5 37.5-37.5 90.5v512q0 53 37.5 90.5t90.5 37.5zM341.333 725.334q-17.667 0-30.167-12.5t-12.5-30.167v-512q0-17.667 12.5-30.167t30.167-12.5 30.167 12.5 12.5 30.167v512q0 17.667-12.5 30.167t-30.167 12.5zM682.667 725.334q-17.667 0-30.167-12.5t-12.5-30.167v-512q0-17.667 12.5-30.167t30.167-12.5 30.167 12.5 12.5 30.167v512q0 17.667-12.5 30.167t-30.167 12.5z" />
<glyph unicode="&#xe911;" glyph-name="pause" horiz-adv-x="878" d="M877.714 841.143v-804.571q0-14.857-10.857-25.714t-25.714-10.857h-292.571q-14.857 0-25.714 10.857t-10.857 25.714v804.571q0 14.857 10.857 25.714t25.714 10.857h292.571q14.857 0 25.714-10.857t10.857-25.714zM365.714 841.143v-804.571q0-14.857-10.857-25.714t-25.714-10.857h-292.571q-14.857 0-25.714 10.857t-10.857 25.714v804.571q0 14.857 10.857 25.714t25.714 10.857h292.571q14.857 0 25.714-10.857t10.857-25.714z" />
<glyph unicode="&#xe912;" glyph-name="play-4" d="M383.915 639.915c1.152-1.109 2.389-2.261 3.627-3.328l215.509-209.92-217.429-211.797c-0.555-0.512-1.067-1.024-1.621-1.536l-0.085 426.581zM384 725.334c-47.104 0-85.333-38.229-85.333-85.333v-426.667c0-47.104 38.229-85.333 85.333-85.333 23.168 0 44.075 9.301 59.435 24.235 112.811 109.781 281.899 274.432 281.899 274.432s-169.088 164.651-281.771 274.475c-15.488 14.891-36.395 24.192-59.563 24.192z" />
<glyph unicode="&#xe913;" glyph-name="user" d="M0-64v96c0 143.488 180.768 197.728 419.168 219.584-52.352 32.448-93.44 123.648-114.848 196.48-0.096 0-0.192-0.064-0.32-0.064-2.176 0-48 57.312-48 128 0 62.016-4.416 113.728 32.224 125.44-0.032 0.864-0.224 1.696-0.224 2.56 0 78.624 40.672 147.52 101.984 187.488 15.84 39.52 64.128 68.512 122.016 68.512s106.176-28.992 122.016-68.512c61.312-39.968 101.984-108.864 101.984-187.488 0-0.864-0.192-1.696-0.224-2.56 36.64-11.712 32.224-63.424 32.224-125.44 0-70.688-50.816-128-48-128-0.128 0-0.224 0.064-0.32 0.064-21.408-72.8-62.496-164.032-114.848-196.48 238.4-21.856 419.168-74.080 419.168-219.584v-96h-1024z" />
<glyph unicode="&#xe914;" glyph-name="reddit" d="M1024 467.428q0-33.143-16.857-60.286t-45.429-41.429q6.857-26.286 6.857-54.857 0-88.571-60.857-164t-166-119.143-228.571-43.714-228.286 43.714-165.714 119.143-60.857 164q0 26.857 6.286 53.714-29.143 14.286-46.857 42t-17.714 60.857q0 46.857 33.143 80.286t80.571 33.429q48.571 0 82.857-36 124.571 86.857 294.286 92.571l66.286 297.714q1.714 7.429 8.571 12t14.857 2.857l210.857-46.286q10.286 21.143 30.857 34t45.143 12.857q35.429 0 60.571-24.857t25.143-60.286-25.143-60.571-60.571-25.143-60.286 24.857-24.857 60.286l-190.857 42.286-59.429-269.714q171.429-5.143 296.571-91.429 33.143 34.857 81.714 34.857 47.429 0 80.571-33.429t33.143-80.286zM238.857 353.714q0-35.429 24.857-60.571t60.286-25.143 60.571 25.143 25.143 60.571-25.143 60.286-60.571 24.857q-34.857 0-60-25.143t-25.143-60zM701.714 150.857q6.286 6.286 6.286 14.857t-6.286 14.857q-5.714 5.714-14.286 5.714t-14.857-5.714q-23.429-24-69.143-35.429t-91.429-11.429-91.429 11.429-69.143 35.429q-6.286 5.714-14.857 5.714t-14.286-5.714q-6.286-5.714-6.286-14.571t6.286-15.143q24.571-24.571 67.714-38.857t70-16.857 52-2.571 52 2.571 70 16.857 67.714 38.857zM700 268q35.429 0 60.286 25.143t24.857 60.571q0 34.857-25.143 60t-60 25.143q-35.429 0-60.571-24.857t-25.143-60.286 25.143-60.571 60.571-25.143z" />
<glyph unicode="&#xf001;" glyph-name="music" horiz-adv-x="878" d="M877.714 822.857v-640q0-28.571-19.429-50.857t-49.143-34.571-59.143-18.286-55.143-6-55.143 6-59.143 18.286-49.143 34.571-19.429 50.857 19.429 50.857 49.143 34.571 59.143 18.286 55.143 6q60 0 109.714-22.286v306.857l-438.857-135.429v-405.143q0-28.571-19.429-50.857t-49.143-34.571-59.143-18.286-55.143-6-55.143 6-59.143 18.286-49.143 34.571-19.429 50.857 19.429 50.857 49.143 34.571 59.143 18.286 55.143 6q60 0 109.714-22.286v552.571q0 17.714 10.857 32.286t28 20.286l475.429 146.286q6.857 2.286 16 2.286 22.857 0 38.857-16t16-38.857z" />
<glyph unicode="&#xf002;" glyph-name="zoom" horiz-adv-x="951" d="M658.286 475.428q0 105.714-75.143 180.857t-180.857 75.143-180.857-75.143-75.143-180.857 75.143-180.857 180.857-75.143 180.857 75.143 75.143 180.857zM950.857 0q0-29.714-21.714-51.429t-51.429-21.714q-30.857 0-51.429 21.714l-196 195.429q-102.286-70.857-228-70.857-81.714 0-156.286 31.714t-128.571 85.714-85.714 128.571-31.714 156.286 31.714 156.286 85.714 128.571 128.571 85.714 156.286 31.714 156.286-31.714 128.571-85.714 85.714-128.571 31.714-156.286q0-125.714-70.857-228l196-196q21.143-21.143 21.143-51.429z" />
<glyph unicode="&#xf00e;" glyph-name="zoom-4" horiz-adv-x="951" d="M585.143 493.714v-36.571q0-7.429-5.429-12.857t-12.857-5.429h-128v-128q0-7.429-5.429-12.857t-12.857-5.429h-36.571q-7.429 0-12.857 5.429t-5.429 12.857v128h-128q-7.429 0-12.857 5.429t-5.429 12.857v36.571q0 7.429 5.429 12.857t12.857 5.429h128v128q0 7.429 5.429 12.857t12.857 5.429h36.571q7.429 0 12.857-5.429t5.429-12.857v-128h128q7.429 0 12.857-5.429t5.429-12.857zM658.286 475.428q0 105.714-75.143 180.857t-180.857 75.143-180.857-75.143-75.143-180.857 75.143-180.857 180.857-75.143 180.857 75.143 75.143 180.857zM950.857 0q0-30.286-21.429-51.714t-51.714-21.429q-30.857 0-51.429 21.714l-196 195.429q-102.286-70.857-228-70.857-81.714 0-156.286 31.714t-128.571 85.714-85.714 128.571-31.714 156.286 31.714 156.286 85.714 128.571 128.571 85.714 156.286 31.714 156.286-31.714 128.571-85.714 85.714-128.571 31.714-156.286q0-125.714-70.857-228l196-196q21.143-21.143 21.143-51.429z" />
<glyph unicode="&#xf010;" glyph-name="zoom-5" horiz-adv-x="951" d="M585.143 493.714v-36.571q0-7.429-5.429-12.857t-12.857-5.429h-329.143q-7.429 0-12.857 5.429t-5.429 12.857v36.571q0 7.429 5.429 12.857t12.857 5.429h329.143q7.429 0 12.857-5.429t5.429-12.857zM658.286 475.428q0 105.714-75.143 180.857t-180.857 75.143-180.857-75.143-75.143-180.857 75.143-180.857 180.857-75.143 180.857 75.143 75.143 180.857zM950.857 0q0-30.286-21.429-51.714t-51.714-21.429q-30.857 0-51.429 21.714l-196 195.429q-102.286-70.857-228-70.857-81.714 0-156.286 31.714t-128.571 85.714-85.714 128.571-31.714 156.286 31.714 156.286 85.714 128.571 128.571 85.714 156.286 31.714 156.286-31.714 128.571-85.714 85.714-128.571 31.714-156.286q0-125.714-70.857-228l196-196q21.143-21.143 21.143-51.429z" />
<glyph unicode="&#xf019;" glyph-name="download" horiz-adv-x="951" d="M731.429 182.857q0 14.857-10.857 25.714t-25.714 10.857-25.714-10.857-10.857-25.714 10.857-25.714 25.714-10.857 25.714 10.857 10.857 25.714zM877.714 182.857q0 14.857-10.857 25.714t-25.714 10.857-25.714-10.857-10.857-25.714 10.857-25.714 25.714-10.857 25.714 10.857 10.857 25.714zM950.857 310.857v-182.857q0-22.857-16-38.857t-38.857-16h-841.143q-22.857 0-38.857 16t-16 38.857v182.857q0 22.857 16 38.857t38.857 16h265.714l77.143-77.714q33.143-32 77.714-32t77.714 32l77.714 77.714h265.143q22.857 0 38.857-16t16-38.857zM765.143 636q9.714-23.429-8-40l-256-256q-10.286-10.857-25.714-10.857t-25.714 10.857l-256 256q-17.714 16.571-8 40 9.714 22.286 33.714 22.286h146.286v256q0 14.857 10.857 25.714t25.714 10.857h146.286q14.857 0 25.714-10.857t10.857-25.714v-256h146.286q24 0 33.714-22.286z" />
<glyph unicode="&#xf021;" glyph-name="refresh" horiz-adv-x="878" d="M863.429 347.428q0-2.857-0.571-4-36.571-153.143-153.143-248.286t-273.143-95.143q-83.429 0-161.429 31.429t-139.143 89.714l-73.714-73.714q-10.857-10.857-25.714-10.857t-25.714 10.857-10.857 25.714v256q0 14.857 10.857 25.714t25.714 10.857h256q14.857 0 25.714-10.857t10.857-25.714-10.857-25.714l-78.286-78.286q40.571-37.714 92-58.286t106.857-20.571q76.571 0 142.857 37.143t106.286 102.286q6.286 9.714 30.286 66.857 4.571 13.143 17.143 13.143h109.714q7.429 0 12.857-5.429t5.429-12.857zM877.714 804.571v-256q0-14.857-10.857-25.714t-25.714-10.857h-256q-14.857 0-25.714 10.857t-10.857 25.714 10.857 25.714l78.857 78.857q-84.571 78.286-199.429 78.286-76.571 0-142.857-37.143t-106.286-102.286q-6.286-9.714-30.286-66.857-4.571-13.143-17.143-13.143h-113.714q-7.429 0-12.857 5.429t-5.429 12.857v4q37.143 153.143 154.286 248.286t274.286 95.143q83.429 0 162.286-31.714t140-89.429l74.286 73.714q10.857 10.857 25.714 10.857t25.714-10.857 10.857-25.714z" />
<glyph unicode="&#xf02b;" glyph-name="tag-2" horiz-adv-x="866" d="M256 694.857q0 30.286-21.429 51.714t-51.714 21.429-51.714-21.429-21.429-51.714 21.429-51.714 51.714-21.429 51.714 21.429 21.429 51.714zM865.714 365.714q0-30.286-21.143-51.429l-280.571-281.143q-22.286-21.143-52-21.143-30.286 0-51.429 21.143l-408.571 409.143q-21.714 21.143-36.857 57.714t-15.143 66.857v237.714q0 29.714 21.714 51.429t51.429 21.714h237.714q30.286 0 66.857-15.143t58.286-36.857l408.571-408q21.143-22.286 21.143-52z" />
<glyph unicode="&#xf02e;" glyph-name="bookmark" horiz-adv-x="731" d="M665.143 877.714q13.143 0 25.143-5.143 18.857-7.429 30-23.429t11.143-35.429v-736.571q0-19.429-11.143-35.429t-30-23.429q-10.857-4.571-25.143-4.571-27.429 0-47.429 18.286l-252 242.286-252-242.286q-20.571-18.857-47.429-18.857-13.143 0-25.143 5.143-18.857 7.429-30 23.429t-11.143 35.429v736.571q0 19.429 11.143 35.429t30 23.429q12 5.143 25.143 5.143h598.857z" />
<glyph unicode="&#xf031;" glyph-name="font" horiz-adv-x="951" d="M414.286 631.428l-97.143-257.143q18.857 0 78-1.143t91.714-1.143q10.857 0 32.571 1.143-49.714 144.571-105.143 258.286zM0 0l1.143 45.143q13.143 4 32 7.143t32.571 6 28.286 8.286 25.429 16.571 17.714 28.857l135.429 352 160 413.714h73.143q4.571-8 6.286-12l117.143-274.286q18.857-44.571 60.571-147.143t65.143-156.857q8.571-19.429 33.143-82.571t41.143-96.286q11.429-25.714 20-32.571 10.857-8.571 50.286-16.857t48-11.714q3.429-21.714 3.429-32.571 0-2.286-0.286-7.429t-0.286-7.429q-36 0-108.571 4.571t-109.143 4.571q-43.429 0-122.857-4t-101.714-4.571q0 24.571 2.286 44.571l74.857 16q0.571 0 7.143 1.429t8.857 2 8.286 2.571 8.571 3.714 6.286 4.571 5.143 6.286 1.429 8q0 9.143-17.714 55.143t-41.143 101.429-24 57.143l-257.143 1.143q-14.857-33.143-43.714-111.714t-28.857-92.857q0-12.571 8-21.429t24.857-14 27.714-7.714 32.571-4.857 23.429-2.286q0.571-10.857 0.571-33.143 0-5.143-1.143-15.429-33.143 0-99.714 5.714t-99.714 5.714q-4.571 0-15.143-2.286t-12.286-2.286q-45.714-8-107.429-8z" />
<glyph unicode="&#xf032;" glyph-name="bold" horiz-adv-x="805" d="M317.143 81.714q42.286-18.286 80-18.286 214.857 0 214.857 191.429 0 65.143-23.429 102.857-15.429 25.143-35.143 42.286t-38.571 26.571-46 14.286-48 6-54 1.143q-41.714 0-57.714-5.714 0-30.286-0.286-90.857t-0.286-90.286q0-4.571-0.571-38.571t-0.286-55.143 2.571-47.714 6.857-38zM309.143 508q24-4 62.286-4 46.857 0 81.714 7.429t62.857 25.429 42.571 51.143 14.571 81.143q0 40-16.571 70t-45.143 46.857-61.714 24.857-70.857 8q-28.571 0-74.286-7.429 0-28.571 2.286-86.286t2.286-86.857q0-15.429-0.286-45.714t-0.286-45.143q0-26.286 0.571-39.429zM0 0l1.143 53.714q8.571 2.286 48.571 9.143t60.571 15.429q4 6.857 7.143 15.429t4.857 19.143 3.143 18.571 1.714 21.429 0.286 19.429v37.429q0 561.143-12.571 585.714-2.286 4.571-12.571 8.286t-25.429 6.286-28.286 4-27.714 2.571-17.429 1.714l-2.286 47.429q56 1.143 194.286 6.571t213.143 5.429q13.143 0 39.143-0.286t38.571-0.286q40 0 78-7.429t73.429-24 61.714-40.571 42.286-59.714 16-78.571q0-29.714-9.429-54.571t-22.286-41.143-36.857-32.857-41.714-25.714-48-22.857q88-20 146.571-76.571t58.571-141.714q0-57.143-20-102.571t-53.429-74.571-78.857-48.857-93.429-27.714-100.571-8q-25.143 0-75.429 1.714t-75.429 1.714q-60.571 0-175.429-6.286t-132-6.857z" />
<glyph unicode="&#xf033;" glyph-name="italic" horiz-adv-x="585" d="M0 1.143l9.714 48.571q3.429 1.143 46.571 12.286t63.714 21.429q16 20 23.429 57.714 0.571 4 35.429 165.143t65.143 310.571 29.714 169.429v14.286q-13.714 7.429-31.143 10.571t-39.714 4.571-33.143 3.143l10.857 58.857q18.857-1.143 68.571-3.714t85.429-4 68.857-1.429q27.429 0 56.286 1.429t69.143 4 56.286 3.714q-2.857-22.286-10.857-50.857-17.143-5.714-58-16.286t-62-19.143q-4.571-10.857-8-24.286t-5.143-22.857-4.286-26-3.714-24q-15.429-84.571-50-239.714t-44.286-203.143q-1.143-5.143-7.429-33.143t-11.429-51.429-9.143-47.714-3.429-32.857l0.571-10.286q9.714-2.286 105.714-17.714-1.714-25.143-9.143-56.571-6.286 0-18.571-0.857t-18.571-0.857q-16.571 0-49.714 5.714t-49.143 5.714q-78.857 1.143-117.714 1.143-29.143 0-81.714-5.143t-69.143-6.286z" />
<glyph unicode="&#xf034;" glyph-name="text-height" horiz-adv-x="1026" d="M996.571 146.286q18.857 0 24-10.571t-6.286-25.429l-72-92.571q-11.429-14.857-28-14.857t-28 14.857l-72 92.571q-11.429 14.857-6.286 25.429t24 10.571h45.714v585.143h-45.714q-18.857 0-24 10.571t6.286 25.429l72 92.571q11.429 14.857 28 14.857t28-14.857l72-92.571q11.429-14.857 6.286-25.429t-24-10.571h-45.714v-585.143h45.714zM46.286 877.143l30.857-15.429q6.857-2.857 120.571-2.857 25.143 0 75.429 1.143t75.429 1.143q20.571 0 61.429-0.286t61.429-0.286h167.429q3.429 0 12-0.286t11.714 0 9.143 1.714 10 5.143 8.571 10l24 0.571q2.286 0 8-0.286t8-0.286q1.143-64 1.143-192 0-45.714-2.857-62.286-22.286-8-38.857-10.286-14.286 25.143-30.857 73.143-1.714 5.143-6.286 27.429t-8.286 42-4.286 20.286q-3.429 4.571-6.857 7.143t-8.857 3.429-7.429 1.429-10.286 0.286-9.429-0.286q-9.714 0-38 0.286t-42.571 0.286-36.571-1.143-40.571-3.429q-5.143-46.286-4.571-77.714 0-53.714 1.143-221.714t1.143-260q0-9.143-1.429-40.857t0-52.286 7.143-39.429q22.857-12 70.857-24.286t68.571-21.429q2.857-22.857 2.857-28.571 0-8-1.714-16.571l-19.429-0.571q-43.429-1.143-124.571 4.571t-118.286 5.714q-28.571 0-86.286-5.143t-86.857-5.143q-1.714 29.143-1.714 29.714v5.143q9.714 15.429 35.143 24.571t56.286 16.571 44.571 15.429q10.857 24 10.857 218.857 0 57.714-1.714 173.143t-1.714 173.143v66.857q0 1.143 0.286 8.857t0.286 14.286-0.571 14.571-1.714 13.714-2.857 8q-6.286 6.857-92.571 6.857-18.857 0-53.143-6.857t-45.714-14.857q-10.857-7.429-19.429-41.429t-18-63.429-24.286-30.571q-24 14.857-32 25.143v218.857z" />
<glyph unicode="&#xf035;" glyph-name="text-width" horiz-adv-x="878" d="M46.286 877.143l30.857-15.429q6.857-2.857 120.571-2.857 25.143 0 75.429 1.143t75.429 1.143q40 0 140.857 0.571t174 0.286 141.143-2.571q18.857-0.571 32 17.714l24 0.571q2.286 0 8-0.286t8-0.286q1.143-64 1.143-192 0-45.714-2.857-62.286-22.286-8-38.857-10.286-14.286 25.143-30.857 73.143-1.714 5.143-6.286 27.143t-8.571 42-4 20.571q-5.714 7.429-15.429 10.857-2.857 1.143-37.714 1.143-17.143 0-53.143 0.571t-58.857 0.571-53.714-1.143-54.857-4q-5.143-46.286-4.571-77.714l0.571-86.857v29.714q0-31.429 0.571-88t0.857-102.857 0.286-87.429q0-9.143-1.429-40.857t0-52.286 7.143-39.429q22.857-12 70.857-24.286t68.571-21.429q2.857-22.857 2.857-28.571 0-8-1.714-16.571l-19.429-0.571q-43.429-1.143-124.571 4.571t-118.286 5.714q-28.571 0-86.286-5.143t-86.857-5.143q-1.714 29.143-1.714 29.714v5.143q9.714 15.429 35.143 24.571t56.286 16.571 44.571 15.429q4 9.143 6.571 42.286t3.429 83.143 0.857 88.571-0.286 87.714-0.286 50.857q0 4-1.429 12.286t-1.429 12.857q0 4 0.286 25.143t0.571 41.714 0 43.714-1.714 38.571-3.714 18.286q-6.286 6.857-92.571 6.857-23.429 0-93.143-7.714t-78.857-14q-10.857-6.857-19.429-40.857t-18-63.714-24.286-30.857q-24 14.857-32 25.143v218.857zM748.571 144.571q6.857 0 24-11.143t32.857-23.714 34-28 20.571-17.143q14.857-12 14.857-28t-14.857-28q-2.286-1.714-20.571-17.143t-34-28-32.857-23.714-24-11.143q-7.429 0-11.714 6t-5.714 16.286-1.429 19.143 0.857 18.857 0.857 11.143h-585.143q0-1.143 0.857-11.143t0.857-18.857-1.429-19.143-5.714-16.286-11.714-6q-6.857 0-24 11.143t-32.857 23.714-34 28-20.571 17.143q-14.857 12-14.857 28t14.857 28q2.286 1.714 20.571 17.143t34 28 32.857 23.714 24 11.143q7.429 0 11.714-6t5.714-16.286 1.429-19.143-0.857-18.857-0.857-11.143h585.143q0 1.143-0.857 11.143t-0.857 18.857 1.429 19.143 5.714 16.286 11.714 6z" />
<glyph unicode="&#xf036;" glyph-name="align-left" d="M1024 182.857v-73.143q0-14.857-10.857-25.714t-25.714-10.857h-950.857q-14.857 0-25.714 10.857t-10.857 25.714v73.143q0 14.857 10.857 25.714t25.714 10.857h950.857q14.857 0 25.714-10.857t10.857-25.714zM804.571 402.286v-73.143q0-14.857-10.857-25.714t-25.714-10.857h-731.429q-14.857 0-25.714 10.857t-10.857 25.714v73.143q0 14.857 10.857 25.714t25.714 10.857h731.429q14.857 0 25.714-10.857t10.857-25.714zM950.857 621.714v-73.143q0-14.857-10.857-25.714t-25.714-10.857h-877.714q-14.857 0-25.714 10.857t-10.857 25.714v73.143q0 14.857 10.857 25.714t25.714 10.857h877.714q14.857 0 25.714-10.857t10.857-25.714zM731.429 841.143v-73.143q0-14.857-10.857-25.714t-25.714-10.857h-658.286q-14.857 0-25.714 10.857t-10.857 25.714v73.143q0 14.857 10.857 25.714t25.714 10.857h658.286q14.857 0 25.714-10.857t10.857-25.714z" />
<glyph unicode="&#xf037;" glyph-name="align-center" d="M1024 182.857v-73.143q0-14.857-10.857-25.714t-25.714-10.857h-950.857q-14.857 0-25.714 10.857t-10.857 25.714v73.143q0 14.857 10.857 25.714t25.714 10.857h950.857q14.857 0 25.714-10.857t10.857-25.714zM804.571 402.286v-73.143q0-14.857-10.857-25.714t-25.714-10.857h-512q-14.857 0-25.714 10.857t-10.857 25.714v73.143q0 14.857 10.857 25.714t25.714 10.857h512q14.857 0 25.714-10.857t10.857-25.714zM950.857 621.714v-73.143q0-14.857-10.857-25.714t-25.714-10.857h-804.571q-14.857 0-25.714 10.857t-10.857 25.714v73.143q0 14.857 10.857 25.714t25.714 10.857h804.571q14.857 0 25.714-10.857t10.857-25.714zM731.429 841.143v-73.143q0-14.857-10.857-25.714t-25.714-10.857h-365.714q-14.857 0-25.714 10.857t-10.857 25.714v73.143q0 14.857 10.857 25.714t25.714 10.857h365.714q14.857 0 25.714-10.857t10.857-25.714z" />
<glyph unicode="&#xf038;" glyph-name="align-right" d="M1024 182.857v-73.143q0-14.857-10.857-25.714t-25.714-10.857h-950.857q-14.857 0-25.714 10.857t-10.857 25.714v73.143q0 14.857 10.857 25.714t25.714 10.857h950.857q14.857 0 25.714-10.857t10.857-25.714zM1024 402.286v-73.143q0-14.857-10.857-25.714t-25.714-10.857h-731.429q-14.857 0-25.714 10.857t-10.857 25.714v73.143q0 14.857 10.857 25.714t25.714 10.857h731.429q14.857 0 25.714-10.857t10.857-25.714zM1024 621.714v-73.143q0-14.857-10.857-25.714t-25.714-10.857h-877.714q-14.857 0-25.714 10.857t-10.857 25.714v73.143q0 14.857 10.857 25.714t25.714 10.857h877.714q14.857 0 25.714-10.857t10.857-25.714zM1024 841.143v-73.143q0-14.857-10.857-25.714t-25.714-10.857h-658.286q-14.857 0-25.714 10.857t-10.857 25.714v73.143q0 14.857 10.857 25.714t25.714 10.857h658.286q14.857 0 25.714-10.857t10.857-25.714z" />
<glyph unicode="&#xf039;" glyph-name="align-justify" d="M1024 182.857v-73.143q0-14.857-10.857-25.714t-25.714-10.857h-950.857q-14.857 0-25.714 10.857t-10.857 25.714v73.143q0 14.857 10.857 25.714t25.714 10.857h950.857q14.857 0 25.714-10.857t10.857-25.714zM1024 402.286v-73.143q0-14.857-10.857-25.714t-25.714-10.857h-950.857q-14.857 0-25.714 10.857t-10.857 25.714v73.143q0 14.857 10.857 25.714t25.714 10.857h950.857q14.857 0 25.714-10.857t10.857-25.714zM1024 621.714v-73.143q0-14.857-10.857-25.714t-25.714-10.857h-950.857q-14.857 0-25.714 10.857t-10.857 25.714v73.143q0 14.857 10.857 25.714t25.714 10.857h950.857q14.857 0 25.714-10.857t10.857-25.714zM1024 841.143v-73.143q0-14.857-10.857-25.714t-25.714-10.857h-950.857q-14.857 0-25.714 10.857t-10.857 25.714v73.143q0 14.857 10.857 25.714t25.714 10.857h950.857q14.857 0 25.714-10.857t10.857-25.714z" />
<glyph unicode="&#xf03a;" glyph-name="list" d="M146.286 201.143v-109.714q0-7.429-5.429-12.857t-12.857-5.429h-109.714q-7.429 0-12.857 5.429t-5.429 12.857v109.714q0 7.429 5.429 12.857t12.857 5.429h109.714q7.429 0 12.857-5.429t5.429-12.857zM146.286 420.571v-109.714q0-7.429-5.429-12.857t-12.857-5.429h-109.714q-7.429 0-12.857 5.429t-5.429 12.857v109.714q0 7.429 5.429 12.857t12.857 5.429h109.714q7.429 0 12.857-5.429t5.429-12.857zM146.286 640v-109.714q0-7.429-5.429-12.857t-12.857-5.429h-109.714q-7.429 0-12.857 5.429t-5.429 12.857v109.714q0 7.429 5.429 12.857t12.857 5.429h109.714q7.429 0 12.857-5.429t5.429-12.857zM1024 201.143v-109.714q0-7.429-5.429-12.857t-12.857-5.429h-768q-7.429 0-12.857 5.429t-5.429 12.857v109.714q0 7.429 5.429 12.857t12.857 5.429h768q7.429 0 12.857-5.429t5.429-12.857zM146.286 859.428v-109.714q0-7.429-5.429-12.857t-12.857-5.429h-109.714q-7.429 0-12.857 5.429t-5.429 12.857v109.714q0 7.429 5.429 12.857t12.857 5.429h109.714q7.429 0 12.857-5.429t5.429-12.857zM1024 420.571v-109.714q0-7.429-5.429-12.857t-12.857-5.429h-768q-7.429 0-12.857 5.429t-5.429 12.857v109.714q0 7.429 5.429 12.857t12.857 5.429h768q7.429 0 12.857-5.429t5.429-12.857zM1024 640v-109.714q0-7.429-5.429-12.857t-12.857-5.429h-768q-7.429 0-12.857 5.429t-5.429 12.857v109.714q0 7.429 5.429 12.857t12.857 5.429h768q7.429 0 12.857-5.429t5.429-12.857zM1024 859.428v-109.714q0-7.429-5.429-12.857t-12.857-5.429h-768q-7.429 0-12.857 5.429t-5.429 12.857v109.714q0 7.429 5.429 12.857t12.857 5.429h768q7.429 0 12.857-5.429t5.429-12.857z" />
<glyph unicode="&#xf03b;" glyph-name="dedent" d="M219.429 640v-329.143q0-7.429-5.429-12.857t-12.857-5.429q-8 0-13.143 5.143l-164.571 164.571q-5.143 5.143-5.143 13.143t5.143 13.143l164.571 164.571q5.143 5.143 13.143 5.143 7.429 0 12.857-5.429t5.429-12.857zM1024 201.143v-109.714q0-7.429-5.429-12.857t-12.857-5.429h-987.429q-7.429 0-12.857 5.429t-5.429 12.857v109.714q0 7.429 5.429 12.857t12.857 5.429h987.429q7.429 0 12.857-5.429t5.429-12.857zM1024 420.571v-109.714q0-7.429-5.429-12.857t-12.857-5.429h-621.714q-7.429 0-12.857 5.429t-5.429 12.857v109.714q0 7.429 5.429 12.857t12.857 5.429h621.714q7.429 0 12.857-5.429t5.429-12.857zM1024 640v-109.714q0-7.429-5.429-12.857t-12.857-5.429h-621.714q-7.429 0-12.857 5.429t-5.429 12.857v109.714q0 7.429 5.429 12.857t12.857 5.429h621.714q7.429 0 12.857-5.429t5.429-12.857zM1024 859.428v-109.714q0-7.429-5.429-12.857t-12.857-5.429h-987.429q-7.429 0-12.857 5.429t-5.429 12.857v109.714q0 7.429 5.429 12.857t12.857 5.429h987.429q7.429 0 12.857-5.429t5.429-12.857z" />
<glyph unicode="&#xf03c;" glyph-name="indent" d="M201.143 475.428q0-8-5.143-13.143l-164.571-164.571q-5.143-5.143-13.143-5.143-7.429 0-12.857 5.429t-5.429 12.857v329.143q0 7.429 5.429 12.857t12.857 5.429q8 0 13.143-5.143l164.571-164.571q5.143-5.143 5.143-13.143zM1024 201.143v-109.714q0-7.429-5.429-12.857t-12.857-5.429h-987.429q-7.429 0-12.857 5.429t-5.429 12.857v109.714q0 7.429 5.429 12.857t12.857 5.429h987.429q7.429 0 12.857-5.429t5.429-12.857zM1024 420.571v-109.714q0-7.429-5.429-12.857t-12.857-5.429h-621.714q-7.429 0-12.857 5.429t-5.429 12.857v109.714q0 7.429 5.429 12.857t12.857 5.429h621.714q7.429 0 12.857-5.429t5.429-12.857zM1024 640v-109.714q0-7.429-5.429-12.857t-12.857-5.429h-621.714q-7.429 0-12.857 5.429t-5.429 12.857v109.714q0 7.429 5.429 12.857t12.857 5.429h621.714q7.429 0 12.857-5.429t5.429-12.857zM1024 859.428v-109.714q0-7.429-5.429-12.857t-12.857-5.429h-987.429q-7.429 0-12.857 5.429t-5.429 12.857v109.714q0 7.429 5.429 12.857t12.857 5.429h987.429q7.429 0 12.857-5.429t5.429-12.857z" />
<glyph unicode="&#xf073;" glyph-name="calendar" horiz-adv-x="951" d="M73.143 0h164.571v164.571h-164.571v-164.571zM274.286 0h182.857v164.571h-182.857v-164.571zM73.143 201.143h164.571v182.857h-164.571v-182.857zM274.286 201.143h182.857v182.857h-182.857v-182.857zM73.143 420.571h164.571v164.571h-164.571v-164.571zM493.714 0h182.857v164.571h-182.857v-164.571zM274.286 420.571h182.857v164.571h-182.857v-164.571zM713.143 0h164.571v164.571h-164.571v-164.571zM493.714 201.143h182.857v182.857h-182.857v-182.857zM292.571 694.857v164.571q0 7.429-5.429 12.857t-12.857 5.429h-36.571q-7.429 0-12.857-5.429t-5.429-12.857v-164.571q0-7.429 5.429-12.857t12.857-5.429h36.571q7.429 0 12.857 5.429t5.429 12.857zM713.143 201.143h164.571v182.857h-164.571v-182.857zM493.714 420.571h182.857v164.571h-182.857v-164.571zM713.143 420.571h164.571v164.571h-164.571v-164.571zM731.429 694.857v164.571q0 7.429-5.429 12.857t-12.857 5.429h-36.571q-7.429 0-12.857-5.429t-5.429-12.857v-164.571q0-7.429 5.429-12.857t12.857-5.429h36.571q7.429 0 12.857 5.429t5.429 12.857zM950.857 731.428v-731.429q0-29.714-21.714-51.429t-51.429-21.714h-804.571q-29.714 0-51.429 21.714t-21.714 51.429v731.429q0 29.714 21.714 51.429t51.429 21.714h73.143v54.857q0 37.714 26.857 64.571t64.571 26.857h36.571q37.714 0 64.571-26.857t26.857-64.571v-54.857h219.429v54.857q0 37.714 26.857 64.571t64.571 26.857h36.571q37.714 0 64.571-26.857t26.857-64.571v-54.857h73.143q29.714 0 51.429-21.714t21.714-51.429z" />
<glyph unicode="&#xf074;" glyph-name="random" d="M380.571 676q-34.286-52.571-78.286-156-12.571 25.714-21.143 41.429t-23.143 36.286-29.143 32.286-36 20-46.571 8.286h-128q-8 0-13.143 5.143t-5.143 13.143v109.714q0 8 5.143 13.143t13.143 5.143h128q142.857 0 234.286-128.571zM1024 219.428q0-8-5.143-13.143l-182.857-182.857q-5.143-5.143-13.143-5.143-7.429 0-12.857 5.429t-5.429 12.857v109.714q-18.286 0-48.571-0.286t-46.286-0.571-41.714 0.571-40.571 2.857-36.571 6-36 10.571-33.143 16.286-33.714 22.857-31.429 30.571-32 39.714q33.714 53.143 77.714 156 12.571-25.714 21.143-41.429t23.143-36.286 29.143-32.286 36-20 46.571-8.286h146.286v109.714q0 8 5.143 13.143t13.143 5.143q6.857 0 13.714-5.714l182.286-182.286q5.143-5.143 5.143-13.143zM1024 731.428q0-8-5.143-13.143l-182.857-182.857q-5.143-5.143-13.143-5.143-7.429 0-12.857 5.429t-5.429 12.857v109.714h-146.286q-27.429 0-49.714-8.571t-39.429-25.714-29.143-35.143-25.714-44.286q-18.286-35.429-44.571-97.714-16.571-37.714-28.286-63.429t-30.857-60-36.571-57.143-42.286-47.429-51.429-39.143-60.857-24-73.143-9.429h-128q-8 0-13.143 5.143t-5.143 13.143v109.714q0 8 5.143 13.143t13.143 5.143h128q27.429 0 49.714 8.571t39.429 25.714 29.143 35.143 25.714 44.286q18.286 35.429 44.571 97.714 16.571 37.714 28.286 63.429t30.857 60 36.571 57.143 42.286 47.429 51.429 39.143 60.857 24 73.143 9.429h146.286v109.714q0 8 5.143 13.143t13.143 5.143q6.857 0 13.714-5.714l182.286-182.286q5.143-5.143 5.143-13.143z" />
<glyph unicode="&#xf07a;" glyph-name="shop-cart" horiz-adv-x="951" d="M365.714 73.143q0-29.714-21.714-51.429t-51.429-21.714-51.429 21.714-21.714 51.429 21.714 51.429 51.429 21.714 51.429-21.714 21.714-51.429zM877.714 73.143q0-29.714-21.714-51.429t-51.429-21.714-51.429 21.714-21.714 51.429 21.714 51.429 51.429 21.714 51.429-21.714 21.714-51.429zM950.857 694.857v-292.571q0-13.714-9.429-24.286t-23.143-12.286l-596.571-69.714q7.429-34.286 7.429-40 0-9.143-13.714-36.571h525.714q14.857 0 25.714-10.857t10.857-25.714-10.857-25.714-25.714-10.857h-585.143q-14.857 0-25.714 10.857t-10.857 25.714q0 6.286 4.571 18t9.143 20.571 12.286 22.857 8.857 16.857l-101.143 470.286h-116.571q-14.857 0-25.714 10.857t-10.857 25.714 10.857 25.714 25.714 10.857h146.286q9.143 0 16.286-3.714t11.143-8.857 7.429-14 4.571-14.857 3.143-16.857 2.571-14.857h686.286q14.857 0 25.714-10.857t10.857-25.714z" />
<glyph unicode="&#xf086;" glyph-name="comment-3" d="M804.571 512q0-79.429-53.714-146.857t-146.571-106.571-202-39.143q-49.143 0-100.571 9.143-70.857-50.286-158.857-73.143-20.571-5.143-49.143-9.143h-1.714q-6.286 0-11.714 4.571t-6.571 12q-0.571 1.714-0.571 3.714t0.286 3.714 1.143 3.429l1.429 2.857t2 3.143 2.286 2.857 2.571 2.857 2.286 2.571q2.857 3.429 13.143 14.286t14.857 16.857 12.857 16.571 14.286 22 11.714 25.143q-70.857 41.143-111.429 101.143t-40.571 128q0 79.429 53.714 146.857t146.571 106.571 202 39.143 202-39.143 146.571-106.571 53.714-146.857zM1024 365.714q0-68.571-40.571-128.286t-111.429-100.857q5.714-13.714 11.714-25.143t14.286-22 12.857-16.571 14.857-16.857 13.143-14.286q0.571-0.571 2.286-2.571t2.571-2.857 2.286-2.857 2-3.143l1.429-2.857t1.143-3.429 0.286-3.714-0.571-3.714q-1.714-8-7.429-12.571t-12.571-4q-28.571 4-49.143 9.143-88 22.857-158.857 73.143-51.429-9.143-100.571-9.143-154.857 0-269.714 75.429 33.143-2.286 50.286-2.286 92 0 176.571 25.714t150.857 73.714q71.429 52.571 109.714 121.143t38.286 145.143q0 44-13.143 86.857 73.714-40.571 116.571-101.714t42.857-131.429z" />
<glyph unicode="&#xf087;" glyph-name="thumbs-up" horiz-adv-x="878" d="M146.286 182.857q0 14.857-10.857 25.714t-25.714 10.857-25.714-10.857-10.857-25.714 10.857-25.714 25.714-10.857 25.714 10.857 10.857 25.714zM804.571 512q0 29.143-22.286 51.143t-50.857 22h-201.143q0 33.143 27.429 91.143t27.429 91.714q0 56-18.286 82.857t-73.143 26.857q-14.857-14.857-21.714-48.571t-17.429-71.714-34-62.571q-12.571-13.143-44-52-2.286-2.857-13.143-17.143t-18-23.429-19.714-24.286-22.857-25.143-22-20.286-22.857-15.429-20.286-5.143h-18.286v-365.714h18.286q7.429 0 18-1.714t18.857-3.714 21.714-6.286 20-6.571 20.286-7.143 16.571-6q120.571-41.714 195.429-41.714h69.143q109.714 0 109.714 95.429 0 14.857-2.857 32 17.143 9.143 27.143 30t10 42-10.286 39.429q30.286 28.571 30.286 68 0 14.286-5.714 31.714t-14.286 27.143q18.286 0.571 30.571 26.857t12.286 46.286zM877.714 512.571q0-50.857-28-93.143 5.143-18.857 5.143-39.429 0-44-21.714-82.286 1.714-12 1.714-24.571 0-57.714-34.286-101.714 0.571-79.429-48.571-125.429t-129.714-46h-73.714q-54.857 0-108.286 12.857t-123.714 37.429q-66.286 22.857-78.857 22.857h-164.571q-30.286 0-51.714 21.429t-21.429 51.714v365.714q0 30.286 21.429 51.714t51.714 21.429h156.571q20.571 13.714 78.286 88.571 33.143 42.857 61.143 73.143 13.714 14.286 20.286 48.857t17.429 72.286 35.429 61.714q22.286 21.143 51.429 21.143 48 0 86.286-18.571t58.286-58 20-106.286q0-53.143-27.429-109.714h100.571q59.429 0 102.857-43.429t43.429-102.286z" />
<glyph unicode="&#xf088;" glyph-name="like" horiz-adv-x="878" d="M146.286 182.857q0 14.857-10.857 25.714t-25.714 10.857-25.714-10.857-10.857-25.714 10.857-25.714 25.714-10.857 25.714 10.857 10.857 25.714zM804.571 512q0 29.143-22.286 51.143t-50.857 22h-201.143q0 33.143 27.429 91.143t27.429 91.714q0 56-18.286 82.857t-73.143 26.857q-14.857-14.857-21.714-48.571t-17.429-71.714-34-62.571q-12.571-13.143-44-52-2.286-2.857-13.143-17.143t-18-23.429-19.714-24.286-22.857-25.143-22-20.286-22.857-15.429-20.286-5.143h-18.286v-365.714h18.286q7.429 0 18-1.714t18.857-3.714 21.714-6.286 20-6.571 20.286-7.143 16.571-6q120.571-41.714 195.429-41.714h69.143q109.714 0 109.714 95.429 0 14.857-2.857 32 17.143 9.143 27.143 30t10 42-10.286 39.429q30.286 28.571 30.286 68 0 14.286-5.714 31.714t-14.286 27.143q18.286 0.571 30.571 26.857t12.286 46.286zM877.714 512.571q0-50.857-28-93.143 5.143-18.857 5.143-39.429 0-44-21.714-82.286 1.714-12 1.714-24.571 0-57.714-34.286-101.714 0.571-79.429-48.571-125.429t-129.714-46h-73.714q-54.857 0-108.286 12.857t-123.714 37.429q-66.286 22.857-78.857 22.857h-164.571q-30.286 0-51.714 21.429t-21.429 51.714v365.714q0 30.286 21.429 51.714t51.714 21.429h156.571q20.571 13.714 78.286 88.571 33.143 42.857 61.143 73.143 13.714 14.286 20.286 48.857t17.429 72.286 35.429 61.714q22.286 21.143 51.429 21.143 48 0 86.286-18.571t58.286-58 20-106.286q0-53.143-27.429-109.714h100.571q59.429 0 102.857-43.429t43.429-102.286z" />
<glyph unicode="&#xf089;" glyph-name="dislike" horiz-adv-x="878" d="M146.286 694.857q0 14.857-10.857 25.714t-25.714 10.857-25.714-10.857-10.857-25.714 10.857-25.714 25.714-10.857 25.714 10.857 10.857 25.714zM804.571 365.714q0 20-12.286 46.286t-30.571 26.857q8.571 9.714 14.286 27.143t5.714 31.714q0 39.429-30.286 68 10.286 18.286 10.286 39.429t-10 42-27.143 30q2.857 17.143 2.857 32 0 48.571-28 72t-77.714 23.429h-73.143q-74.857 0-195.429-41.714-2.857-1.143-16.571-6t-20.286-7.143-20-6.571-21.714-6.286-18.857-3.714-18-1.714h-18.286v-365.714h18.286q9.143 0 20.286-5.143t22.857-15.429 22-20.286 22.857-25.143 19.714-24.286 18-23.429 13.143-17.143q31.429-38.857 44-52 23.429-24.571 34-62.571t17.429-71.714 21.714-48.571q54.857 0 73.143 26.857t18.286 82.857q0 33.714-27.429 91.714t-27.429 91.143h201.143q28.571 0 50.857 22t22.286 51.143zM877.714 365.143q0-58.857-43.429-102.286t-102.857-43.429h-100.571q27.429-56.571 27.429-109.714 0-67.429-20-106.286-20-39.429-58.286-58t-86.286-18.571q-29.143 0-51.429 21.143-19.429 18.857-30.857 46.857t-14.571 51.714-10 48.286-17.714 36.571q-27.429 28.571-61.143 72.571-57.714 74.857-78.286 88.571h-156.571q-30.286 0-51.714 21.429t-21.429 51.714v365.714q0 30.286 21.429 51.714t51.714 21.429h164.571q12.571 0 78.857 22.857 73.143 25.143 127.429 37.714t114.286 12.571h64q80 0 129.429-45.143t48.857-123.429v-2.857q34.286-44 34.286-101.714 0-12.571-1.714-24.571 21.714-38.286 21.714-82.286 0-20.571-5.143-39.429 28-42.286 28-93.143z" />
<glyph unicode="&#xf095;" glyph-name="phone" horiz-adv-x="805" d="M804.571 242.286q0-15.429-5.714-40.286t-12-39.143q-12-28.571-69.714-60.571-53.714-29.143-106.286-29.143-15.429 0-30 2t-32.857 7.143-27.143 8.286-31.714 11.714-28 10.286q-56 20-100 47.429-73.143 45.143-151.143 123.143t-123.143 151.143q-27.429 44-47.429 100-1.714 5.143-10.286 28t-11.714 31.714-8.286 27.143-7.143 32.857-2 30q0 52.571 29.143 106.286 32 57.714 60.571 69.714 14.286 6.286 39.143 12t40.286 5.714q8 0 12-1.714 10.286-3.429 30.286-43.429 6.286-10.857 17.143-30.857t20-36.286 17.714-30.571q1.714-2.286 10-14.286t12.286-20.286 4-16.286q0-11.429-16.286-28.571t-35.429-31.429-35.429-30.286-16.286-26.286q0-5.143 2.857-12.857t4.857-11.714 8-13.714 6.571-10.857q43.429-78.286 99.429-134.286t134.286-99.429q1.143-0.571 10.857-6.571t13.714-8 11.714-4.857 12.857-2.857q10.286 0 26.286 16.286t30.286 35.429 31.429 35.429 28.571 16.286q8 0 16.286-4t20.286-12.286 14.286-10q14.286-8.571 30.571-17.714t36.286-20 30.857-17.143q40-20 43.429-30.286 1.714-4 1.714-12z" />
<glyph unicode="&#xf09d;" glyph-name="credit-card" horiz-adv-x="1097" d="M1005.714 877.714q37.714 0 64.571-26.857t26.857-64.571v-694.857q0-37.714-26.857-64.571t-64.571-26.857h-914.286q-37.714 0-64.571 26.857t-26.857 64.571v694.857q0 37.714 26.857 64.571t64.571 26.857h914.286zM91.429 804.571q-7.429 0-12.857-5.429t-5.429-12.857v-128h950.857v128q0 7.429-5.429 12.857t-12.857 5.429h-914.286zM1005.714 73.143q7.429 0 12.857 5.429t5.429 12.857v347.429h-950.857v-347.429q0-7.429 5.429-12.857t12.857-5.429h914.286zM146.286 146.286v73.143h146.286v-73.143h-146.286zM365.714 146.286v73.143h219.429v-73.143h-219.429z" />
<glyph unicode="&#xf0c7;" glyph-name="floppy" horiz-adv-x="878" d="M219.429 73.143h438.857v219.429h-438.857v-219.429zM731.429 73.143h73.143v512q0 8-5.714 22t-11.429 19.714l-160.571 160.571q-5.714 5.714-19.429 11.429t-22.286 5.714v-237.714q0-22.857-16-38.857t-38.857-16h-329.143q-22.857 0-38.857 16t-16 38.857v237.714h-73.143v-731.429h73.143v237.714q0 22.857 16 38.857t38.857 16h475.429q22.857 0 38.857-16t16-38.857v-237.714zM512 603.428v182.857q0 7.429-5.429 12.857t-12.857 5.429h-109.714q-7.429 0-12.857-5.429t-5.429-12.857v-182.857q0-7.429 5.429-12.857t12.857-5.429h109.714q7.429 0 12.857 5.429t5.429 12.857zM877.714 585.143v-530.286q0-22.857-16-38.857t-38.857-16h-768q-22.857 0-38.857 16t-16 38.857v768q0 22.857 16 38.857t38.857 16h530.286q22.857 0 50.286-11.429t43.429-27.429l160-160q16-16 27.429-43.429t11.429-50.286z" />
<glyph unicode="&#xf0e0;" glyph-name="envelope" d="M1024 545.143v-453.714q0-37.714-26.857-64.571t-64.571-26.857h-841.143q-37.714 0-64.571 26.857t-26.857 64.571v453.714q25.143-28 57.714-49.714 206.857-140.571 284-197.143 32.571-24 52.857-37.429t54-27.429 62.857-14h1.143q29.143 0 62.857 14t54 27.429 52.857 37.429q97.143 70.286 284.571 197.143 32.571 22.286 57.143 49.714zM1024 713.143q0-45.143-28-86.286t-69.714-70.286q-214.857-149.143-267.429-185.714-5.714-4-24.286-17.429t-30.857-21.714-29.714-18.571-32.857-15.429-28.571-5.143h-1.143q-13.143 0-28.571 5.143t-32.857 15.429-29.714 18.571-30.857 21.714-24.286 17.429q-52 36.571-149.714 104.286t-117.143 81.429q-35.429 24-66.857 66t-31.429 78q0 44.571 23.714 74.286t67.714 29.714h841.143q37.143 0 64.286-26.857t27.143-64.571z" />
<glyph unicode="&#xf0e1;" glyph-name="linkedin" horiz-adv-x="878" d="M199.429 593.714v-566.286h-188.571v566.286h188.571zM211.429 768.571q0.571-41.714-28.857-69.714t-77.429-28h-1.143q-46.857 0-75.429 28t-28.571 69.714q0 42.286 29.429 70t76.857 27.714 76-27.714 29.143-70zM877.714 352v-324.571h-188v302.857q0 60-23.143 94t-72.286 34q-36 0-60.286-19.714t-36.286-48.857q-6.286-17.143-6.286-46.286v-316h-188q1.143 228 1.143 369.714t-0.571 169.143l-0.571 27.429h188v-82.286h-1.143q11.429 18.286 23.429 32t32.286 29.714 49.714 24.857 65.429 8.857q97.714 0 157.143-64.857t59.429-190z" />
<glyph unicode="&#xf0e2;" glyph-name="rotate-left" horiz-adv-x="878" d="M877.714 438.857q0-89.143-34.857-170.286t-93.714-140-140-93.714-170.286-34.857q-98.286 0-186.857 41.429t-150.857 116.857q-4 5.714-3.714 12.857t4.857 11.714l78.286 78.857q5.714 5.143 14.286 5.143 9.143-1.143 13.143-6.857 41.714-54.286 102.286-84t128.571-29.714q59.429 0 113.429 23.143t93.429 62.571 62.571 93.429 23.143 113.429-23.143 113.429-62.571 93.429-93.429 62.571-113.429 23.143q-56 0-107.429-20.286t-91.429-58l78.286-78.857q17.714-17.143 8-39.429-9.714-22.857-33.714-22.857h-256q-14.857 0-25.714 10.857t-10.857 25.714v256q0 24 22.857 33.714 22.286 9.714 39.429-8l74.286-73.714q61.143 57.714 139.714 89.429t162.571 31.714q89.143 0 170.286-34.857t140-93.714 93.714-140 34.857-170.286z" />
<glyph unicode="&#xf0e3;" glyph-name="legal" horiz-adv-x="1035" d="M1012 73.143q0-30.286-21.143-51.429l-61.143-61.714q-22.286-21.143-52-21.143-30.286 0-51.429 21.143l-207.429 208q-21.714 20.571-21.714 51.429 0 30.286 24.571 54.857l-146.286 146.286-72-72q-8-8-19.429-8t-19.429 8q1.143-1.143 7.143-6.857t7.143-7.429 5.714-6.571 5.714-7.714 3.429-7.714 3.143-9.429 0.857-10.286q0-21.714-16-38.857-1.714-1.714-9.429-10.286t-10.857-11.714-10.571-9.429-12.571-8.857-12.571-5.143-14.857-2.571q-22.857 0-38.857 16l-233.143 233.143q-16 16-16 38.857 0 7.429 2.571 14.857t5.143 12.571 8.857 12.571 9.429 10.571 11.714 10.857 10.286 9.429q17.143 16 38.857 16 5.714 0 10.286-0.857t9.429-3.143 7.714-3.429 7.714-5.714 6.571-5.714 7.429-7.143 6.857-7.143q-8 8-8 19.429t8 19.429l198.857 198.857q8 8 19.429 8t19.429-8q-1.143 1.143-7.143 6.857t-7.143 7.429-5.714 6.571-5.714 7.714-3.429 7.714-3.143 9.429-0.857 10.286q0 21.714 16 38.857 1.714 1.714 9.429 10.286t10.857 11.714 10.571 9.429 12.571 8.857 12.571 5.143 14.857 2.571q22.857 0 38.857-16l233.143-233.143q16-16 16-38.857 0-7.429-2.571-14.857t-5.143-12.571-8.857-12.571-9.429-10.571-11.714-10.857-10.286-9.429q-17.143-16-38.857-16-5.714 0-10.286 0.857t-9.429 3.143-7.714 3.429-7.714 5.714-6.571 5.714-7.429 7.143-6.857 7.143q8-8 8-19.429t-8-19.429l-72-72 146.286-146.286q24.571 24.571 54.857 24.571 29.714 0 52-21.143l207.429-207.429q21.143-22.286 21.143-52z" />
<glyph unicode="&#xf0e9;" glyph-name="umbrella" horiz-adv-x="951" d="M512 477.714v-331.429q0-59.429-43.429-102.857t-102.857-43.429-102.857 43.429-43.429 102.857q0 14.857 10.857 25.714t25.714 10.857 25.714-10.857 10.857-25.714q0-28.571 22.286-50.857t50.857-22.286 50.857 22.286 22.286 50.857v331.429q18.857 6.286 36.571 6.286t36.571-6.286zM950.857 462.286q0-7.429-5.429-12.857t-12.857-5.429q-6.286 0-13.143 5.714-28 26.286-53.143 39.429t-58.286 13.143q-38.857 0-73.143-21.143t-58.857-55.429q-4-5.714-10-16t-8.286-13.714q-6.286-9.714-16-9.714-10.286 0-16.571 9.714-2.286 3.429-8.286 13.714t-10 16q-24.571 34.286-58.571 55.429t-72.857 21.143-72.857-21.143-58.571-55.429q-4-5.714-10-16t-8.286-13.714q-6.286-9.714-16.571-9.714-9.714 0-16 9.714-2.286 3.429-8.286 13.714t-10 16q-24.571 34.286-58.857 55.429t-73.143 21.143q-33.143 0-58.286-13.143t-53.143-39.429q-6.857-5.714-13.143-5.714-7.429 0-12.857 5.429t-5.429 12.857q0 2.857 0.571 4 25.714 104.571 98.571 182.571t170.286 116.857 206 38.857q80 0 156.857-22.857t140.857-64.857 111.143-106.857 66-143.714q0.571-1.143 0.571-4zM512 877.714v-56q-24 1.143-36.571 1.143t-36.571-1.143v56q0 14.857 10.857 25.714t25.714 10.857 25.714-10.857 10.857-25.714z" />
<glyph unicode="&#xf0eb;" glyph-name="lightbulb" horiz-adv-x="585" d="M420.571 621.714q0-7.429-5.429-12.857t-12.857-5.429-12.857 5.429-5.429 12.857q0 26.286-30.857 40.571t-60.571 14.286q-7.429 0-12.857 5.429t-5.429 12.857 5.429 12.857 12.857 5.429q28.571 0 56.857-9.143t49.714-30.857 21.429-51.429zM512 621.714q0 41.143-19.714 76.571t-51.429 58-70.286 35.429-78 12.857-78-12.857-70.286-35.429-51.429-58-19.714-76.571q0-57.714 38.857-102.857 5.714-6.286 17.429-18.857t17.429-18.857q73.143-87.429 80.571-170.286h130.286q7.429 82.857 80.571 170.286 5.714 6.286 17.429 18.857t17.429 18.857q38.857 45.143 38.857 102.857zM585.143 621.714q0-88.571-58.857-153.143-25.714-28-42.571-49.714t-34-54.571-19.429-61.429q26.857-16 26.857-46.857 0-21.143-14.286-36.571 14.286-15.429 14.286-36.571 0-29.714-25.714-46.286 7.429-13.143 7.429-26.857 0-26.286-18-40.571t-44.286-14.286q-11.429-25.143-34.286-40t-49.714-14.857-49.714 14.857-34.286 40q-26.286 0-44.286 14.286t-18 40.571q0 13.714 7.429 26.857-25.714 16.571-25.714 46.286 0 21.143 14.286 36.571-14.286 15.429-14.286 36.571 0 30.857 26.857 46.857-2.286 28.571-19.429 61.429t-34 54.571-42.571 49.714q-58.857 64.571-58.857 153.143 0 56.571 25.429 105.429t66.857 81.143 93.714 50.857 106.571 18.571 106.571-18.571 93.714-50.857 66.857-81.143 25.429-105.429z" />
<glyph unicode="&#xf0f9;" glyph-name="ambulance" horiz-adv-x="1134" d="M365.714 146.286q0 30.286-21.429 51.714t-51.714 21.429-51.714-21.429-21.429-51.714 21.429-51.714 51.714-21.429 51.714 21.429 21.429 51.714zM146.286 438.857h219.429v146.286h-90.286q-8-1.143-12.571-5.143l-111.429-111.429q-4-6.857-5.143-12.571v-17.143zM877.714 146.286q0 30.286-21.429 51.714t-51.714 21.429-51.714-21.429-21.429-51.714 21.429-51.714 51.714-21.429 51.714 21.429 21.429 51.714zM950.857 530.286v109.714q0 8-5.143 13.143t-13.143 5.143h-128v128q0 8-5.143 13.143t-13.143 5.143h-109.714q-8 0-13.143-5.143t-5.143-13.143v-128h-128q-8 0-13.143-5.143t-5.143-13.143v-109.714q0-8 5.143-13.143t13.143-5.143h128v-128q0-8 5.143-13.143t13.143-5.143h109.714q8 0 13.143 5.143t5.143 13.143v128h128q8 0 13.143 5.143t5.143 13.143zM1097.143 841.143v-658.286q0-14.857-10.857-25.714t-25.714-10.857h-109.714q0-60.571-42.857-103.429t-103.429-42.857-103.429 42.857-42.857 103.429h-219.429q0-60.571-42.857-103.429t-103.429-42.857-103.429 42.857-42.857 103.429h-73.143q-14.857 0-25.714 10.857t-10.857 25.714 10.857 25.714 25.714 10.857v237.714q0 14.857 7.429 33.143t18.286 29.143l113.143 113.143q10.857 10.857 29.143 18.286t33.143 7.429h91.429v182.857q0 14.857 10.857 25.714t25.714 10.857h658.286q14.857 0 25.714-10.857t10.857-25.714z" />
<glyph unicode="&#xf0fb;" glyph-name="fighter-jet" horiz-adv-x="1097" d="M1097.143 402.286q-0.571-18.286-164.571-54.857l-201.143-18.286-128-36.571h-36.571l-167.429-201.143h39.429q14.857 0 25.714-2.571t10.857-6.571-10.857-6.571-25.714-2.571h-182.857v18.286h36.571v237.714h-91.429l-109.714-128h-54.857l-18.286 18.286v109.714h18.286v18.286h73.143v4.571l-109.714 13.714v73.143l109.714 13.714v4.571h-73.143v18.286h-18.286v109.714l18.286 18.286h54.857l109.714-128h91.429v237.714h-36.571v18.286h182.857q14.857 0 25.714-2.571t10.857-6.571-10.857-6.571-25.714-2.571h-39.429l167.429-201.143h36.571l128-36.571 201.143-18.286q149.143-33.143 164-53.143z" />
<glyph unicode="&#xf100;" glyph-name="angle-double-left" horiz-adv-x="603" d="M358.286 164.571q0-7.429-5.714-13.143l-28.571-28.571q-5.714-5.714-13.143-5.714t-13.143 5.714l-266.286 266.286q-5.714 5.714-5.714 13.143t5.714 13.143l266.286 266.286q5.714 5.714 13.143 5.714t13.143-5.714l28.571-28.571q5.714-5.714 5.714-13.143t-5.714-13.143l-224.571-224.571 224.571-224.571q5.714-5.714 5.714-13.143zM577.714 164.571q0-7.429-5.714-13.143l-28.571-28.571q-5.714-5.714-13.143-5.714t-13.143 5.714l-266.286 266.286q-5.714 5.714-5.714 13.143t5.714 13.143l266.286 266.286q5.714 5.714 13.143 5.714t13.143-5.714l28.571-28.571q5.714-5.714 5.714-13.143t-5.714-13.143l-224.571-224.571 224.571-224.571q5.714-5.714 5.714-13.143z" />
<glyph unicode="&#xf101;" glyph-name="angle-double-right" horiz-adv-x="567" d="M340 402.286q0-7.429-5.714-13.143l-266.286-266.286q-5.714-5.714-13.143-5.714t-13.143 5.714l-28.571 28.571q-5.714 5.714-5.714 13.143t5.714 13.143l224.571 224.571-224.571 224.571q-5.714 5.714-5.714 13.143t5.714 13.143l28.571 28.571q5.714 5.714 13.143 5.714t13.143-5.714l266.286-266.286q5.714-5.714 5.714-13.143zM559.429 402.286q0-7.429-5.714-13.143l-266.286-266.286q-5.714-5.714-13.143-5.714t-13.143 5.714l-28.571 28.571q-5.714 5.714-5.714 13.143t5.714 13.143l224.571 224.571-224.571 224.571q-5.714 5.714-5.714 13.143t5.714 13.143l28.571 28.571q5.714 5.714 13.143 5.714t13.143-5.714l266.286-266.286q5.714-5.714 5.714-13.143z" />
<glyph unicode="&#xf102;" glyph-name="angle-double-up" horiz-adv-x="658" d="M614.286 201.143q0-7.429-5.714-13.143l-28.571-28.571q-5.714-5.714-13.143-5.714t-13.143 5.714l-224.571 224.571-224.571-224.571q-5.714-5.714-13.143-5.714t-13.143 5.714l-28.571 28.571q-5.714 5.714-5.714 13.143t5.714 13.143l266.286 266.286q5.714 5.714 13.143 5.714t13.143-5.714l266.286-266.286q5.714-5.714 5.714-13.143zM614.286 420.571q0-7.429-5.714-13.143l-28.571-28.571q-5.714-5.714-13.143-5.714t-13.143 5.714l-224.571 224.571-224.571-224.571q-5.714-5.714-13.143-5.714t-13.143 5.714l-28.571 28.571q-5.714 5.714-5.714 13.143t5.714 13.143l266.286 266.286q5.714 5.714 13.143 5.714t13.143-5.714l266.286-266.286q5.714-5.714 5.714-13.143z" />
<glyph unicode="&#xf103;" glyph-name="angle-double-down" horiz-adv-x="658" d="M614.286 457.143q0-7.429-5.714-13.143l-266.286-266.286q-5.714-5.714-13.143-5.714t-13.143 5.714l-266.286 266.286q-5.714 5.714-5.714 13.143t5.714 13.143l28.571 28.571q5.714 5.714 13.143 5.714t13.143-5.714l224.571-224.571 224.571 224.571q5.714 5.714 13.143 5.714t13.143-5.714l28.571-28.571q5.714-5.714 5.714-13.143zM614.286 676.571q0-7.429-5.714-13.143l-266.286-266.286q-5.714-5.714-13.143-5.714t-13.143 5.714l-266.286 266.286q-5.714 5.714-5.714 13.143t5.714 13.143l28.571 28.571q5.714 5.714 13.143 5.714t13.143-5.714l224.571-224.571 224.571 224.571q5.714 5.714 13.143 5.714t13.143-5.714l28.571-28.571q5.714-5.714 5.714-13.143z" />
<glyph unicode="&#xf108;" glyph-name="desktop" horiz-adv-x="1097" d="M1024 384v475.429q0 7.429-5.429 12.857t-12.857 5.429h-914.286q-7.429 0-12.857-5.429t-5.429-12.857v-475.429q0-7.429 5.429-12.857t12.857-5.429h914.286q7.429 0 12.857 5.429t5.429 12.857zM1097.143 859.428v-621.714q0-37.714-26.857-64.571t-64.571-26.857h-310.857q0-21.143 9.143-44.286t18.286-40.571 9.143-24.857q0-14.857-10.857-25.714t-25.714-10.857h-292.571q-14.857 0-25.714 10.857t-10.857 25.714q0 8 9.143 25.143t18.286 40 9.143 44.571h-310.857q-37.714 0-64.571 26.857t-26.857 64.571v621.714q0 37.714 26.857 64.571t64.571 26.857h914.286q37.714 0 64.571-26.857t26.857-64.571z" />
<glyph unicode="&#xf109;" glyph-name="laptop" horiz-adv-x="1097" d="M237.714 219.428q-37.714 0-64.571 26.857t-26.857 64.571v402.286q0 37.714 26.857 64.571t64.571 26.857h621.714q37.714 0 64.571-26.857t26.857-64.571v-402.286q0-37.714-26.857-64.571t-64.571-26.857h-621.714zM219.429 713.143v-402.286q0-7.429 5.429-12.857t12.857-5.429h621.714q7.429 0 12.857 5.429t5.429 12.857v402.286q0 7.429-5.429 12.857t-12.857 5.429h-621.714q-7.429 0-12.857-5.429t-5.429-12.857zM1005.714 182.857h91.429v-54.857q0-22.857-26.857-38.857t-64.571-16h-914.286q-37.714 0-64.571 16t-26.857 38.857v54.857h1005.714zM594.286 128q9.143 0 9.143 9.143t-9.143 9.143h-91.429q-9.143 0-9.143-9.143t9.143-9.143h91.429z" />
<glyph unicode="&#xf10a;" glyph-name="tablet" horiz-adv-x="658" d="M365.714 146.286q0 14.857-10.857 25.714t-25.714 10.857-25.714-10.857-10.857-25.714 10.857-25.714 25.714-10.857 25.714 10.857 10.857 25.714zM585.143 237.714v548.571q0 7.429-5.429 12.857t-12.857 5.429h-475.429q-7.429 0-12.857-5.429t-5.429-12.857v-548.571q0-7.429 5.429-12.857t12.857-5.429h475.429q7.429 0 12.857 5.429t5.429 12.857zM658.286 786.286v-621.714q0-37.714-26.857-64.571t-64.571-26.857h-475.429q-37.714 0-64.571 26.857t-26.857 64.571v621.714q0 37.714 26.857 64.571t64.571 26.857h475.429q37.714 0 64.571-26.857t26.857-64.571z" />
<glyph unicode="&#xf10b;" glyph-name="mobile" horiz-adv-x="439" d="M265.143 146.286q0 18.857-13.429 32.286t-32.286 13.429-32.286-13.429-13.429-32.286 13.429-32.286 32.286-13.429 32.286 13.429 13.429 32.286zM384 237.714v402.286q0 7.429-5.429 12.857t-12.857 5.429h-292.571q-7.429 0-12.857-5.429t-5.429-12.857v-402.286q0-7.429 5.429-12.857t12.857-5.429h292.571q7.429 0 12.857 5.429t5.429 12.857zM274.286 722.286q0 9.143-9.143 9.143h-91.429q-9.143 0-9.143-9.143t9.143-9.143h91.429q9.143 0 9.143 9.143zM438.857 731.428v-585.143q0-29.714-21.714-51.429t-51.429-21.714h-292.571q-29.714 0-51.429 21.714t-21.714 51.429v585.143q0 29.714 21.714 51.429t51.429 21.714h292.571q29.714 0 51.429-21.714t21.714-51.429z" />
<glyph unicode="&#xf10c;" glyph-name="circle-o" horiz-adv-x="878" d="M438.857 749.714q-84.571 0-156-41.714t-113.143-113.143-41.714-156 41.714-156 113.143-113.143 156-41.714 156 41.714 113.143 113.143 41.714 156-41.714 156-113.143 113.143-156 41.714zM877.714 438.857q0-119.429-58.857-220.286t-159.714-159.714-220.286-58.857-220.286 58.857-159.714 159.714-58.857 220.286 58.857 220.286 159.714 159.714 220.286 58.857 220.286-58.857 159.714-159.714 58.857-220.286z" />
<glyph unicode="&#xf10d;" glyph-name="quote-left" horiz-adv-x="951" d="M438.857 402.286v-219.429q0-45.714-32-77.714t-77.714-32h-219.429q-45.714 0-77.714 32t-32 77.714v402.286q0 59.429 23.143 113.429t62.571 93.429 93.429 62.571 113.429 23.143h36.571q14.857 0 25.714-10.857t10.857-25.714v-73.143q0-14.857-10.857-25.714t-25.714-10.857h-36.571q-60.571 0-103.429-42.857t-42.857-103.429v-18.286q0-22.857 16-38.857t38.857-16h128q45.714 0 77.714-32t32-77.714zM950.857 402.286v-219.429q0-45.714-32-77.714t-77.714-32h-219.429q-45.714 0-77.714 32t-32 77.714v402.286q0 59.429 23.143 113.429t62.571 93.429 93.429 62.571 113.429 23.143h36.571q14.857 0 25.714-10.857t10.857-25.714v-73.143q0-14.857-10.857-25.714t-25.714-10.857h-36.571q-60.571 0-103.429-42.857t-42.857-103.429v-18.286q0-22.857 16-38.857t38.857-16h128q45.714 0 77.714-32t32-77.714z" />
<glyph unicode="&#xf10e;" glyph-name="quote-right" horiz-adv-x="951" d="M438.857 768v-402.286q0-59.429-23.143-113.429t-62.571-93.429-93.429-62.571-113.429-23.143h-36.571q-14.857 0-25.714 10.857t-10.857 25.714v73.143q0 14.857 10.857 25.714t25.714 10.857h36.571q60.571 0 103.429 42.857t42.857 103.429v18.286q0 22.857-16 38.857t-38.857 16h-128q-45.714 0-77.714 32t-32 77.714v219.429q0 45.714 32 77.714t77.714 32h219.429q45.714 0 77.714-32t32-77.714zM950.857 768v-402.286q0-59.429-23.143-113.429t-62.571-93.429-93.429-62.571-113.429-23.143h-36.571q-14.857 0-25.714 10.857t-10.857 25.714v73.143q0 14.857 10.857 25.714t25.714 10.857h36.571q60.571 0 103.429 42.857t42.857 103.429v18.286q0 22.857-16 38.857t-38.857 16h-128q-45.714 0-77.714 32t-32 77.714v219.429q0 45.714 32 77.714t77.714 32h219.429q45.714 0 77.714-32t32-77.714z" />
<glyph unicode="&#xf111;" glyph-name="circle" horiz-adv-x="878" d="M877.714 438.857q0-119.429-58.857-220.286t-159.714-159.714-220.286-58.857-220.286 58.857-159.714 159.714-58.857 220.286 58.857 220.286 159.714 159.714 220.286 58.857 220.286-58.857 159.714-159.714 58.857-220.286z" />
<glyph unicode="&#xf113;" glyph-name="github" horiz-adv-x="951" d="M365.714 256q0-22.857-7.143-46.857t-24.571-43.429-41.429-19.429-41.429 19.429-24.571 43.429-7.143 46.857 7.143 46.857 24.571 43.429 41.429 19.429 41.429-19.429 24.571-43.429 7.143-46.857zM731.429 256q0-22.857-7.143-46.857t-24.571-43.429-41.429-19.429-41.429 19.429-24.571 43.429-7.143 46.857 7.143 46.857 24.571 43.429 41.429 19.429 41.429-19.429 24.571-43.429 7.143-46.857zM822.857 256q0 68.571-39.429 116.571t-106.857 48q-23.429 0-111.429-12-40.571-6.286-89.714-6.286t-89.714 6.286q-86.857 12-111.429 12-67.429 0-106.857-48t-39.429-116.571q0-50.286 18.286-87.714t46.286-58.857 69.714-34.286 80-16.857 85.143-4h96q46.857 0 85.143 4t80 16.857 69.714 34.286 46.286 58.857 18.286 87.714zM950.857 356.571q0-118.286-34.857-189.143-21.714-44-60.286-76t-80.571-49.143-97.143-27.143-98-12.571-95.429-2.571q-44.571 0-81.143 1.714t-84.286 7.143-87.143 17.143-78.286 29.429-69.143 46.286-49.143 65.714q-35.429 70.286-35.429 189.143 0 135.429 77.714 226.286-15.429 46.857-15.429 97.143 0 66.286 29.143 124.571 61.714 0 108.571-22.571t108-70.571q84 20 176.571 20 84.571 0 160-18.286 60 46.857 106.857 69.143t108 22.286q29.143-58.286 29.143-124.571 0-49.714-15.429-96 77.714-91.429 77.714-227.429z" />
<glyph unicode="&#xf118;" glyph-name="smile" horiz-adv-x="878" d="M648 336.571q-21.143-69.143-78.857-111.429t-130.286-42.286-130.286 42.286-78.857 111.429q-4.571 14.286 2.286 27.714t21.714 18q14.286 4.571 27.714-2.286t18-21.714q14.286-45.714 52.857-74t86.571-28.286 86.571 28.286 52.857 74q4.571 14.857 18.286 21.714t28 2.286 21.143-18 2.286-27.714zM365.714 585.143q0-30.286-21.429-51.714t-51.714-21.429-51.714 21.429-21.429 51.714 21.429 51.714 51.714 21.429 51.714-21.429 21.429-51.714zM658.286 585.143q0-30.286-21.429-51.714t-51.714-21.429-51.714 21.429-21.429 51.714 21.429 51.714 51.714 21.429 51.714-21.429 21.429-51.714zM804.571 438.857q0 74.286-29.143 142t-78 116.571-116.571 78-142 29.143-142-29.143-116.571-78-78-116.571-29.143-142 29.143-142 78-116.571 116.571-78 142-29.143 142 29.143 116.571 78 78 116.571 29.143 142zM877.714 438.857q0-119.429-58.857-220.286t-159.714-159.714-220.286-58.857-220.286 58.857-159.714 159.714-58.857 220.286 58.857 220.286 159.714 159.714 220.286 58.857 220.286-58.857 159.714-159.714 58.857-220.286z" />
<glyph unicode="&#xf119;" glyph-name="frown" horiz-adv-x="878" d="M648 248.571q4.571-14.286-2.286-27.714t-21.143-18-28 2.286-18.286 21.714q-14.286 45.714-52.857 74t-86.571 28.286-86.571-28.286-52.857-74q-4.571-14.857-18-21.714t-27.714-2.286q-14.857 4.571-21.714 18t-2.286 27.714q21.143 69.143 78.857 111.429t130.286 42.286 130.286-42.286 78.857-111.429zM365.714 585.143q0-30.286-21.429-51.714t-51.714-21.429-51.714 21.429-21.429 51.714 21.429 51.714 51.714 21.429 51.714-21.429 21.429-51.714zM658.286 585.143q0-30.286-21.429-51.714t-51.714-21.429-51.714 21.429-21.429 51.714 21.429 51.714 51.714 21.429 51.714-21.429 21.429-51.714zM804.571 438.857q0 74.286-29.143 142t-78 116.571-116.571 78-142 29.143-142-29.143-116.571-78-78-116.571-29.143-142 29.143-142 78-116.571 116.571-78 142-29.143 142 29.143 116.571 78 78 116.571 29.143 142zM877.714 438.857q0-119.429-58.857-220.286t-159.714-159.714-220.286-58.857-220.286 58.857-159.714 159.714-58.857 220.286 58.857 220.286 159.714 159.714 220.286 58.857 220.286-58.857 159.714-159.714 58.857-220.286z" />
<glyph unicode="&#xf11b;" glyph-name="gamepad" horiz-adv-x="1097" d="M475.429 329.143v73.143q0 8-5.143 13.143t-13.143 5.143h-109.714v109.714q0 8-5.143 13.143t-13.143 5.143h-73.143q-8 0-13.143-5.143t-5.143-13.143v-109.714h-109.714q-8 0-13.143-5.143t-5.143-13.143v-73.143q0-8 5.143-13.143t13.143-5.143h109.714v-109.714q0-8 5.143-13.143t13.143-5.143h73.143q8 0 13.143 5.143t5.143 13.143v109.714h109.714q8 0 13.143 5.143t5.143 13.143zM804.571 292.571q0 30.286-21.429 51.714t-51.714 21.429-51.714-21.429-21.429-51.714 21.429-51.714 51.714-21.429 51.714 21.429 21.429 51.714zM950.857 438.857q0 30.286-21.429 51.714t-51.714 21.429-51.714-21.429-21.429-51.714 21.429-51.714 51.714-21.429 51.714 21.429 21.429 51.714zM1097.143 365.714q0-121.143-85.714-206.857t-206.857-85.714q-109.714 0-193.143 73.143h-125.714q-83.429-73.143-193.143-73.143-121.143 0-206.857 85.714t-85.714 206.857 85.714 206.857 206.857 85.714h512q121.143 0 206.857-85.714t85.714-206.857z" />
<glyph unicode="&#xf11c;" glyph-name="keyboard" horiz-adv-x="1097" d="M219.429 283.428v-54.857q0-9.143-9.143-9.143h-54.857q-9.143 0-9.143 9.143v54.857q0 9.143 9.143 9.143h54.857q9.143 0 9.143-9.143zM292.571 429.714v-54.857q0-9.143-9.143-9.143h-128q-9.143 0-9.143 9.143v54.857q0 9.143 9.143 9.143h128q9.143 0 9.143-9.143zM219.429 576v-54.857q0-9.143-9.143-9.143h-54.857q-9.143 0-9.143 9.143v54.857q0 9.143 9.143 9.143h54.857q9.143 0 9.143-9.143zM804.571 283.428v-54.857q0-9.143-9.143-9.143h-493.714q-9.143 0-9.143 9.143v54.857q0 9.143 9.143 9.143h493.714q9.143 0 9.143-9.143zM438.857 429.714v-54.857q0-9.143-9.143-9.143h-54.857q-9.143 0-9.143 9.143v54.857q0 9.143 9.143 9.143h54.857q9.143 0 9.143-9.143zM365.714 576v-54.857q0-9.143-9.143-9.143h-54.857q-9.143 0-9.143 9.143v54.857q0 9.143 9.143 9.143h54.857q9.143 0 9.143-9.143zM585.143 429.714v-54.857q0-9.143-9.143-9.143h-54.857q-9.143 0-9.143 9.143v54.857q0 9.143 9.143 9.143h54.857q9.143 0 9.143-9.143zM512 576v-54.857q0-9.143-9.143-9.143h-54.857q-9.143 0-9.143 9.143v54.857q0 9.143 9.143 9.143h54.857q9.143 0 9.143-9.143zM731.429 429.714v-54.857q0-9.143-9.143-9.143h-54.857q-9.143 0-9.143 9.143v54.857q0 9.143 9.143 9.143h54.857q9.143 0 9.143-9.143zM950.857 283.428v-54.857q0-9.143-9.143-9.143h-54.857q-9.143 0-9.143 9.143v54.857q0 9.143 9.143 9.143h54.857q9.143 0 9.143-9.143zM658.286 576v-54.857q0-9.143-9.143-9.143h-54.857q-9.143 0-9.143 9.143v54.857q0 9.143 9.143 9.143h54.857q9.143 0 9.143-9.143zM804.571 576v-54.857q0-9.143-9.143-9.143h-54.857q-9.143 0-9.143 9.143v54.857q0 9.143 9.143 9.143h54.857q9.143 0 9.143-9.143zM950.857 576v-201.143q0-9.143-9.143-9.143h-128q-9.143 0-9.143 9.143v54.857q0 9.143 9.143 9.143h64v137.143q0 9.143 9.143 9.143h54.857q9.143 0 9.143-9.143zM1024 146.286v512h-950.857v-512h950.857zM1097.143 658.286v-512q0-30.286-21.429-51.714t-51.714-21.429h-950.857q-30.286 0-51.714 21.429t-21.429 51.714v512q0 30.286 21.429 51.714t51.714 21.429h950.857q30.286 0 51.714-21.429t21.429-51.714z" />
<glyph unicode="&#xf123;" glyph-name="star-half" horiz-adv-x="951" d="M677.714 404l146.857 142.857-241.143 35.429-17.143 34.286-90.857 184v-550.286l33.714-17.714 181.714-96-34.286 202.857-6.857 37.714zM936 553.714l-207.429-202.286 49.143-285.714q2.857-18.857-3.429-29.429t-19.429-10.571q-9.714 0-22.857 6.857l-256.571 134.857-256.571-134.857q-13.143-6.857-22.857-6.857-13.143 0-19.429 10.571t-3.429 29.429l49.143 285.714-208 202.286q-18.286 18.286-13.143 34t30.857 19.714l286.857 41.714 128.571 260q11.429 23.429 28 23.429 16 0 28-23.429l128.571-260 286.857-41.714q25.714-4 30.857-19.714t-13.714-34z" />
<glyph unicode="&#xf135;" glyph-name="rocket" horiz-adv-x="965" d="M822.857 694.857q0 22.857-16 38.857t-38.857 16-38.857-16-16-38.857 16-38.857 38.857-16 38.857 16 16 38.857zM950.857 859.428q0-142.286-43.143-246t-144.857-206q-46.286-45.714-111.429-100.571l-11.429-216.571q-1.143-9.143-9.143-14.857l-219.429-128q-4-2.286-9.143-2.286-6.857 0-13.143 5.143l-36.571 36.571q-7.429 8-4.571 18.286l48.571 157.714-160.571 160.571-157.714-48.571q-1.714-0.571-5.143-0.571-8 0-13.143 5.143l-36.571 36.571q-9.714 10.857-2.857 22.286l128 219.429q5.714 8 14.857 9.143l216.571 11.429q54.857 65.143 100.571 111.429 107.429 106.857 204.571 147.429t246.286 40.571q8 0 13.714-5.429t5.714-12.857z" />
<glyph unicode="&#xf142;" glyph-name="ellipsis-v" horiz-adv-x="219" d="M219.429 237.714v-109.714q0-22.857-16-38.857t-38.857-16h-109.714q-22.857 0-38.857 16t-16 38.857v109.714q0 22.857 16 38.857t38.857 16h109.714q22.857 0 38.857-16t16-38.857zM219.429 530.286v-109.714q0-22.857-16-38.857t-38.857-16h-109.714q-22.857 0-38.857 16t-16 38.857v109.714q0 22.857 16 38.857t38.857 16h109.714q22.857 0 38.857-16t16-38.857zM219.429 822.857v-109.714q0-22.857-16-38.857t-38.857-16h-109.714q-22.857 0-38.857 16t-16 38.857v109.714q0 22.857 16 38.857t38.857 16h109.714q22.857 0 38.857-16t16-38.857z" />
<glyph unicode="&#xf16b;" glyph-name="dropbox" d="M229.714 546.857l282.286-174.286-195.429-162.857-280 182.286zM793.143 229.714v-61.714l-280-167.429v-0.571l-0.571 0.571-0.571-0.571v0.571l-279.429 167.429v61.714l84-54.857 195.429 162.286v1.143l0.571-0.571 0.571 0.571v-1.143l196-162.286zM316.571 883.428l195.429-162.857-282.286-173.714-193.143 154.286zM794.286 546.857l193.143-154.857-279.429-182.286-196 162.857zM708 883.428l279.429-182.286-193.143-154.286-282.286 173.714z" />
<glyph unicode="&#xf16c;" glyph-name="stack-overflow" horiz-adv-x="878" d="M736.571 18.286h-638.857v274.286h-91.429v-365.714h821.714v365.714h-91.429v-274.286zM198.286 317.714l18.857 89.714 447.429-94.286-18.857-89.143zM257.143 531.428l38.286 83.429 414.286-193.714-38.286-82.857zM372 734.857l58.286 70.286 350.857-293.143-58.286-70.286zM598.857 950.857l272.571-366.286-73.143-54.857-272.571 366.286zM188.571 110.286v90.857h457.143v-90.857h-457.143z" />
<glyph unicode="&#xf16d;" glyph-name="instagram" horiz-adv-x="878" d="M585.143 438.857q0 60.571-42.857 103.429t-103.429 42.857-103.429-42.857-42.857-103.429 42.857-103.429 103.429-42.857 103.429 42.857 42.857 103.429zM664 438.857q0-93.714-65.714-159.429t-159.429-65.714-159.429 65.714-65.714 159.429 65.714 159.429 159.429 65.714 159.429-65.714 65.714-159.429zM725.714 673.143q0-21.714-15.429-37.143t-37.143-15.429-37.143 15.429-15.429 37.143 15.429 37.143 37.143 15.429 37.143-15.429 15.429-37.143zM438.857 798.857q-4 0-43.714 0.286t-60.286 0-55.143-1.714-58.857-5.714-40.857-10.571q-28.571-11.429-50.286-33.143t-33.143-50.286q-6.286-16.571-10.571-40.857t-5.714-58.857-1.714-55.143 0-60.286 0.286-43.714-0.286-43.714 0-60.286 1.714-55.143 5.714-58.857 10.571-40.857q11.429-28.571 33.143-50.286t50.286-33.143q16.571-6.286 40.857-10.571t58.857-5.714 55.143-1.714 60.286 0 43.714 0.286 43.714-0.286 60.286 0 55.143 1.714 58.857 5.714 40.857 10.571q28.571 11.429 50.286 33.143t33.143 50.286q6.286 16.571 10.571 40.857t5.714 58.857 1.714 55.143 0 60.286-0.286 43.714 0.286 43.714 0 60.286-1.714 55.143-5.714 58.857-10.571 40.857q-11.429 28.571-33.143 50.286t-50.286 33.143q-16.571 6.286-40.857 10.571t-58.857 5.714-55.143 1.714-60.286 0-43.714-0.286zM877.714 438.857q0-130.857-2.857-181.143-5.714-118.857-70.857-184t-184-70.857q-50.286-2.857-181.143-2.857t-181.143 2.857q-118.857 5.714-184 70.857t-70.857 184q-2.857 50.286-2.857 181.143t2.857 181.143q5.714 118.857 70.857 184t184 70.857q50.286 2.857 181.143 2.857t181.143-2.857q118.857-5.714 184-70.857t70.857-184q2.857-50.286 2.857-181.143z" />
<glyph unicode="&#xf16e;" glyph-name="flickr" horiz-adv-x="878" d="M713.143 877.714q68 0 116.286-48.286t48.286-116.286v-548.571q0-68-48.286-116.286t-116.286-48.286h-548.571q-68 0-116.286 48.286t-48.286 116.286v548.571q0 68 48.286 116.286t116.286 48.286h548.571zM398.857 438.857q0 50.286-35.429 85.714t-85.714 35.429-85.714-35.429-35.429-85.714 35.429-85.714 85.714-35.429 85.714 35.429 35.429 85.714zM721.143 438.857q0 50.286-35.429 85.714t-85.714 35.429-85.714-35.429-35.429-85.714 35.429-85.714 85.714-35.429 85.714 35.429 35.429 85.714z" />
<glyph unicode="&#xf17e;" glyph-name="skype" horiz-adv-x="878" d="M670.286 343.428q0 28.571-11.143 52.286t-27.714 39.143-41.714 28-47.143 19.429-50 13.143l-59.429 13.714q-17.143 4-25.143 6t-20 6.571-17.143 9.143-9.429 12-4.286 17.143q0 44 82.286 44 24.571 0 44-6.857t30.857-16.286 21.714-19.143 22.857-16.571 27.429-6.857q26.857 0 43.143 18.286t16.286 44q0 31.429-32 56.857t-81.143 38.571-104 13.143q-38.857 0-75.429-8.857t-68.286-26.857-50.857-49.714-19.143-73.429q0-34.857 10.857-60.857t32-43.143 45.714-27.714 58.857-18.571l83.429-20.571q51.429-12.571 64-20.571 18.286-11.429 18.286-34.286 0-22.286-22.857-36.857t-60-14.571q-29.143 0-52.286 9.143t-37.143 22-26 25.714-26.286 22-30.857 9.143q-28.571 0-43.143-17.143t-14.571-42.857q0-52.571 69.714-90t166.286-37.429q41.714 0 80 10.571t70 30.571 50.571 53.429 18.857 75.143zM877.714 219.428q0-90.857-64.286-155.143t-155.143-64.286q-74.286 0-133.714 45.714-44-9.143-85.714-9.143-81.714 0-156.286 31.714t-128.571 85.714-85.714 128.571-31.714 156.286q0 41.714 9.143 85.714-45.714 59.429-45.714 133.714 0 90.857 64.286 155.143t155.143 64.286q74.286 0 133.714-45.714 44 9.143 85.714 9.143 81.714 0 156.286-31.714t128.571-85.714 85.714-128.571 31.714-156.286q0-41.714-9.143-85.714 45.714-59.429 45.714-133.714z" />
<glyph unicode="&#xf1a6;" glyph-name="digg" horiz-adv-x="1170" d="M187.429 789.714h116.571v-561.714h-304v398.286h187.429v163.429zM187.429 321.714v210.857h-70.286v-210.857h70.286zM350.857 626.286v-398.286h117.143v398.286h-117.143zM350.857 789.714v-116.571h117.143v116.571h-117.143zM514.857 626.286h304.571v-538.286h-304.571v93.143h187.429v46.857h-187.429v398.286zM702.286 321.714v210.857h-70.286v-210.857h70.286zM866.286 626.286h304v-538.286h-304v93.143h186.857v46.857h-186.857v398.286zM1053.143 321.714v210.857h-70.286v-210.857h70.286z" />
</font>
</defs>
</svg>
